osu file format v14

[General]
AudioFilename: audio.mp3
AudioLeadIn: 0
PreviewTime: 37322
Countdown: 0
SampleSet: Soft
StackLeniency: 0.3
Mode: 0
LetterboxInBreaks: 0
WidescreenStoryboard: 1

[Editor]
DistanceSpacing: 1
BeatDivisor: 8
GridSize: 8
TimelineZoom: 1

[Metadata]
Title:Here - TV Size -
TitleUnicode:Here - TV Size -
Artist:JUNNA
ArtistUnicode:JUNNA
Creator:Shogud
Version:Expert
Source:
Tags:
BeatmapID:1454757
BeatmapSetID:687500

[Difficulty]
HPDrainRate:6
CircleSize:4
OverallDifficulty:8.7
ApproachRate:9.3
SliderMultiplier:2
SliderTickRate:1

[Events]
//Background and Video events
0,0,"here.jpg",0,0
Video,-150,"vid.avi"
//Break Periods
//Storyboard Layer 0 (Background)
//Storyboard Layer 1 (Fail)
//Storyboard Layer 2 (Pass)
//Storyboard Layer 3 (Foreground)
//Storyboard Sound Samples

[TimingPoints]
934,555.555555555556,3,2,0,100,1,0
934,-200,3,2,0,100,0,0
7600,869.565217391304,3,2,0,100,1,0
8469,833.333333333333,3,2,0,100,1,0
8469,-133.333333333333,4,2,0,100,0,0
10969,-275.5,3,2,0,100,0,0
12044,555.555555555556,3,2,0,100,1,0
12600,-133.333333333333,3,2,0,100,0,0
13156,555.555555555556,4,2,0,100,1,0
22044,-133.333333333333,4,2,0,100,0,0
37600,-200,4,2,0,100,0,0
38711,-100,4,2,0,100,0,0
57600,555.555555555556,3,2,0,100,1,0
57600,-80,3,2,0,100,0,1
77600,-100,3,2,0,100,0,0
85933,-200,3,2,0,100,0,0
87600,-800,3,2,0,100,0,0

[HitObjects]
167,337,934,5,0,0:0:0:0:
167,337,1211,1,0,0:0:0:0:
137,164,1489,2,0,P|164:161|186:163,1,25
152,250,1767,1,0,0:0:0:0:
152,250,2045,1,0,0:0:0:0:
122,77,2322,2,0,P|149:74|170:77,1,25
137,164,2600,2,0,P|208:179|192:331,1,250
344,337,4267,5,0,0:0:0:0:
344,337,4545,1,0,0:0:0:0:
374,164,4822,1,0,0:0:0:0:
358,172,4961,1,0,0:0:0:0:
359,250,5100,1,0,0:0:0:0:
359,250,5378,1,0,0:0:0:0:
389,77,5656,1,0,0:0:0:0:
373,85,5795,1,0,0:0:0:0:
374,164,5934,2,0,P|303:179|368:337,1,300
408,120,8469,6,0,P|352:120|304:144,1,93.7500035762788
104,120,9302,6,0,P|160:120|208:144,1,93.7500035762788
400,264,10135,6,0,P|351:236|297:232,1,93.7500035762788
112,264,10969,6,0,P|160:236|214:232,1,93.7500035762788
256,288,12600,6,0,L|256:312,7,18.7500007152558
264,328,13156,6,0,P|320:328|368:312,1,100
376,320,13572,1,0,0:0:0:0:
472,240,13711,2,0,P|416:230|378:215,1,50
408,240,13989,1,0,0:0:0:0:
296,160,14128,6,0,P|352:160|400:144,1,100
408,136,14544,1,0,0:0:0:0:
448,40,14683,1,0,0:0:0:0:
328,80,14822,1,0,0:0:0:0:
288,0,14961,1,0,0:0:0:0:
168,128,15100,1,0,0:0:0:0:
208,48,15239,1,0,0:0:0:0:
208,208,15378,6,0,P|208:264|192:312,1,100
200,320,15794,1,0,0:0:0:0:
296,368,15933,2,0,P|296:312|312:264,1,100
304,256,16350,1,0,0:0:0:0:
352,136,16489,6,0,P|361:191|376:229,1,50
208,128,16767,2,0,P|260:147|300:153,1,50
176,224,17044,1,0,0:0:0:0:
88,240,17183,1,0,0:0:0:0:
144,56,17322,1,0,0:0:0:0:
75,113,17461,1,0,0:0:0:0:
208,128,17600,6,0,P|263:118|301:103,1,50
272,128,17878,1,0,0:0:0:0:
440,216,18017,2,0,P|384:216|336:200,1,100
328,216,18433,1,0,0:0:0:0:
216,304,18572,1,0,0:0:0:0:
304,304,18711,1,0,0:0:0:0:
248,184,18896,5,0,0:0:0:0:
128,216,19081,5,0,0:0:0:0:
8,248,19267,5,0,0:0:0:0:
20,369,19452,5,0,0:0:0:0:
140,337,19637,5,0,0:0:0:0:
260,305,19822,5,0,0:0:0:0:
260,305,19961,1,0,0:0:0:0:
368,224,20100,1,0,0:0:0:0:
232,216,20239,1,0,0:0:0:0:
265,121,20378,1,0,0:0:0:0:
152,152,20517,1,0,0:0:0:0:
136,64,20656,1,0,0:0:0:0:
32,160,20794,5,0,0:0:0:0:
1,244,20933,1,0,0:0:0:0:
104,264,21072,1,0,0:0:0:0:
119,352,21211,1,0,0:0:0:0:
288,280,21350,1,0,0:0:0:0:
219,336,21489,1,0,0:0:0:0:
176,152,21628,1,0,0:0:0:0:
189,238,21767,1,0,0:0:0:0:
304,48,21906,5,0,0:0:0:0:
264,192,22044,2,0,P|312:192|358:178,1,75.0000028610231
352,192,22461,1,0,0:0:0:0:
432,280,22600,2,0,P|408:283|384:280,1,37.5000014305115
376,296,22878,1,0,0:0:0:0:
208,344,23017,2,0,P|256:344|302:330,1,75.0000028610231
296,344,23433,1,0,0:0:0:0:
200,256,23572,2,0,P|176:259|120:256,1,75.0000028610231
104,264,23989,1,0,0:0:0:0:
168,168,24128,1,0,0:0:0:0:
72,72,24267,6,0,P|96:75|120:72,1,37.5000014305115
120,88,24544,1,0,0:0:0:0:
232,8,24683,2,0,P|229:32|232:88,1,75.0000028610231
216,96,25100,1,0,0:0:0:0:
336,208,25239,2,0,P|333:184|336:128,1,75.0000028610231
320,120,25656,1,0,0:0:0:0:
360,16,25794,1,0,0:0:0:0:
440,80,25933,1,0,0:0:0:0:
448,96,26072,1,0,0:0:0:0:
440,240,26211,2,0,P|437:216|440:192,1,37.5000014305115
360,304,26489,6,0,P|363:328|360:352,1,37.5000014305115
368,360,26767,1,0,0:0:0:0:
264,288,26906,2,0,P|267:264|264:208,1,75.0000028610231
248,200,27322,1,0,0:0:0:0:
168,320,27461,2,0,P|169:309|168:296,1,18.7500007152558
128,200,27600,2,0,P|126:215|128:232,3,18.7500007152558
112,240,27878,1,0,0:0:0:0:
168,112,28017,2,0,P|144:115|88:112,1,75.0000028610231
80,120,28433,1,0,0:0:0:0:
15,203,28572,1,0,0:0:0:0:
16,312,28711,6,0,P|40:315|64:312,1,37.5000014305115
64,328,28989,1,0,0:0:0:0:
168,352,29128,2,0,P|165:328|168:272,1,75.0000028610231
160,256,29544,1,0,0:0:0:0:
256,168,29683,2,0,P|253:192|256:248,1,75.0000028610231
264,256,30100,1,0,0:0:0:0:
347,331,30239,1,0,0:0:0:0:
430,256,30378,1,0,0:0:0:0:
349,198,30517,1,0,0:0:0:0:
440,336,30656,2,0,P|443:360|440:384,1,37.5000014305115
512,232,30933,6,0,P|509:208|512:184,1,37.5000014305115
500,176,31211,1,0,0:0:0:0:
392,64,31350,2,0,P|395:88|392:144,1,75.0000028610231
386,153,31767,1,0,0:0:0:0:
288,232,31906,2,0,P|291:208|288:152,1,75.0000028610231
280,144,32322,1,0,0:0:0:0:
240,48,32461,1,0,0:0:0:0:
176,136,32600,1,0,0:0:0:0:
168,120,32739,1,0,0:0:0:0:
112,24,32878,2,0,P|109:48|112:72,1,37.5000014305115
72,216,33156,6,0,P|75:192|72:168,1,37.5000014305115
86,163,33433,1,0,0:0:0:0:
176,248,33572,2,0,P|173:272|176:328,1,75.0000028610231
184,336,33989,1,0,0:0:0:0:
280,248,34128,2,0,P|277:224|280:168,1,75.0000028610231
288,160,34544,1,0,0:0:0:0:
384,248,34683,2,0,P|381:272|384:328,1,75.0000028610231
400,336,35100,1,0,0:0:0:0:
479,256,35239,1,0,0:0:0:0:
432,152,35378,6,0,P|407:150|384:143,1,37.5000014305115
280,40,35656,2,0,P|295:29|313:23,1,37.5000014305115
304,144,35933,1,0,0:0:0:0:
272,152,36072,1,0,0:0:0:0:
160,32,36211,1,0,0:0:0:0:
191,41,36350,1,0,0:0:0:0:
184,168,36489,6,0,P|183:186|179:205,1,37.5000014305115
320,248,36767,2,0,P|320:266|324:285,1,37.5000014305115
232,280,37044,1,0,0:0:0:0:
208,360,37183,1,0,0:0:0:0:
380,143,37322,1,0,0:0:0:0:
404,223,37461,1,0,0:0:0:0:
307,66,37600,6,0,B|294:113|294:113|268:147|268:147|252:209,1,150
191,86,38711,5,0,0:0:0:0:
64,256,38850,1,0,0:0:0:0:
96,32,38989,1,0,0:0:0:0:
144,272,39128,1,0,0:0:0:0:
146,287,39197,1,0,0:0:0:0:
149,303,39267,1,0,0:0:0:0:
122,159,39406,1,0,0:0:0:0:
268,232,39544,1,0,0:0:0:0:
275,120,39683,1,0,0:0:0:0:
400,176,39822,6,0,P|397:152|408:72,1,100
400,59,40239,1,0,0:0:0:0:
275,120,40378,2,0,P|272:144|283:224,1,100
268,232,40794,1,0,0:0:0:0:
160,120,40933,2,0,P|163:96|152:16,1,100
136,8,41350,1,0,0:0:0:0:
56,112,41489,1,0,0:0:0:0:
16,208,41628,1,0,0:0:0:0:
120,192,41767,1,0,0:0:0:0:
160,288,41906,1,0,0:0:0:0:
71,274,42044,6,0,P|68:298|79:378,1,100
96,384,42461,1,0,0:0:0:0:
192,272,42600,2,0,P|188:222|198:173,1,100
216,160,43017,1,0,0:0:0:0:
312,248,43156,1,0,0:0:0:0:
280,344,43294,1,0,0:0:0:0:
412,227,43433,1,0,0:0:0:0:
380,324,43572,1,0,0:0:0:0:
380,324,43642,1,0,0:0:0:0:
380,324,43711,1,0,0:0:0:0:
344,151,43850,1,0,0:0:0:0:
408,80,43989,1,0,0:0:0:0:
256,104,44128,1,0,0:0:0:0:
275,10,44267,6,0,P|225:6|176:16,1,100
160,32,44683,1,0,0:0:0:0:
24,120,44822,2,0,P|73:116|122:126,1,100
139,142,45239,1,0,0:0:0:0:
256,240,45378,2,0,P|206:236|157:246,1,100
141,262,45794,1,0,0:0:0:0:
226,346,45933,1,0,0:0:0:0:
330,306,46072,1,0,0:0:0:0:
420,373,46211,1,0,0:0:0:0:
438,262,46350,1,0,0:0:0:0:
350,194,46489,6,0,P|300:197|251:187,1,100
240,176,46906,1,0,0:0:0:0:
352,296,47044,2,0,P|401:299|450:289,1,100
462,278,47461,1,0,0:0:0:0:
272,360,47600,2,0,P|222:363|173:353,1,100
162,342,48017,1,0,0:0:0:0:
32,240,48156,2,0,P|81:243|130:233,1,100
142,222,48572,1,0,0:0:0:0:
88,128,48711,6,0,P|91:79|81:30,1,100
96,16,49128,1,0,0:0:0:0:
192,80,49267,1,0,0:0:0:0:
296,64,49406,1,0,0:0:0:0:
296,64,49475,1,0,0:0:0:0:
296,64,49544,2,0,P|299:113|289:162,1,100
304,176,49961,1,0,0:0:0:0:
408,64,50100,2,0,P|411:88|408:120,1,50
456,192,50378,2,0,P|459:216|456:248,1,50
400,320,50586,1,0,0:0:0:0:
400,320,50656,6,0,P|351:323|302:313,1,100
296,296,51072,1,0,0:0:0:0:
152,336,51211,2,0,P|176:339|208:336,1,50
272,200,51489,2,0,P|248:203|216:200,1,50
80,240,51767,2,0,P|104:243|136:240,1,50
200,40,52044,5,0,0:0:0:0:
128,144,52183,1,0,0:0:0:0:
296,8,52322,1,0,0:0:0:0:
368,112,52461,1,0,0:0:0:0:
271,101,52600,1,0,0:0:0:0:
239,205,52739,1,0,0:0:0:0:
432,40,52878,1,0,0:0:0:0:
464,144,53017,1,0,0:0:0:0:
384,224,53156,6,0,P|387:273|377:322,1,100
360,328,53572,1,0,0:0:0:0:
264,280,53711,1,0,0:0:0:0:
160,352,53850,1,0,0:0:0:0:
160,352,53919,1,0,0:0:0:0:
160,352,53989,2,0,P|163:303|153:254,1,100
32,296,54406,1,0,0:0:0:0:
64,192,54544,1,0,0:0:0:0:
160,152,54683,1,0,0:0:0:0:
128,48,54822,1,0,0:0:0:0:
256,32,54961,1,0,0:0:0:0:
256,32,55031,1,0,0:0:0:0:
256,32,55100,2,0,P|259:56|256:88,1,50
272,96,55378,5,0,0:0:0:0:
432,32,55517,1,0,0:0:0:0:
368,240,55656,1,0,0:0:0:0:
384,128,55794,1,0,0:0:0:0:
312,328,55933,2,0,P|263:331|214:321,1,100
200,312,56350,5,0,0:0:0:0:
144,152,56489,1,0,0:0:0:0:
104,344,56628,1,0,0:0:0:0:
272,192,56767,1,0,0:0:0:0:
32,288,56906,1,0,0:0:0:0:
8,280,57183,5,0,0:0:0:0:
296,168,57322,1,0,0:0:0:0:
320,144,57600,5,0,0:0:0:0:
350,0,57738,2,0,P|353:49|337:130,1,125
216,8,58155,2,0,P|259:29|310:73,1,62.5
415,165,58433,5,0,0:0:0:0:
445,309,58572,2,0,P|448:260|432:184,1,125
306,328,58988,2,0,P|334:314|360:296,1,62.5
88,249,59266,6,0,P|137:251|202:238,1,62.5
176,233,59544,1,0,0:0:0:0:
256,88,59683,2,0,P|206:90|141:77,1,62.5
168,72,59961,1,0,0:0:0:0:
312,184,60100,2,0,P|361:186|426:173,1,62.5
400,168,60377,1,0,0:0:0:0:
466,88,60516,1,0,0:0:0:0:
408,0,60655,1,0,0:0:0:0:
384,16,60725,1,0,0:0:0:0:
360,32,60794,1,0,0:0:0:0:
336,48,60863,1,0,0:0:0:0:
312,64,60933,5,0,0:0:0:0:
160,40,61072,2,0,P|209:37|290:53,1,125
144,152,61488,2,0,P|187:129|237:85,1,62.5
34,33,61766,5,0,0:0:0:0:
2,177,61905,2,0,P|-1:128|15:47,1,125
136,259,62322,2,0,P|95:231|32:211,1,62.5
256,344,62600,6,0,P|253:294|266:229,1,62.5
272,256,62877,1,0,0:0:0:0:
448,160,63016,2,0,P|445:209|458:274,1,62.5
464,248,63294,1,0,0:0:0:0:
312,120,63433,2,0,P|309:70|322:5,1,62.5
328,32,63711,1,0,0:0:0:0:
352,205,63850,1,0,0:0:0:0:
192,64,63988,1,0,0:0:0:0:
168,56,64058,1,0,0:0:0:0:
144,48,64127,1,0,0:0:0:0:
120,40,64197,1,0,0:0:0:0:
96,32,64266,6,0,P|99:81|83:162,1,125
64,176,64683,1,0,0:0:0:0:
24,296,64822,1,0,0:0:0:0:
100,253,64961,1,0,0:0:0:0:
140,373,65100,6,0,P|189:376|270:360,1,125
284,341,65516,1,0,0:0:0:0:
416,280,65655,2,0,P|392:280|368:275,1,31.25
240,224,65794,2,0,P|260:224|280:227,1,31.25
456,152,65933,6,0,P|407:155|326:139,1,125
312,112,66350,1,0,0:0:0:0:
216,40,66488,1,0,0:0:0:0:
224,144,66627,1,0,0:0:0:0:
104,129,66766,6,0,P|101:178|117:259,1,125
144,272,67183,1,0,0:0:0:0:
264,270,67322,1,0,0:0:0:0:
248,294,67391,1,0,0:0:0:0:
232,318,67461,1,0,0:0:0:0:
216,342,67530,1,0,0:0:0:0:
200,366,67600,6,0,P|151:369|70:353,1,125
56,328,68016,1,0,0:0:0:0:
24,200,68155,1,0,0:0:0:0:
128,248,68294,1,0,0:0:0:0:
160,120,68433,1,0,0:0:0:0:
272,168,68572,1,0,0:0:0:0:
235,41,68711,1,0,0:0:0:0:
332,255,68850,1,0,0:0:0:0:
370,127,68988,1,0,0:0:0:0:
416,319,69127,5,0,0:0:0:0:
512,227,69266,2,0,P|463:230|398:217,1,62.5
424,211,69544,1,0,0:0:0:0:
200,152,69683,2,0,P|249:155|314:142,1,62.5
288,136,69961,1,0,0:0:0:0:
385,77,70100,5,0,0:0:0:0:
257,37,70238,1,0,0:0:0:0:
335,210,70377,1,0,0:0:0:0:
207,250,70516,1,0,0:0:0:0:
453,344,70655,2,0,P|429:344|405:339,1,31.25
325,304,70794,2,0,P|309:303|293:304,1,31.25
192,348,70933,5,0,0:0:0:0:
47,379,71072,2,0,P|109:381|170:368,1,125
22,259,71488,2,0,P|61:285|125:307,1,62.5
200,223,71766,5,0,0:0:0:0:
231,78,71905,2,0,P|233:140|220:201,1,125
111,53,72322,2,0,P|137:92|160:144,1,62.5
313,326,72600,6,0,P|316:278|303:212,1,62.5
312,232,72877,1,0,0:0:0:0:
456,104,73016,2,0,P|459:151|446:217,1,62.5
440,184,73294,1,0,0:0:0:0:
304,56,73433,5,0,0:0:0:0:
348,172,73572,1,0,0:0:0:0:
184,104,73711,1,0,0:0:0:0:
164,226,73850,1,0,0:0:0:0:
38,246,73988,1,0,0:0:0:0:
54,270,74058,1,0,0:0:0:0:
70,294,74127,1,0,0:0:0:0:
86,318,74197,1,0,0:0:0:0:
102,342,74266,5,0,0:0:0:0:
240,375,74405,2,0,P|191:378|110:362,1,125
202,229,74822,2,0,P|175:268|153:332,1,62.5
316,293,75100,5,0,0:0:0:0:
349,150,75238,2,0,P|352:199|336:280,1,125
442,184,75655,2,0,P|459:211|472:240,1,62.5
256,144,75933,6,0,P|207:147|142:134,1,62.5
168,128,76211,1,0,0:0:0:0:
29,301,76350,2,0,P|78:304|143:291,1,62.5
117,285,76627,1,0,0:0:0:0:
327,285,76766,5,0,0:0:0:0:
204,235,76905,1,0,0:0:0:0:
416,145,77044,1,0,0:0:0:0:
293,195,77183,1,0,0:0:0:0:
328,108,77322,2,0,P|304:105|280:98,1,31.25
171,54,77461,2,0,P|187:54|203:56,1,31.25
107,136,77600,6,0,P|111:171|102:228,1,50
96,208,77877,1,0,0:0:0:0:
78,305,78016,1,0,0:0:0:0:
176,360,78155,2,0,P|180:325|171:268,1,50
200,224,78433,6,0,P|196:189|205:132,1,50
211,152,78711,1,0,0:0:0:0:
229,55,78850,1,0,0:0:0:0:
131,0,78988,2,0,P|127:35|136:92,1,50
64,128,79266,6,0,P|61:177|75:251,1,100
88,248,79683,1,0,0:0:0:0:
200,224,79822,1,0,0:0:0:0:
32,320,79961,1,0,0:0:0:0:
144,344,80100,2,0,P|193:347|267:333,1,100
256,312,80516,1,0,0:0:0:0:
304,200,80655,1,0,0:0:0:0:
328,184,80725,1,0,0:0:0:0:
352,168,80794,1,0,0:0:0:0:
376,152,80863,1,0,0:0:0:0:
405,136,80933,6,0,P|401:171|410:228,1,50
416,208,81211,1,0,0:0:0:0:
434,305,81350,1,0,0:0:0:0:
328,344,81488,1,0,0:0:0:0:
320,328,81627,1,0,0:0:0:0:
312,224,81766,6,0,P|316:189|307:132,1,50
301,152,82044,1,0,0:0:0:0:
283,55,82183,1,0,0:0:0:0:
384,16,82322,1,0,0:0:0:0:
392,32,82461,1,0,0:0:0:0:
448,128,82600,6,0,P|451:177|437:251,1,100
424,248,83016,1,0,0:0:0:0:
320,336,83155,2,0,P|324:301|315:244,1,50
304,256,83433,5,0,0:0:0:0:
144,336,83572,1,0,0:0:0:0:
232,144,83711,1,0,0:0:0:0:
137,237,83850,1,0,0:0:0:0:
79,116,83988,1,0,0:0:0:0:
63,140,84058,1,0,0:0:0:0:
47,164,84127,1,0,0:0:0:0:
31,188,84197,1,0,0:0:0:0:
16,216,84266,6,0,P|13:265|27:339,1,100
40,328,84683,1,0,0:0:0:0:
136,248,84822,1,0,0:0:0:0:
188,334,84961,1,0,0:0:0:0:
231,216,85100,6,0,P|228:167|242:93,1,100
248,96,85516,1,0,0:0:0:0:
376,128,85655,1,0,0:0:0:0:
336,226,85794,1,0,0:0:0:0:
430,317,85933,6,0,P|381:314|307:328,1,100
99,204,86766,2,0,P|148:210|218:237,1,100
412,204,87600,2,0,P|363:210|293:237,1,100
