osu file format v14

[General]
AudioFilename: audio.mp3
AudioLeadIn: 0
PreviewTime: 57535
Countdown: 0
SampleSet: Soft
StackLeniency: 0.7
Mode: 0
LetterboxInBreaks: 0
WidescreenStoryboard: 0

[Editor]
DistanceSpacing: 0.7
BeatDivisor: 3
GridSize: 4
TimelineZoom: 2.3

[Metadata]
Title:Here - TV Size
TitleUnicode:Here - TV Size
Artist:JUNNA
ArtistUnicode:JUNNA
Creator:youko3desu
Version:Insane
Source:魔法使いの嫁
Tags:
BeatmapID:1700495
BeatmapSetID:810490

[Difficulty]
HPDrainRate:5
CircleSize:4
OverallDifficulty:8
ApproachRate:9.5
SliderMultiplier:1.6
SliderTickRate:1

[Events]
//Background and Video events
0,0,"Here.jpg",0,0
Video,0,"op.avi"
//Break Periods
//Storyboard Layer 0 (Background)
//Storyboard Layer 1 (Fail)
//Storyboard Layer 2 (Pass)
//Storyboard Layer 3 (Foreground)
//Storyboard Sound Samples

[TimingPoints]
910,540.540540540541,3,2,1,60,1,0
3882,-100,3,2,1,5,0,0
4153,576.923076923077,3,2,1,60,1,0
7614,826.560132249621,4,2,1,5,1,0
8440,1060.25799611239,4,2,1,60,1,0
8970,783.392087739914,4,2,1,60,1,0
9361,783.392087739914,4,2,1,60,1,0
10144,958.619587793577,4,2,1,30,1,0
10623,608.580991987017,4,2,1,60,1,0
10927,541.027953110911,4,2,1,60,1,0
13091,555.555555555556,4,2,1,60,1,0
13091,-76.9230769230769,4,2,1,60,0,0
17535,-66.6666666666667,4,2,1,60,0,0
18091,-62.5,4,2,1,60,0,0
33646,-55.5555555555556,4,2,1,60,0,0
36702,-62.5,4,2,1,60,0,0
44757,-55.5555555555556,4,2,1,60,0,0
49479,-76.9230769230769,4,2,1,60,0,0
50035,-58.8235294117647,4,2,1,60,0,0
57535,416.666666666667,4,2,1,80,1,1
57673,-58.8235294117647,4,2,1,80,0,1
58090,-66.6666666666667,4,2,1,80,0,1
61146,-83.3333333333333,4,2,1,80,0,1
64201,-71.4285714285714,4,2,1,80,0,1
64757,-83.3333333333333,4,2,1,80,0,1
65868,-100,4,2,1,80,0,1
66076,-100,4,2,1,50,0,1
66146,-133.333333333333,4,2,1,80,0,1
67535,-100,4,2,1,80,0,1
67812,-100,4,2,1,30,0,1
67951,-100,4,2,1,80,0,1
68368,-71.4285714285714,4,2,1,80,0,1
72951,-100,4,2,1,80,0,1
73472,-71.4285714285714,4,2,1,80,0,1
75243,-100,4,2,1,80,0,1
75451,-71.4285714285714,4,2,1,80,0,1
75868,-100,4,2,1,80,0,1
79201,-133.333333333333,4,2,1,80,0,1
79896,-100,4,2,1,80,0,1
84201,-71.4285714285714,4,2,1,60,0,0
84618,-83.3333333333333,4,2,1,60,0,0
85104,-100,4,2,1,60,0,0
87673,-100,4,2,1,5,0,0

[Colours]
Combo1 : 255,128,0
Combo2 : 128,0,255
Combo3 : 0,0,255
Combo4 : 0,242,0

[HitObjects]
257,50,910,5,0,0:0:0:0:
257,50,1180,2,0,L|229:13,1,40
188,101,1450,2,0,L|216:138,1,40
269,209,1720,1,0,0:0:0:0:
269,209,1991,2,0,L|297:172,1,40
338,260,2261,2,0,L|310:297,1,40
257,368,2531,6,0,B|199:364|231:246|231:246|140:384|14:310|54:225,1,400
48,156,4153,5,0,0:0:0:0:
48,156,4441,2,0,L|48:88,1,40
128,60,4729,2,0,L|128:126,1,40
128,196,5018,1,0,0:0:0:0:
128,196,5306,2,0,L|128:264,1,40
208,292,5594,2,0,L|208:226,1,40
208,156,5883,6,0,B|385:51|141:1|115:68|186:229|395:220|348:81|461:172,1,480
84,353,8440,6,0,P|62:310|59:263,1,80
171,126,9361,2,0,P|206:203|156:273,1,160
88,308,10623,5,0,0:0:0:0:
88,308,10927,2,0,B|139:266|120:168|120:168|164:289|275:278,1,320
395,296,12550,2,0,L|356:273,1,40
374,149,12820,2,0,L|335:126,1,40
255,83,13091,6,0,P|306:27|386:48,1,155.999992858887
457,96,13646,2,0,L|503:132,1,51.999997619629
336,114,13924,2,0,L|281:108,1,51.999997619629
236,106,14202,1,0,0:0:0:0:
185,115,14340,1,0,0:0:0:0:
153,154,14479,1,0,0:0:0:0:
155,205,14618,1,0,0:0:0:0:
189,243,14757,2,0,L|252:276,1,51.999997619629
379,142,15035,2,0,L|316:174,1,51.999997619629
189,243,15313,6,0,P|166:182|179:135,1,103.999995239258
217,61,15729,1,0,0:0:0:0:
217,61,15868,2,0,P|164:34|116:31,1,103.999995239258
173,145,16424,1,0,0:0:0:0:
224,152,16562,1,0,0:0:0:0:
275,143,16701,1,0,0:0:0:0:
319,117,16840,1,0,0:0:0:0:
353,77,16979,1,0,0:0:0:0:
173,145,17257,2,0,L|110:166,1,51.999997619629
173,145,17535,6,0,P|172:83|130:44,1,120.000004577637
8,14,17952,1,0,0:0:0:0:
8,14,18091,2,0,L|139:46,1,128
288,81,18646,2,0,L|208:116,2,85.3333333333333
210,218,19202,2,0,L|159:302,2,85.3333333333333
288,81,19757,5,0,0:0:0:0:
310,58,19895,1,0,0:0:0:0:
339,47,20034,1,0,0:0:0:0:
371,49,20173,1,0,0:0:0:0:
399,64,20312,1,0,0:0:0:0:
418,89,20451,1,0,0:0:0:0:
425,120,20590,1,0,0:0:0:0:
419,151,20729,1,0,0:0:0:0:
400,176,20868,5,0,0:0:0:0:
377,153,21006,1,0,0:0:0:0:
348,142,21145,1,0,0:0:0:0:
316,144,21284,1,0,0:0:0:0:
288,159,21423,1,0,0:0:0:0:
269,184,21562,1,0,0:0:0:0:
262,215,21701,1,0,0:0:0:0:
268,246,21840,1,0,0:0:0:0:
287,271,21979,6,0,P|360:260|396:212,1,128
428,132,22535,1,0,0:0:0:0:
428,132,22813,1,0,0:0:0:0:
489,283,23091,2,0,L|417:308,1,64
278,357,23368,2,0,L|354:330,2,64
202,253,23785,1,0,0:0:0:0:
338,335,23924,2,0,L|338:247,1,64
338,335,24202,6,0,P|397:298|413:236,1,128
413,113,24618,1,0,0:0:0:0:
300,51,24757,2,0,P|310:115|370:160,1,128
503,217,25313,2,0,P|434:216|377:257,1,128
300,343,25729,1,0,0:0:0:0:
300,343,25868,2,0,P|258:289|260:229,1,128
291,104,26285,1,0,0:0:0:0:
291,104,26424,6,0,P|231:61|162:69,1,128
57,108,26841,1,0,0:0:0:0:
57,108,26979,2,0,L|113:146,1,64
247,234,27257,2,0,L|160:264,1,64
97,284,27535,5,0,0:0:0:0:
247,234,27674,1,0,0:0:0:0:
97,185,27813,1,0,0:0:0:0:
191,314,27952,1,0,0:0:0:0:
191,154,28091,1,0,0:0:0:0:
341,204,28229,1,0,0:0:0:0:
247,74,28368,1,0,0:0:0:0:
247,234,28507,1,0,0:0:0:0:
341,105,28646,6,0,P|396:70|461:70,1,128
426,29,29063,1,0,0:0:0:0:
375,12,29201,1,0,0:0:0:0:
326,13,29340,1,0,0:0:0:0:
280,36,29479,1,0,0:0:0:0:
247,74,29618,1,0,0:0:0:0:
230,124,29757,5,0,0:0:0:0:
340,187,29896,1,0,0:0:0:0:
229,251,30035,1,0,0:0:0:0:
312,108,30174,5,0,0:0:0:0:
174,186,30313,1,0,0:0:0:0:
312,267,30452,1,0,0:0:0:0:
211,92,30591,5,0,0:0:0:0:
376,186,30730,1,0,0:0:0:0:
210,282,30868,2,0,L|153:314,1,64
211,92,31146,2,0,L|267:60,2,64
98,157,31702,5,0,0:0:0:0:
98,157,31979,1,0,0:0:0:0:
229,251,32257,1,0,0:0:0:0:
266,60,32396,1,0,0:0:0:0:
327,244,32535,1,0,0:0:0:0:
184,113,32674,1,0,0:0:0:0:
145,303,32813,2,0,L|130:367,1,64
327,244,33091,6,0,P|385:167|347:66,1,192
225,161,33646,2,0,P|270:229|328:243,1,143.999995605469
485,228,34202,2,0,P|413:208|339:249,1,143.999995605469
251,314,34618,2,0,L|312:360,2,71.9999978027344
125,213,35035,1,0,0:0:0:0:
125,213,35174,1,0,0:0:0:0:
125,213,35313,6,0,P|93:173|81:144,1,71.9999978027344
38,34,35591,1,0,0:0:0:0:
81,226,35729,2,0,P|61:179|56:148,1,71.9999978027344
38,34,36007,1,0,0:0:0:0:
35,230,36146,2,0,P|27:179|31:148,1,71.9999978027344
38,34,36424,5,0,0:0:0:0:
190,153,36563,1,0,0:0:0:0:
38,34,36702,2,0,L|98:81,1,64
190,153,36979,2,0,L|130:200,2,64
294,75,37396,1,0,0:0:0:0:
294,75,37535,6,0,B|329:47|329:47|417:99|369:193|261:208|227:134|227:134|183:246|238:310|288:282,1,512
400,281,38785,1,0,0:0:0:0:
488,147,38924,1,0,0:0:0:0:
329,169,39063,1,0,0:0:0:0:
329,169,39132,1,0,0:0:0:0:
329,169,39202,1,0,0:0:0:0:
400,281,39341,1,0,0:0:0:0:
240,302,39479,1,0,0:0:0:0:
21,112,39757,5,0,0:0:0:0:
240,302,40035,2,0,P|180:262|126:264,1,128
0,301,40452,1,0,0:0:0:0:
97,172,40591,1,0,0:0:0:0:
384,139,40868,2,0,P|417:133|466:116,1,64
313,34,41146,2,0,P|280:40|231:57,1,64
131,98,41424,1,0,0:0:0:0:
131,98,41702,1,0,0:0:0:0:
131,98,41979,6,0,P|141:164|183:225,1,128
277,341,42535,1,0,0:0:0:0:
44,234,42813,1,0,0:0:0:0:
277,341,43091,6,0,L|342:335,1,64
469,322,43368,1,0,0:0:0:0:
289,254,43507,2,0,L|354:279,1,64
469,322,43785,1,0,0:0:0:0:
502,230,43924,1,0,0:0:0:0:
505,133,44063,1,0,0:0:0:0:
496,36,44202,1,0,0:0:0:0:
259,200,44479,6,0,L|198:239,1,64
259,200,44757,2,0,P|196:158|119:179,1,143.999995605469
259,200,45313,1,0,0:0:0:0:
404,77,45452,1,0,0:0:0:0:
337,258,45591,1,0,0:0:0:0:
308,68,45729,1,0,0:0:0:0:
427,222,45868,2,0,P|484:176|496:106,1,143.999995605469
259,200,46424,6,0,P|202:246|190:316,1,143.999995605469
101,219,46841,1,0,0:0:0:0:
281,289,46979,2,0,P|354:291|419:252,1,143.999995605469
500,156,47535,1,0,0:0:0:0:
500,156,47813,1,0,0:0:0:0:
500,156,48091,2,0,L|500:240,1,71.9999978027344
500,156,48368,2,0,L|440:100,1,71.9999978027344
324,0,48646,6,0,P|288:88|376:152,1,215.999993408203
500,156,49202,1,0,0:0:0:0:
388,312,49479,2,0,P|376:268|392:200,1,103.999995239258
440,92,49896,1,0,0:0:0:0:
512,200,50035,2,0,P|452:228|380:208,1,136.000002593994
256,120,50591,1,0,0:0:0:0:
384,20,50868,6,0,P|384:80|320:148,1,136.000002593994
158,198,51285,1,0,0:0:0:0:
270,41,51424,1,0,0:0:0:0:
270,234,51563,1,0,0:0:0:0:
158,78,51702,1,0,0:0:0:0:
339,138,51841,1,0,0:0:0:0:
158,198,51979,6,0,L|80:220,2,68.0000012969971
252,172,52396,1,0,0:0:0:0:
124,72,52535,1,0,0:0:0:0:
316,100,52674,1,0,0:0:0:0:
196,252,52813,1,0,0:0:0:0:
316,100,53091,6,0,B|336:64|336:64|152:144|124:68,1,272.000005187988
196,252,53924,2,0,P|208:176|176:108,1,136.000002593994
187,122,54479,1,0,0:0:0:0:
356,268,54757,1,0,0:0:0:0:
356,268,55035,1,0,0:0:0:0:
356,268,55313,5,0,0:0:0:0:
441,221,55451,1,0,0:0:0:0:
453,125,55590,1,0,0:0:0:0:
380,60,55729,1,0,0:0:0:0:
285,82,55868,1,0,0:0:0:0:
356,268,56146,6,0,P|360:224|352:176,1,68.0000012969971
152,292,56424,2,0,P|148:248|156:200,1,68.0000012969971
164,96,56702,1,0,0:0:0:0:
356,268,56841,2,0,P|352:184|320:132,1,136.000002593994
248,40,57257,1,0,0:0:0:0:
92,8,57535,5,0,0:0:0:0:
92,8,57673,2,0,P|76:56|76:96,2,90.6666683959961
172,144,58090,2,0,P|184:192|184:232,1,80.0000030517579
327,140,58368,1,0,0:0:0:0:
327,140,58507,2,0,P|372:120|412:112,2,80.0000030517579
204,180,58923,2,0,P|160:196|108:232,1,80.0000030517579
284,260,59201,6,0,P|360:200|352:104,1,180.000006866455
276,164,59618,2,0,P|344:208|432:192,1,160.000006103516
361,122,60035,2,0,P|292:72|208:80,1,160.000006103516
100,116,60451,1,0,0:0:0:0:
136,28,60590,2,0,L|88:28,3,40.000001525879
0,28,60868,6,0,P|36:88|116:112,1,120.000004577637
177,117,61146,2,0,P|217:114|262:122,2,63.9999980468751
83,137,61562,1,0,0:0:0:0:
224,268,61701,1,0,0:0:0:0:
224,268,61910,2,0,L|181:298,2,47.9999985351563
328,195,62257,1,0,0:0:0:0:
376,315,62396,1,0,0:0:0:0:
441,131,62535,5,0,0:0:0:0:
441,131,62812,2,0,P|447:107|445:48,2,63.9999980468751
401,252,63229,1,0,0:0:0:0:
315,115,63368,1,0,0:0:0:0:
460,177,63507,1,0,0:0:0:0:
360,302,63646,1,0,0:0:0:0:
315,115,63785,1,0,0:0:0:0:
256,229,63923,2,0,L|228:281,3,31.9999990234375
193,343,64201,6,0,B|173:371|173:371|173:268|91:255|46:292,1,223.999993164063
193,343,64757,2,0,P|233:344|283:335,1,63.9999980468751
383,313,65035,1,0,0:0:0:0:
269,157,65173,1,0,0:0:0:0:
452,216,65312,1,0,0:0:0:0:
269,276,65451,1,0,0:0:0:0:
383,120,65590,2,0,P|403:83|412:49,1,63.9999980468751
255,117,65868,6,0,P|230:129|185:163,1,80
117,224,66146,2,0,P|119:202|117:159,2,40.000001525879
109,320,66562,1,0,0:0:0:0:
195,279,66701,1,0,0:0:0:0:
228,369,66840,1,0,0:0:0:0:
325,281,66979,1,0,0:0:0:0:
325,281,67118,1,0,0:0:0:0:
485,267,67257,2,0,L|522:264,2,20.0000007629395
367,159,67535,6,0,P|373:217|401:265,1,106.666666666667
459,333,67951,1,0,0:0:0:0:
459,333,68090,1,0,0:0:0:0:
459,333,68229,1,0,0:0:0:0:
459,333,68368,2,0,P|381:323|312:261,1,149.333328776042
231,153,68785,1,0,0:0:0:0:
322,187,68923,1,0,0:0:0:0:
275,67,69062,1,0,0:0:0:0:
367,100,69201,6,0,P|418:161|403:243,1,149.333328776042
322,187,69618,2,0,P|291:169|252:161,1,74.6666643880209
94,154,69896,1,0,0:0:0:0:
148,235,70035,1,0,0:0:0:0:
62,140,70173,1,0,0:0:0:0:
208,207,70312,1,0,0:0:0:0:
34,132,70451,1,0,0:0:0:0:
253,161,70590,2,0,L|301:168,3,37.3333321940105
417,186,70868,5,0,0:0:0:0:
417,186,71076,2,0,P|408:121|379:76,1,111.999996582031
194,37,71493,2,0,L|237:73,1,55.9999982910157
336,154,71701,1,0,0:0:0:0:
336,154,71910,2,0,P|279:138|223:144,1,111.999996582031
72,181,72257,1,0,0:0:0:0:
150,40,72396,1,0,0:0:0:0:
72,181,72535,6,0,P|62:118|33:75,1,111.999996582031
187,131,72847,1,0,0:0:0:0:
318,228,72951,2,0,L|254:248,2,53.3333333333333
443,192,73368,1,0,0:0:0:0:
443,192,73472,2,0,P|387:153|327:152,1,111.999996582031
184,159,73785,1,0,0:0:0:0:
311,60,73923,2,0,L|344:35,3,37.3333321940105
470,39,74201,6,0,L|399:105,1,74.6666643880209
234,154,74479,2,0,L|321:188,2,74.6666643880209
84,97,74896,1,0,0:0:0:0:
84,97,75035,1,0,0:0:0:0:
39,217,75243,2,0,L|18:267,1,40
163,202,75451,2,0,L|244:160,2,74.6666643880209
17,270,75868,6,0,P|8:211|43:158,1,120
164,64,76285,1,0,0:0:0:0:
294,158,76423,1,0,0:0:0:0:
164,64,76562,1,0,0:0:0:0:
164,64,76701,2,0,L|97:75,2,53.3333333333333
291,46,77118,1,0,0:0:0:0:
177,160,77257,2,0,L|143:193,3,26.6666666666667
63,261,77535,5,0,0:0:0:0:
63,261,77812,1,0,0:0:0:0:
54,102,77951,1,0,0:0:0:0:
213,93,78090,1,0,0:0:0:0:
213,93,78229,1,0,0:0:0:0:
8,188,78368,5,0,0:0:0:0:
8,188,78646,1,0,0:0:0:0:
125,298,78785,1,0,0:0:0:0:
125,136,78923,1,0,0:0:0:0:
125,136,79062,1,0,0:0:0:0:
125,136,79201,6,0,P|152:107|169:152,1,80.0000030517579
212,250,79618,2,0,P|219:271|236:303,1,40.000001525879
296,180,79896,2,0,P|288:140|279:113,2,53.3333333333333
313,306,80312,1,0,0:0:0:0:
425,189,80451,1,0,0:0:0:0:
296,180,80590,2,0,L|253:179,3,26.6666666666667
140,176,80868,6,0,P|153:122|211:83,1,106.666666666667
344,35,81285,1,0,0:0:0:0:
221,0,81423,1,0,0:0:0:0:
344,35,81562,1,0,0:0:0:0:
221,0,81701,2,0,P|165:6|121:37,1,106.666666666667
16,151,82118,1,0,0:0:0:0:
28,24,82257,1,0,0:0:0:0:
171,102,82396,1,0,0:0:0:0:
99,246,82535,6,0,P|114:197|96:139,1,106.666666666667
33,33,82951,2,0,L|102:57,1,53.3333333333333
233,102,83229,1,0,0:0:0:0:
402,12,83368,1,0,0:0:0:0:
335,224,83507,1,0,0:0:0:0:
338,94,83646,1,0,0:0:0:0:
493,207,83785,1,0,0:0:0:0:
498,79,83923,2,0,L|461:82,3,26.6666666666667
338,94,84201,6,0,L|466:187,1,149.333328776042
335,224,84618,2,0,L|259:251,3,63.9999980468751
156,291,85104,2,0,P|143:221|181:165,1,133.333333333333
299,71,85590,1,0,0:0:0:0:
151,11,85729,1,0,0:0:0:0:
217,121,85868,5,0,0:0:0:0:
60,101,86007,2,0,P|169:177|276:105,1,266.666666666667
271,115,87257,1,0,0:0:0:0:
271,115,87535,1,0,0:0:0:0:
256,192,87673,12,0,89618,0:0:0:0:
