osu file format v14

[General]
AudioFilename: audio.mp3
AudioLeadIn: 0
PreviewTime: 57821
Countdown: 0
SampleSet: Soft
StackLeniency: 1
Mode: 0
LetterboxInBreaks: 0
WidescreenStoryboard: 1

[Editor]
DistanceSpacing: 0.6
BeatDivisor: 16
GridSize: 16
TimelineZoom: 1.8

[Metadata]
Title:Here
TitleUnicode:Here
Artist:JUNNA
ArtistUnicode:JUNNA
Creator:wafer
Version:Yudragen's Another
Source:魔法使いの嫁
Tags:anime jpop j pop japanese the ancient magus' bride goopert kami no kotoba Mahoutsukai no Yome full version op opening this yudragen chaoticred
BeatmapID:3229146
BeatmapSetID:1577247

[Difficulty]
HPDrainRate:5.5
CircleSize:4.2
OverallDifficulty:7
ApproachRate:9
SliderMultiplier:3.59999990463257
SliderTickRate:1

[Events]
//Background and Video events
0,0,"thorn.jpg",0,0
//Break Periods
2,213886,219050
//Storyboard Layer 0 (Background)
//Storyboard Layer 1 (Fail)
//Storyboard Layer 2 (Pass)
//Storyboard Layer 3 (Foreground)
//Storyboard Layer 4 (Overlay)
//Storyboard Sound Samples

[TimingPoints]
1323,545.454545454546,3,2,0,35,1,0
1323,-166.666666666667,3,2,0,35,0,0
2686,571.428571428571,3,2,0,35,1,0
2971,545.454545454546,3,2,0,35,1,0
2971,-333.333333333333,3,2,0,35,0,0
3107,-333.333333333333,3,2,0,35,0,0
4334,-333.333333333333,3,2,0,5,0,0
4607,566.037735849057,3,2,0,35,1,0
5314,588.235294117647,3,2,0,35,1,0
5461,550.45871559633,3,2,0,35,1,0
6286,582.52427184466,3,2,0,35,1,0
6286,-400,3,2,0,35,0,0
6422,-400,3,2,0,35,0,0
8033,810.810810810811,3,2,0,5,1,0
8033,-100,3,2,0,5,0,0
8843,810.810810810811,3,2,0,30,1,0
9383,1111.11111111111,3,2,0,30,1,0
9753,750,3,2,0,30,1,0
10503,789.473684210526,3,2,0,30,1,0
11029,857.142857142857,3,2,0,30,1,0
11314,1132.07547169811,3,2,0,30,1,0
11880,-100,3,2,0,35,0,0
12163,-100,3,2,0,38,0,0
12446,517.241379310345,3,2,0,44,1,0
12446,-166.666666666667,3,2,0,44,0,0
12704,-166.666666666667,3,2,0,48,0,0
12963,553.50553505535,3,2,0,52,1,0
12963,-166.666666666667,3,2,0,52,0,0
13101,-166.666666666667,3,2,0,54,0,0
13147,-125,3,2,0,54,0,0
13239,-125,3,2,0,56,0,0
13332,-100,3,2,0,56,0,0
13378,-100,3,2,0,58,0,0
13516,555.555555555556,4,2,1,60,1,0
13516,-111.111111111111,4,2,1,60,0,0
22404,-142.857142857143,4,2,1,50,0,0
37682,-250,4,2,1,50,0,0
37960,-250,4,2,1,40,0,0
39071,-105.263157894737,4,2,1,50,0,0
40182,-125,4,2,1,55,0,0
55460,-117.64705882353,4,2,1,55,0,0
57960,833.333333333333,2,2,1,85,1,0
57960,-76.9230769230769,2,2,1,85,0,1
68515,-76.9230769230769,2,2,1,85,0,1
68793,-74.0740740740741,2,2,1,85,0,1
69071,-71.4285714285714,2,2,1,85,0,1
69348,-68.9655172413793,2,2,1,85,0,1
69626,-66.6666666666667,2,2,1,85,0,1
70460,-142.857142857143,2,2,1,85,0,0
71293,-76.9230769230769,2,2,1,85,0,1
77960,-76.9230769230769,2,2,1,75,0,1
86293,-250,2,2,1,70,0,0
87960,555.555555555556,4,2,1,50,1,0
89904,555.555555555556,4,2,1,50,1,0
91848,555.555555555556,4,2,1,50,1,0
93792,555.555555555556,4,2,1,50,1,0
93930,-166.666666666667,4,2,1,50,0,0
94903,-166.666666666667,4,2,1,45,0,0
95458,-166.666666666667,4,2,1,40,0,0
96014,555.555555555556,4,2,1,45,1,0
96014,-111.111111111111,4,2,1,45,0,0
96291,-133.333333333333,4,2,1,45,0,0
98236,-111.111111111111,4,2,1,45,0,0
98514,-133.333333333333,4,2,1,45,0,0
100458,-111.111111111111,4,2,1,45,0,0
100736,-142.857142857143,4,2,1,45,0,0
104902,-166.666666666667,4,2,1,50,0,0
113791,-133.333333333333,4,2,1,55,0,0
120458,559.440559440559,4,2,1,50,1,0
122695,555.555555555556,4,2,1,55,1,0
122695,-125,4,2,1,55,0,0
131583,-117.647058823529,4,2,1,55,0,0
137972,-111.111111111111,4,2,1,55,0,0
140459,833.333333333333,2,2,1,85,1,0
140459,-76.9230769230769,2,2,1,85,0,1
151292,-74.0740740740741,2,2,1,85,0,1
151570,-71.4285714285714,2,2,1,85,0,1
151847,-68.9655172413793,2,2,1,85,0,1
152125,-66.6666666666667,2,2,1,85,0,1
152959,-142.857142857143,2,2,1,85,0,0
153792,-76.9230769230769,2,2,1,85,0,1
168792,-76.9230769230769,2,2,1,70,0,0
169625,-76.9230769230769,2,2,1,65,0,0
170459,-83.3333333333333,2,2,1,75,0,0
170771,833.333333333333,2,2,1,75,1,0
170771,-83.3333333333333,2,2,1,75,0,0
171326,833.333333333333,2,2,1,75,1,0
171326,-83.3333333333333,2,2,1,75,0,0
172159,833.333333333333,2,2,1,75,1,0
172159,-83.3333333333333,2,2,1,75,0,0
177159,833.333333333333,2,2,1,75,1,0
177159,-86.9565217391304,2,2,1,75,0,0
183825,-100,2,2,1,70,0,0
187159,-125,2,2,1,70,0,0
187992,-111.111111111111,2,2,1,70,0,0
188825,-100,2,2,1,70,0,0
189659,-76.9230769230769,2,2,1,70,0,0
190492,-100,2,2,1,70,0,0
197159,-333.333333333334,2,2,1,45,0,0
197297,-333.333333333334,2,2,1,45,0,0
198547,-333.333333333334,2,2,1,45,0,0
199520,-333.333333333334,2,2,1,45,0,0
200214,-333.333333333334,2,2,1,45,0,0
200631,-333.333333333334,2,2,1,45,0,0
201881,-333.333333333334,2,2,1,45,0,0
203825,-250.000000000001,2,2,1,45,0,0
207159,-200,2,2,1,50,0,0
208825,-142.857142857143,2,2,1,50,0,0
210492,-90.9090909090909,2,2,1,60,0,0
212159,-83.3333333333333,2,2,1,60,0,0
212436,-76.9230769230769,2,2,1,60,0,0
212714,-71.4285714285714,2,2,1,60,0,0
212992,-66.6666666666667,2,2,1,60,0,0
213826,1153.84615384615,2,2,1,35,1,0
213826,-951.474785918173,2,2,1,35,0,0
214018,810.810810810811,2,2,1,35,1,0
214018,-951.474785918173,2,2,1,35,0,0
214693,1153.84615384615,2,2,1,35,1,0
214885,750,2,2,1,35,1,0
215260,882.352941176471,2,2,1,35,1,0
215848,810.810810810811,2,2,1,35,1,0
216185,810.810810810811,2,2,1,35,1,0
216387,759.493670886076,2,2,1,35,1,0
217146,937.5,2,2,1,35,1,0
217146,-990.09900990099,2,2,1,35,0,0
217302,810.810810810811,2,2,1,35,1,0
217572,857.142857142857,2,2,1,35,1,0
217714,833.333333333333,2,2,1,35,1,0
217991,1034.48275862069,2,2,1,35,1,0
218163,714.285714285714,2,2,1,35,1,0
218401,1000,2,2,1,35,1,0
218567,750,2,2,1,35,1,0
218817,937.5,2,2,1,35,1,0
219129,810.810810810811,2,2,1,35,1,0
219466,736.196319018405,2,2,1,35,1,0
219650,833.333333333333,2,2,1,90,1,1
219650,-71.4285714285714,2,2,1,90,0,1
220483,833.333333333333,2,2,1,90,1,1
220483,-71.4285714285714,2,2,1,90,0,1
221594,-71.4285714285714,2,2,1,5,0,1
221733,-71.4285714285714,2,2,1,90,0,1
223816,-76.9230769230769,2,2,1,90,0,1
224371,-74.0740740740741,2,2,1,90,0,1
224649,-71.4285714285714,2,2,1,90,0,1
224927,-68.9655172413793,2,2,1,90,0,1
225205,-66.6666666666667,2,2,1,90,0,1
225483,-64.5161290322581,2,2,1,90,0,1
226316,-153.846153846154,2,2,1,90,0,0
227149,-76.9230769230769,2,2,1,90,0,1
233816,-76.9230769230769,2,2,1,85,0,1
242149,-76.9230769230769,2,2,1,70,0,0
243816,1111.11111111111,4,2,1,30,1,0
243816,-142.857142857143,4,2,1,30,0,0
251593,-142.857142857143,4,2,1,5,0,0

[Colours]
Combo1 : 153,81,81
Combo2 : 113,89,174
Combo3 : 160,193,136
Combo4 : 209,160,139

[HitObjects]
130,116,1323,5,2,0:0:0:0:
130,116,1595,1,2,0:0:0:0:
196,88,1732,1,0,0:0:0:0:
130,116,1868,1,2,0:0:0:0:
218,229,2141,1,2,0:0:0:0:
218,229,2413,1,2,0:0:0:0:
139,199,2550,1,0,0:0:0:0:
218,229,2686,1,2,0:0:0:0:
218,229,2971,6,0,L|490:155,1,269.999984607697,2|0,0:0|0:0,0:0:0:0:
376,107,4607,5,2,0:0:0:0:
376,107,4890,1,0,0:0:0:0:
301,79,5031,1,0,0:0:0:0:
376,107,5173,1,2,0:0:0:0:
301,79,5314,1,2,0:0:0:0:
369,201,5461,1,2,0:0:0:0:
369,201,5736,1,2,0:0:0:0:
294,229,5873,1,0,0:0:0:0:
369,201,6011,1,2,0:0:0:0:
294,229,6149,1,2,0:0:0:0:
360,295,6286,6,0,L|88:221,1,269.999984607697,2|0,0:0|0:0,0:0:0:0:
108,130,12446,6,0,P|160:130|234:237,1,161.999990764618
302,275,12963,2,0,P|322:244|327:221,1,35.999997947693,2|0,0:0|0:0,0:0:0:0:
341,239,13147,2,0,P|345:201|333:162,1,47.9999987284343,2|2,0:0|0:0,0:0:0:0:
361,177,13332,2,0,P|351:127|329:95,1,59.9999984105428,2|0,0:0|0:0,0:0:0:0:
430,112,13516,6,0,P|410:176|400:299,1,161.999990764618,6|0,1:0|0:0,0:0:0:0:
319,329,13932,1,2,0:0:0:0:
225,239,14071,1,8,1:2:0:0:
159,308,14210,2,0,P|145:362|129:396,1,80.9999953823091,0|2,0:0|3:0,0:0:0:0:
300,239,14488,2,0,P|290:185|239:80,1,161.999990764618,2|0,0:0|0:0,0:0:0:0:
395,215,14904,2,0,P|429:236|492:255,1,80.9999953823091,2|2,0:0|3:0,0:0:0:0:
169,168,15182,2,0,P|130:179|94:197,1,80.9999953823091,10|0,1:2|0:0,0:0:0:0:
277,191,15460,5,2,3:0:0:0:
250,113,15599,1,2,0:0:0:0:
265,276,15738,2,0,P|310:178|329:64,1,161.999990764618,0|2,1:2|0:0,0:0:0:0:
439,72,16154,2,0,P|479:81|527:124,2,80.9999953823091,2|8|0,0:0|1:2|0:0,0:0:0:0:
320,0,16571,2,0,P|287:23|248:32,1,80.9999953823091,2|2,3:0|3:0,0:0:0:0:
143,148,16849,1,2,1:2:0:0:
70,26,16988,2,0,P|36:58|49:128,2,80.9999953823091,2|2|2,0:2|0:2|0:2,0:0:0:0:
181,279,17404,2,0,P|106:267|72:188,1,161.999990764618,8|2,1:2|0:2,0:0:0:0:
343,146,17821,6,0,P|336:172|331:202,1,40.4999976911546,2|0,0:2|0:0,0:0:0:0:
339,197,17960,2,0,P|398:177|403:75,1,161.999990764618,4|2,1:0|3:0,0:0:0:0:
328,58,18377,1,2,0:2:0:0:
249,88,18516,2,0,P|205:113|128:137,1,80.9999953823091,8|0,1:2|0:0,0:0:0:0:
228,279,18793,2,0,P|250:246|242:208,1,80.9999953823091,2|0,3:0|0:0,0:0:0:0:
21,123,19071,5,2,1:2:0:0:
101,179,19256,5,2,0:2:0:0:
96,281,19441,5,2,0:2:0:0:
296,347,19627,5,10,1:2:0:0:
391,258,19812,5,2,0:2:0:0:
376,132,19997,5,2,0:2:0:0:
236,221,20182,6,0,P|227:170|205:113,1,80.9999953823091,4|2,1:1|0:1,0:0:0:0:
273,80,20460,1,2,0:1:0:0:
238,10,20599,1,2,0:1:0:0:
112,173,20738,2,0,P|89:231|71:264,1,80.9999953823091,10|2,1:2|0:2,0:0:0:0:
309,272,21016,2,0,P|332:330|350:363,1,80.9999953823091,2|2,0:1|0:1,0:0:0:0:
484,214,21293,1,2,1:2:0:0:
405,153,21432,1,2,0:2:0:0:
462,92,21571,1,2,0:1:0:0:
429,20,21710,1,2,0:1:0:0:
309,123,21849,2,0,P|267:155|192:172,1,80.9999953823091,10|2,1:2|0:2,0:0:0:0:
169,223,22127,5,2,0:1:0:0:
289,280,22266,1,2,0:1:0:0:
169,223,22404,2,0,P|334:214|418:292,1,251.999985633851,4|8,1:0|1:2,0:0:0:0:
397,262,23238,6,0,P|382:311|376:338,1,62.9999964084627,2|0,0:0|0:0,0:0:0:0:
281,298,23516,2,0,P|254:245|244:162,1,125.999992816925,2|2,1:2|0:0,0:0:0:0:
140,235,23932,2,0,P|123:266|114:301,1,62.9999964084627,2|8,0:0|1:2,0:0:0:0:
40,339,24210,2,0,P|10:286|56:205,1,125.999992816925,2|2,0:0|3:0,0:0:0:0:
177,89,24627,6,0,P|154:97|64:31,1,125.999992816925,2|0,1:2|3:0,0:0:0:0:
70,53,25043,1,2,3:0:0:0:
286,93,25182,2,0,P|346:110|440:140,1,125.999992816925,8|0,1:2|3:0,0:0:0:0:
229,291,25738,6,0,P|218:348|215:388,1,62.9999964084627,2|0,1:2|0:0,0:0:0:0:
156,197,26016,1,2,0:2:0:0:
212,140,26154,2,0,P|202:96|194:49,1,62.9999964084627,2|10,0:2|1:2,0:0:0:0:
312,184,26432,2,0,B|396:212|351:223|439:251,1,125.999992816925,2|2,0:0|3:0,0:0:0:0:
210,221,26849,6,0,P|138:240|65:276,1,125.999992816925,4|2,1:0|3:0,0:0:0:0:
92,261,27266,1,2,0:2:0:0:
280,343,27404,1,8,1:2:0:0:
199,383,27543,2,0,P|190:326|192:294,1,62.9999964084627,2|0,0:2|3:0,0:0:0:0:
360,271,27821,2,0,P|366:322|366:354,1,62.9999964084627,2|2,3:0|1:2,0:0:0:0:
239,226,28099,2,0,P|252:134|254:59,1,125.999992816925,0|2,3:0|0:0,0:0:0:0:
92,129,28516,2,0,P|30:153|24:232,1,125.999992816925,8|2,1:2|0:0,0:0:0:0:
92,214,28932,1,2,3:0:0:0:
15,311,29071,6,0,P|85:322|102:329,1,62.9999964084627,0|2,1:2|0:0,0:0:0:0:
147,370,29349,1,2,0:0:0:0:
240,296,29488,2,0,P|278:278|397:271,1,125.999992816925,2|2,0:0|0:0,0:0:0:0:
426,222,29904,2,0,P|446:229|487:262,1,62.9999964084627,2|2,3:0|0:0,0:0:0:0:
300,169,30182,1,2,1:2:0:0:
368,122,30321,2,0,P|373:91|291:42,1,125.999992816925,0|2,3:0|0:2,0:0:0:0:
180,119,30738,2,0,P|172:78|156:36,1,62.9999964084627,10|2,1:2|0:2,0:0:0:0:
75,201,31016,5,2,0:2:0:0:
10,247,31154,1,0,3:0:0:0:
0,132,31293,2,0,P|86:173|198:211,1,188.999989225388,4|0,1:0|0:0,0:0:0:0:
292,299,31849,2,0,P|301:246|303:213,1,62.9999964084627,8|0,1:2|3:0,0:0:0:0:
387,215,32127,2,0,P|364:174|344:93,2,125.999992816925,2|2|2,0:0|1:2|0:0,0:0:0:0:
433,72,32821,2,0,P|437:137|435:163,1,62.9999964084627,2|8,0:0|1:2,0:0:0:0:
268,162,33099,2,0,P|261:114|263:69,1,62.9999964084627,2|0,0:0|3:0,0:0:0:0:
474,255,33377,5,2,3:0:0:0:
336,364,33516,2,0,B|287:373|209:329|282:252|181:208|106:238,2,251.999985633851,2|8|2,1:2|1:2|1:2,0:0:0:0:
491,165,34904,1,2,0:2:0:0:
417,152,35043,2,0,P|376:167|337:182,1,62.9999964084627,2|10,0:2|1:2,0:0:0:0:
368,287,35321,2,0,P|311:262|228:238,1,125.999992816925,2|2,0:0|3:0,0:0:0:0:
339,85,35738,6,0,P|264:64|187:154,1,188.999989225388,4|2,1:0|0:2,0:0:0:0:
54,270,36293,1,8,1:2:0:0:
3,200,36432,2,0,P|6:168|23:142,2,62.9999964084627,2|0|2,0:2|3:0|3:0,0:0:0:0:
242,288,36849,1,2,1:2:0:0:
164,345,36988,2,0,P|148:294|153:174,1,125.999992816925,0|0,3:0|0:3,0:0:0:0:
363,217,37404,2,0,P|350:263|351:300,1,62.9999964084627,10|0,1:2|0:0,0:0:0:0:
264,126,37682,6,0,L|256:89,2,35.9999990463257,2|0|2,0:2|3:0|0:2,0:0:0:0:
264,126,39071,5,4,0:0:0:0:
171,215,39210,1,8,1:2:0:0:
378,275,39349,1,8,1:2:0:0:
278,237,39488,5,8,1:2:0:0:
278,237,39557,1,8,1:2:0:0:
278,237,39627,1,8,1:2:0:0:
366,86,39766,1,8,1:2:0:0:
159,135,39904,1,4,0:3:0:0:
254,12,40182,6,0,P|249:70|245:197,1,143.999996185303,6|2,1:2|0:0,0:0:0:0:
146,315,40738,2,0,P|159:368|170:400,1,71.9999980926514,10|0,1:2|0:0,0:0:0:0:
293,296,41016,2,0,P|316:239|324:204,1,71.9999980926514,2|0,0:2|0:0,0:0:0:0:
79,216,41293,1,2,1:2:0:0:
128,145,41432,2,0,P|174:149|216:245,1,143.999996185303,0|2,3:0|0:0,0:0:0:0:
0,152,41849,2,0,B|-19:69|39:99|13:-10,1,143.999996185303,10|2,1:2|0:0,0:0:0:0:
17,12,42266,1,2,0:0:0:0:
110,213,42404,6,0,P|101:164|86:129,1,71.9999980926514,6|0,1:2|0:0,0:0:0:0:
269,59,42682,2,0,P|265:94|254:129,1,71.9999980926514,2|2,0:0|0:3,0:0:0:0:
138,28,42960,1,10,1:2:0:0:
257,268,43238,1,2,0:2:0:0:
457,154,43516,1,2,1:2:0:0:
381,167,43654,2,0,P|383:131|393:97,2,71.9999980926514,2|2|0,0:3|0:2|3:2,0:0:0:0:
245,191,44071,2,0,P|177:206|147:269,1,143.999996185303,10|2,1:2|0:2,0:0:0:0:
245,355,44488,5,0,3:2:0:0:
281,124,44627,1,6,1:2:0:0:
281,124,44904,2,0,B|187:141|241:161|125:189,1,143.999996185303,2|10,0:0|1:2,0:0:0:0:
73,160,45321,1,0,0:0:0:0:
243,276,45460,2,0,P|285:288|340:288,1,71.9999980926514,2|0,0:2|0:0,0:0:0:0:
145,384,45738,2,0,P|115:325|97:202,1,143.999996185303,2|0,1:2|3:0,0:0:0:0:
286,206,46154,2,0,P|316:147|334:24,1,143.999996185303,2|0,0:0|0:0,0:0:0:0:
151,10,46571,2,0,P|125:32|133:90,1,71.9999980926514,2|2,0:0|0:0,0:0:0:0:
185,109,46849,6,0,P|221:90|275:74,1,71.9999980926514,6|0,1:2|0:0,0:0:0:0:
188,248,47127,2,0,P|173:313|160:349,1,71.9999980926514,2|2,0:0|0:3,0:0:0:0:
67,172,47404,2,0,P|21:141|-10:110,1,71.9999980926514,10|0,1:2|0:0,0:0:0:0:
147,178,47682,1,2,0:2:0:0:
147,178,47821,1,0,0:0:0:0:
297,225,47960,2,0,B|390:252|327:270|482:308,1,143.999996185303,2|2,1:2|0:2,0:0:0:0:
313,343,48377,1,0,3:2:0:0:
253,140,48516,2,0,P|255:56|259:11,1,71.9999980926514,10|2,1:2|0:3,0:0:0:0:
254,68,48724,1,2,0:0:0:0:
254,68,48793,1,2,0:2:0:0:
303,247,48932,1,0,3:2:0:0:
229,308,49071,5,6,1:2:0:0:
229,308,49627,2,0,P|186:286|125:274,1,71.9999980926514,10|0,1:2|0:0,0:0:0:0:
388,174,49904,1,6,0:2:0:0:
388,174,50460,2,0,P|378:233|378:281,1,71.9999980926514,2|2,0:0|0:3,0:0:0:0:
235,168,50738,2,0,P|206:145|143:118,1,71.9999980926514,10|0,1:2|0:0,0:0:0:0:
348,77,51016,2,0,P|415:53|477:16,1,143.999996185303,6|2,0:0|1:2,0:0:0:0:
211,0,51571,5,2,0:2:0:0:
273,38,51710,1,2,0:2:0:0:
210,72,51849,2,0,P|128:92|118:94,1,71.9999980926514,10|2,1:2|0:2,0:0:0:0:
46,256,52127,1,2,0:2:0:0:
12,190,52266,1,2,0:2:0:0:
46,256,52404,1,2,1:2:0:0:
12,190,52543,2,0,L|29:113,1,71.9999980926514,2|2,0:2|0:2,0:0:0:0:
145,205,52821,1,2,0:2:0:0:
184,262,52960,2,0,L|199:332,1,71.9999980926514,10|2,1:2|0:2,0:0:0:0:
94,341,53238,5,2,0:2:0:0:
94,341,53377,1,2,0:2:0:0:
299,237,53516,2,0,P|354:232|428:362,1,215.999994277954,6|0,1:2|3:0,0:0:0:0:
339,363,54071,2,0,L|249:385,1,71.9999980926514,10|0,1:2|0:0,0:0:0:0:
176,203,54349,2,0,B|198:74|104:130|140:-17,1,215.999994277954,6|0,0:2|3:0,0:0:0:0:
91,159,54904,2,0,P|77:217|61:273,1,71.9999980926514,2|2,0:0|0:3,0:0:0:0:
153,279,55182,2,0,P|167:337|182:401,1,107.999997138977,10|0,1:2|0:0,0:0:0:0:
185,383,55460,5,6,0:0:0:0:
415,190,55738,1,2,1:2:0:0:
319,88,55877,1,4,0:3:0:0:
206,114,56016,1,4,0:3:0:0:
172,194,56154,1,0,1:0:0:0:
326,174,56293,1,4,1:1:0:0:
318,381,56571,1,0,1:2:0:0:
386,339,56710,1,0,1:2:0:0:
327,290,56849,2,0,P|288:309|242:338,1,76.4999994325638,12|0,1:2|1:2,0:0:0:0:
212,243,57127,1,8,1:2:0:0:
253,176,57266,2,0,P|235:104|178:20,1,152.999998865128,4|4,0:3|0:3,0:0:0:0:
328,114,57682,2,0,P|339:84|339:38,1,76.4999994325638,4|4,0:3|0:3,0:0:0:0:
131,222,57960,5,4,1:0:0:0:
97,156,58098,2,0,L|24:186,1,77.9999943631493,2|0,0:2|0:0,0:0:0:0:
131,222,58376,1,2,0:0:0:0:
246,97,58515,2,0,L|381:139,1,116.999991544724,2|0,0:0|0:0,0:0:0:0:
374,148,58793,1,10,1:2:0:0:
314,199,58932,2,0,L|334:285,1,77.9999943631493,0|2,0:0|0:0,0:0:0:0:
374,148,59210,1,2,0:0:0:0:
404,75,59348,2,0,L|385:-4,1,77.9999943631493,2|2,0:0|3:3,0:0:0:0:
484,261,59626,5,6,1:2:0:0:
341,277,59904,1,2,0:0:0:0:
409,308,60043,2,0,P|351:360|263:340,1,155.999988726299,0|2,1:0|1:2,0:0:0:0:
484,261,60460,2,0,P|393:272|310:116,1,233.999983089448,14|0,1:2|3:0,0:0:0:0:
371,135,61015,2,0,P|392:128|419:118,2,38.9999971815746,2|2|2,2:3|2:3|2:3,0:0:0:0:
258,26,61293,5,6,1:2:0:0:
218,92,61432,2,0,L|178:196,1,77.9999943631493,2|0,0:2|0:0,0:0:0:0:
258,26,61710,1,2,1:2:0:0:
289,167,61848,2,0,L|332:285,1,116.999991544724,2|0,0:0|0:0,0:0:0:0:
342,286,62126,1,10,1:2:0:0:
400,226,62265,2,0,L|431:140,1,77.9999943631493,2|2,0:0|0:0,0:0:0:0:
342,286,62543,1,2,0:0:0:0:
248,301,62682,2,0,L|222:377,1,77.9999943631493,2|2,0:0|3:3,0:0:0:0:
103,205,62960,5,6,1:2:0:0:
207,92,63237,1,2,0:0:0:0:
260,148,63376,2,0,P|299:106|282:5,1,155.999988726299,0|2,1:0|1:2,0:0:0:0:
103,205,63793,2,0,P|44:179|29:11,1,233.999983089448,14|2,1:2|0:0,0:0:0:0:
87,59,64348,2,0,L|122:75,2,38.9999971815746,2|2|2,2:3|2:3|2:3,0:0:0:0:
230,204,64626,6,0,P|282:162|424:147,1,194.999985907873,4|0,1:0|0:0,0:0:0:0:
416,150,65043,1,0,1:0:0:0:
363,214,65182,2,0,P|350:261|331:303,1,77.9999943631493,2|0,0:0|1:0,0:0:0:0:
74,227,65460,2,0,P|43:130|42:50,1,155.999988726299,14|0,1:2|3:0,0:0:0:0:
124,87,65876,2,0,P|129:51|145:12,2,77.9999943631493,0|2|2,3:0|0:0|1:2,0:0:0:0:
93,321,66293,6,0,P|200:303|279:228,1,194.999985907873,4|0,1:0|0:0,0:0:0:0:
271,235,66710,1,0,1:0:0:0:
212,192,66848,2,0,P|184:180|125:168,1,77.9999943631493,2|0,0:0|1:0,0:0:0:0:
391,218,67126,2,0,P|391:130|308:7,1,233.999983089448,14|0,1:2|3:0,0:0:0:0:
269,74,67682,2,0,P|257:101|239:132,2,38.9999971815746,2|2|2,2:3|2:3|2:3,0:0:0:0:
76,16,67960,6,0,P|105:135|114:254,1,233.999983089448,4|0,1:0|1:0,0:0:0:0:
216,248,68515,2,0,P|204:316|192:350,1,77.9999943631493,2|0,0:0|1:0,0:0:0:0:
297,167,68793,2,0,P|283:109|268:66,1,80.9999981632233,10|0,1:2|3:0,0:0:0:0:
386,288,69071,2,0,P|410:347|427:410,1,83.9999952112835,0|0,3:0|3:0,0:0:0:0:
452,125,69348,2,0,P|466:66|481:25,1,87.0000003503164,2|2,0:0|1:2,0:0:0:0:
472,283,69626,2,0,P|314:260|192:162,1,270.000003147125,4|0,1:0|1:0,0:0:0:0:
197,307,70182,2,0,P|157:327|121:354,1,90.0000010490418,2|0,0:0|1:0,0:0:0:0:
50,242,70460,5,6,1:2:0:0:
140,88,70598,1,0,0:2:0:0:
1,38,70737,1,4,0:3:0:0:
33,120,70876,2,0,L|73:135,1,41.9999976056418,4|2,0:3|2:3,0:0:0:0:
72,134,71085,1,2,2:3:0:0:
72,134,71154,1,2,2:3:0:0:
380,24,71293,5,4,1:0:0:0:
353,95,71432,2,0,P|298:101|232:18,1,155.999988726299,2|2,0:2|0:0,0:0:0:0:
443,109,71848,2,0,P|490:129|540:157,1,77.9999943631493,2|0,0:0|1:3,0:0:0:0:
331,253,72126,1,10,1:2:0:0:
422,311,72265,2,0,P|434:265|431:208,1,77.9999943631493,0|2,0:0|0:0,0:0:0:0:
331,253,72543,1,2,0:0:0:0:
245,264,72682,2,0,P|243:226|234:187,1,77.9999943631493,2|2,0:0|3:3,0:0:0:0:
312,342,72960,5,6,1:2:0:0:
312,342,73237,2,0,P|293:290|275:97,1,233.999983089448,2|2,0:0|1:2,0:0:0:0:
64,317,73793,1,14,1:2:0:0:
125,215,73932,1,0,0:0:0:0:
71,154,74071,2,0,P|11:186|-13:196,1,77.9999943631493,0|0,3:0|3:0,0:0:0:0:
177,291,74348,2,0,P|197:299|225:317,2,38.9999971815746,2|2|2,2:3|2:3|2:3,0:0:0:0:
277,380,74626,5,6,1:2:0:0:
317,316,74765,2,0,L|291:218,1,77.9999943631493,2|0,0:2|0:0,0:0:0:0:
277,380,75043,1,2,1:2:0:0:
88,301,75182,2,0,L|62:399,1,77.9999943631493,6|0,0:0|1:3,0:0:0:0:
208,206,75460,1,10,1:2:0:0:
147,143,75598,2,0,B|141:56|187:95|177:-9,1,155.999988726299,2|2,0:0|0:0,0:0:0:0:
63,110,76015,2,0,P|23:139|-7:152,1,77.9999943631493,6|2,0:0|3:3,0:0:0:0:
200,319,76293,5,6,1:2:0:0:
391,252,76571,1,2,0:0:0:0:
327,287,76710,2,0,P|319:330|411:380,1,155.999988726299,0|2,1:0|1:2,0:0:0:0:
200,319,77126,2,0,P|112:279|134:187,1,194.999985907873,14|0,1:2|0:0,0:0:0:0:
137,204,77543,1,2,0:0:0:0:
211,237,77682,2,0,L|248:222,2,38.9999971815746,2|2|2,2:3|2:3|2:3,0:0:0:0:
259,84,77960,5,4,1:0:0:0:
259,84,78237,1,2,0:0:0:0:
297,152,78376,1,0,1:0:0:0:
259,84,78515,2,0,P|265:47|278:3,1,77.9999943631493,2|0,0:0|1:0,0:0:0:0:
226,243,78793,1,10,1:2:0:0:
226,243,79070,1,2,0:0:0:0:
188,311,79209,1,0,1:0:0:0:
226,243,79348,2,0,P|220:206|207:162,1,77.9999943631493,2|0,1:2|1:0,0:0:0:0:
330,355,79626,6,0,P|381:357|453:263,1,155.999988726299,0|2,1:0|0:0,0:0:0:0:
511,240,80043,2,0,P|494:196|455:179,1,77.9999943631493,0|2,1:0|0:0,0:0:0:0:
432,284,80321,1,0,1:0:0:0:
493,90,80459,2,0,P|434:103|387:197,1,155.999988726299,10|2,1:2|0:0,0:0:0:0:
305,170,80876,2,0,P|302:217|326:257,1,77.9999943631493,0|2,1:0|1:2,0:0:0:0:
314,244,81084,1,2,2:3:0:0:
314,244,81154,1,2,1:3:0:0:
166,72,81293,5,0,1:0:0:0:
166,72,81571,1,2,0:0:0:0:
234,42,81709,1,0,1:0:0:0:
166,72,81848,1,2,0:0:0:0:
234,42,81987,1,0,1:0:0:0:
180,202,82126,1,10,1:2:0:0:
180,202,82404,1,2,0:0:0:0:
112,172,82542,1,0,1:0:0:0:
180,202,82681,1,2,1:2:0:0:
112,172,82820,1,0,1:0:0:0:
265,317,82959,6,0,P|284:258|272:151,1,155.999988726299,0|2,1:0|0:0,0:0:0:0:
409,123,83376,2,0,P|397:168|372:209,2,77.9999943631493,0|2|2,1:0|0:0|0:0,0:0:0:0:
131,8,83793,1,10,1:2:0:0:
326,105,83932,1,2,1:2:0:0:
188,178,84071,1,4,0:3:0:0:
233,82,84209,1,4,0:3:0:0:
161,97,84348,2,0,L|118:116,2,38.9999971815746,2|2|2,1:2|2:3|1:3,0:0:0:0:
294,201,84626,6,0,L|262:367,1,155.999988726299,0|2,1:0|0:0,0:0:0:0:
393,359,85043,2,0,L|371:285,1,77.9999943631493,0|2,1:0|0:0,0:0:0:0:
480,333,85321,1,0,1:0:0:0:
246,262,85459,2,0,L|75:317,1,155.999988726299,8|2,1:2|0:0,0:0:0:0:
39,267,85876,1,4,0:3:0:0:
90,209,86015,2,0,L|117:122,1,77.9999943631493,0|4,1:0|0:3,0:0:0:0:
68,384,86293,6,0,P|2:257|6:115,1,287.999992370606,4|2,1:0|1:2,0:0:0:0:
5,115,88515,1,2,1:2:0:0:
5,115,89071,1,2,1:2:0:0:
5,115,89626,1,2,1:2:0:0:
123,87,89904,5,2,1:2:0:0:
123,87,90459,1,2,1:2:0:0:
123,87,91015,1,2,1:2:0:0:
123,87,91570,1,2,1:2:0:0:
215,145,91848,5,2,1:2:0:0:
215,145,92403,1,0,1:2:0:0:
215,145,92959,1,2,1:2:0:0:
215,145,93514,1,2,1:2:0:0:
299,113,93792,5,2,1:2:0:0:
299,113,93930,2,0,L|408:150,1,107.999993843079,2|2,0:2|0:2,0:0:0:0:
381,53,94347,2,0,L|368:-4,1,53.9999969215394,2|2,0:2|0:2,0:0:0:0:
478,77,94625,1,2,0:2:0:0:
478,77,94764,1,2,0:2:0:0:
478,77,94903,2,0,L|493:132,1,53.9999969215394,2|2,0:2|0:2,0:0:0:0:
508,231,95180,5,2,0:2:0:0:
419,268,95319,1,2,0:2:0:0:
350,233,95458,1,2,0:2:0:0:
329,198,95597,1,2,0:2:0:0:
392,136,95736,5,2,0:2:0:0:
404,114,95875,1,2,0:2:0:0:
368,104,96014,2,0,L|271:126,1,80.9999953823091,2|2,1:2|0:2,0:0:0:0:
216,77,96291,6,0,P|168:69|88:22,1,135.000001573563,2|0,0:2|1:2,0:0:0:0:
73,117,96708,2,0,P|39:137|8:176,1,67.5000007867814,2|2,0:2|0:2,0:0:0:0:
194,224,96986,1,2,0:2:0:0:
194,224,97125,2,0,P|184:188|137:168,2,67.5000007867814,0|2|2,1:2|0:2|0:0,0:0:0:0:
260,125,97541,1,2,0:0:0:0:
260,125,97680,2,0,P|294:140|320:171,2,67.5000007867814,0|2|2,1:2|0:2|0:2,0:0:0:0:
402,95,98097,5,2,0:0:0:0:
409,171,98236,2,0,L|385:269,1,80.9999953823091,0|2,1:2|0:2,0:0:0:0:
308,318,98514,6,0,P|260:257|252:178,1,135.000001573563,2|0,0:2|1:2,0:0:0:0:
291,129,98930,2,0,P|311:95|312:37,2,67.5000007867814,2|2|2,0:2|0:2|0:2,0:0:0:0:
206,126,99347,2,0,P|142:116|59:238,1,202.500002360344,0|0,1:2|0:0,0:0:0:0:
127,252,99902,2,0,P|169:265|221:322,1,101.250001180172,0|0,1:2|0:0,0:0:0:0:
203,310,100180,1,2,0:2:0:0:
446,370,100458,6,0,L|424:258,1,80.9999953823091,0|0,1:2|0:0,0:0:0:0:
481,229,100736,6,0,L|502:98,2,125.999992816925,2|0|2,0:2|1:2|0:2,0:0:0:0:
287,176,101569,1,0,1:2:0:0:
351,78,101847,2,0,L|369:156,2,62.9999964084627,2|2|2,0:2|0:2|1:2,0:0:0:0:
172,211,102402,2,0,L|185:154,2,31.4999982042313,2|2|2,0:2|0:2|0:2,0:0:0:0:
105,261,102680,6,0,P|36:228|71:45,1,251.999985633851,0|0,1:2|1:2,0:0:0:0:
178,7,103514,2,0,P|249:27|279:35,1,62.9999964084627,2|2,0:0|0:0,0:0:0:0:
432,73,103791,6,0,P|368:69|205:252,1,314.999982042313,2|0,1:2|0:0,0:0:0:0:
270,287,104625,2,0,P|288:276|308:271,2,41.9999976056418,2|2|2,0:0|0:0|0:0,0:0:0:0:
216,355,104902,6,0,P|155:333|40:306,1,161.999990764618,0|0,1:2|1:2,0:0:0:0:
115,181,105736,2,0,P|157:169|220:141,1,107.999993843079,2|2,1:2|1:2,0:0:0:0:
266,31,106291,1,2,0:2:0:0:
266,31,106430,2,0,P|324:46|422:98,1,161.999990764618,2|0,1:2|1:2,0:0:0:0:
402,311,107125,6,0,P|432:296|501:284,2,53.9999969215394,0|2|2,1:2|0:2|0:2,0:0:0:0:
331,365,107541,2,0,P|309:338|159:305,1,161.999990764618,0|0,1:2|1:2,0:0:0:0:
323,126,108236,2,0,P|248:181|204:178,1,107.999993843079,2|2,1:2|0:2,0:0:0:0:
163,143,108652,1,2,1:2:0:0:
380,42,109069,2,0,P|339:13|302:9,1,53.9999969215394,0|2,1:2|0:2,0:0:0:0:
260,45,109347,5,0,1:2:0:0:
420,143,109764,2,0,P|448:211|400:316,1,161.999990764618,0|0,1:2|1:2,0:0:0:0:
232,301,110458,2,0,P|240:333|245:377,2,53.9999969215394,2|0|2,1:2|0:0|0:2,0:0:0:0:
152,292,110875,2,0,P|165:222|164:121,1,161.999990764618,2|0,1:2|1:2,0:0:0:0:
64,16,111569,6,0,P|20:48|36:119,1,107.999993843079,0|0,1:2|0:0,0:0:0:0:
98,93,111986,2,0,P|145:107|292:146,1,161.999990764618,0|0,1:2|1:2,0:0:0:0:
161,325,112680,2,0,P|125:314|108:248,1,107.999993843079,2|2,3:2|3:2,0:0:0:0:
106,251,113051,2,0,L|147:241,2,35.999997947693,2|2|4,0:2|0:2|0:0,0:0:0:0:
266,364,113514,2,0,L|240:267,1,53.9999969215394,0|0,1:2|1:2,0:0:0:0:
324,170,113791,5,4,1:2:0:0:
428,206,113930,1,2,0:2:0:0:
451,281,114069,1,2,0:2:0:0:
421,321,114208,1,2,0:2:0:0:
421,321,114347,2,0,P|379:309|352:271,1,67.5000007867814,0|0,1:2|0:0,0:0:0:0:
203,169,114625,2,0,P|219:222|226:276,1,67.5000007867814,2|2,0:2|0:2,0:0:0:0:
350,165,114902,2,0,P|377:102|390:10,1,135.000001573563,0|2,1:2|0:2,0:0:0:0:
288,52,115319,2,0,P|223:75|191:79,1,67.5000007867814,2|0,0:2|1:2,0:0:0:0:
131,256,115597,2,0,P|92:240|-5:222,1,135.000001573563,2|2,0:2|0:2,0:0:0:0:
163,140,116014,5,0,1:2:0:0:
236,153,116152,2,0,P|275:176|274:301,1,135.000001573563,2|2,0:2|0:2,0:0:0:0:
128,360,116569,1,0,1:2:0:0:
156,292,116708,1,2,0:2:0:0:
128,360,116847,2,0,P|68:367|31:343,1,67.5000007867814,2|2,0:2|0:2,0:0:0:0:
0,204,117125,2,0,P|53:193|166:266,1,135.000001573563,0|2,1:2|0:2,0:0:0:0:
267,82,117541,2,0,P|272:36|270:-25,1,67.5000007867814,2|0,0:2|1:2,0:0:0:0:
226,198,117819,1,2,0:2:0:0:
265,262,117958,2,0,P|266:295|270:329,1,67.5000007867814,0|2,0:0|0:2,0:0:0:0:
193,122,118236,6,0,P|176:69|139:23,1,67.5000007867814,0|2,1:2|0:2,0:0:0:0:
345,266,118514,2,0,P|352:298|367:328,1,67.5000007867814,2|2,0:2|0:2,0:0:0:0:
148,220,118791,2,0,P|77:251|16:313,1,135.000001573563,0|2,1:2|0:2,0:0:0:0:
212,305,119208,1,2,0:2:0:0:
334,166,119347,2,0,P|363:96|365:-18,2,135.000001573563,0|2|2,1:2|0:2|1:2,0:0:0:0:
272,87,120180,5,2,3:2:0:0:
294,323,120458,1,0,1:2:0:0:
294,323,121576,5,4,0:0:0:0:
400,245,121716,1,8,1:2:0:0:
218,160,121856,1,8,1:2:0:0:
309,242,121996,5,8,1:2:0:0:
309,242,122066,1,8,1:2:0:0:
309,242,122136,1,8,1:2:0:0:
394,46,122276,1,8,1:2:0:0:
302,153,122416,2,0,P|287:133|279:63,1,89.9999976158143,4|2,0:3|0:2,0:0:0:0:
494,300,122695,5,6,1:2:0:0:
494,300,122972,2,0,P|447:320|403:352,1,71.9999980926514,2|0,0:0|3:0,0:0:0:0:
312,225,123250,2,0,P|319:186|320:107,1,71.9999980926514,10|0,1:2|0:0,0:0:0:0:
476,112,123528,2,0,B|494:145|494:145|476:204,1,71.9999980926514,2|0,0:2|0:0,0:0:0:0:
219,172,123806,2,0,P|148:147|27:123,1,143.999996185303,2|0,1:2|3:0,0:0:0:0:
295,11,124222,1,2,0:0:0:0:
221,25,124361,2,0,P|174:39|117:55,1,71.9999980926514,10|0,1:2|0:0,0:0:0:0:
392,188,124639,1,2,0:0:0:0:
300,133,124778,5,2,0:0:0:0:
300,133,124847,1,2,0:0:0:0:
300,133,124917,2,0,P|345:87|426:111,1,143.999996185303,6|2,1:2|0:0,0:0:0:0:
417,101,125333,1,2,0:3:0:0:
231,233,125472,2,0,P|220:198|195:126,1,71.9999980926514,10|0,1:2|0:0,0:0:0:0:
380,207,125750,2,0,P|394:239|382:306,1,71.9999980926514,2|2,0:2|0:2,0:0:0:0:
158,299,126028,1,6,1:2:0:0:
223,336,126167,2,0,B|334:350|261:370|396:384,1,143.999996185303,2|0,0:3|3:2,0:0:0:0:
91,362,126583,2,0,P|37:373|-11:393,1,71.9999980926514,10|2,1:2|0:3,0:0:0:0:
253,251,126861,1,2,0:2:0:0:
144,207,127000,1,0,3:2:0:0:
253,251,127139,6,0,P|312:213|287:112,1,143.999996185303,6|2,1:2|0:0,0:0:0:0:
315,144,127556,1,0,3:0:0:0:
430,303,127695,2,0,P|422:263|378:230,1,71.9999980926514,10|0,1:2|0:0,0:0:0:0:
448,162,127972,2,0,P|459:95|539:35,2,143.999996185303,2|2|0,0:2|1:2|3:0,0:0:0:0:
214,126,128667,2,0,P|178:86|200:-26,1,143.999996185303,2|0,0:0|0:0,0:0:0:0:
331,186,129083,2,0,P|282:201|220:246,1,71.9999980926514,2|2,0:0|0:0,0:0:0:0:
299,5,129361,5,6,1:2:0:0:
104,169,129639,1,2,0:0:0:0:
76,95,129778,1,2,0:3:0:0:
104,169,129917,1,10,1:2:0:0:
346,302,130195,2,0,P|361:240|367:220,1,71.9999980926514,2|0,0:2|0:0,0:0:0:0:
282,179,130472,1,6,1:2:0:0:
458,136,130611,2,0,P|376:123|350:44,1,143.999996185303,2|0,0:3|3:2,0:0:0:0:
191,263,131028,2,0,P|169:281|157:336,1,71.9999980926514,10|2,1:2|0:3,0:0:0:0:
228,371,131306,5,2,1:2:0:0:
193,175,131445,1,0,1:2:0:0:
228,371,131583,2,0,P|278:351|381:335,1,152.999998865128,6|0,1:2|3:0,0:0:0:0:
447,285,132000,1,0,3:0:0:0:
294,191,132139,2,0,P|334:215|374:228,1,76.4999994325638,10|0,1:2|0:0,0:0:0:0:
173,256,132417,6,0,P|103:280|80:350,1,152.999998865128,6|2,0:2|1:2,0:0:0:0:
80,350,132833,1,0,3:0:0:0:
65,163,132972,2,0,P|73:105|73:64,1,76.4999994325638,2|2,0:0|0:3,0:0:0:0:
189,337,133250,1,10,1:2:0:0:
189,337,133528,6,0,B|206:242|241:305|259:188,1,152.999998865128,6|2,0:0|1:2,0:0:0:0:
229,44,133945,2,0,P|211:106|193:143,2,76.4999994325638,0|2|2,0:0|0:2|0:2,0:0:0:0:
266,218,134361,2,0,P|283:294|297:332,1,76.4999994325638,10|2,1:2|0:2,0:0:0:0:
283,292,134570,1,2,0:0:0:0:
283,292,134639,1,2,0:2:0:0:
362,238,134778,1,2,0:2:0:0:
169,257,134917,2,0,P|96:292|19:315,2,152.999998865128,2|2|10,1:2|0:2|1:2,0:0:0:0:
240,315,135611,1,2,0:2:0:0:
320,158,135750,1,2,0:2:0:0:
248,196,135889,1,2,0:2:0:0:
367,354,136028,6,0,P|428:342|458:195,1,229.499998297691,6|0,1:2|3:0,0:0:0:0:
512,137,136583,2,0,P|490:115|408:124,1,76.4999994325638,10|0,1:2|0:0,0:0:0:0:
185,102,136861,2,0,P|274:116|336:277,1,229.499998297691,6|0,0:2|3:0,0:0:0:0:
403,295,137417,2,0,P|363:330|300:340,1,76.4999994325638,2|2,0:0|0:3,0:0:0:0:
110,218,137695,1,10,1:2:0:0:
110,218,137972,6,0,P|186:250|271:267,2,161.999990764618,6|2|4,0:0|1:2|0:3,0:0:0:0:
180,328,138667,1,0,1:0:0:0:
35,268,138806,2,0,P|16:198|16:146,2,80.9999953823091,4|0|0,1:1|0:0|1:2,0:0:0:0:
2,348,139222,5,0,1:2:0:0:
201,228,139361,1,12,1:2:0:0:
111,136,139500,1,0,1:2:0:0:
317,289,139778,5,4,0:3:0:0:
123,379,139917,1,0,1:2:0:0:
169,319,140056,1,4,0:3:0:0:
223,370,140195,1,4,0:3:0:0:
424,141,140459,5,4,1:0:0:0:
361,183,140597,2,0,P|335:165|317:111,1,77.9999943631493,2|0,0:2|0:0,0:0:0:0:
424,141,140875,1,2,0:0:0:0:
211,220,141014,2,0,P|192:175|229:80,1,155.999988726299,2|10,0:0|1:2,0:0:0:0:
345,268,141431,2,0,P|296:311|233:308,1,77.9999943631493,0|2,0:0|0:0,0:0:0:0:
113,265,141709,1,2,0:0:0:0:
285,313,141847,2,0,P|226:309|156:381,1,155.999988726299,2|6,0:0|1:2,0:0:0:0:
323,190,142403,5,2,0:0:0:0:
352,122,142542,1,0,1:0:0:0:
290,79,142681,1,0,3:0:0:0:
229,117,142820,1,2,1:2:0:0:
460,239,142959,2,0,P|442:146|426:53,1,155.999988726299,14|0,1:2|3:0,0:0:0:0:
282,305,143375,1,0,3:0:0:0:
233,248,143514,2,0,P|244:210|248:190,2,38.9999971815746,2|2|2,2:3|2:3|2:3,0:0:0:0:
325,383,143792,5,6,1:2:0:0:
190,328,143931,2,0,P|151:338|99:357,1,77.9999943631493,2|0,0:2|0:0,0:0:0:0:
334,245,144209,1,2,1:2:0:0:
404,279,144347,2,0,P|451:294|507:315,1,77.9999943631493,2|0,0:0|1:3,0:0:0:0:
218,201,144625,1,10,1:2:0:0:
284,144,144764,2,0,B|272:35|244:104|233:-11,1,155.999988726299,2|2,0:0|0:0,0:0:0:0:
313,231,145181,2,0,P|294:361|296:387,1,155.999988726299,2|6,0:0|1:2,0:0:0:0:
89,167,145736,5,2,0:0:0:0:
56,241,145875,1,0,1:0:0:0:
138,231,146014,1,0,3:0:0:0:
92,209,146153,1,2,1:2:0:0:
234,110,146292,2,0,P|297:121|329:218,1,155.999988726299,14|2,1:2|0:0,0:0:0:0:
162,370,146709,2,0,P|188:329|188:286,1,77.9999943631493,2|2,0:0|2:3,0:0:0:0:
190,300,146917,1,2,2:3:0:0:
190,300,146986,1,2,2:3:0:0:
512,384,147125,6,0,P|419:319|310:297,1,194.999985907873,4|0,1:0|0:0,0:0:0:0:
336,307,147542,1,0,1:0:0:0:
330,218,147681,2,0,P|291:226|252:246,1,77.9999943631493,2|0,0:0|1:0,0:0:0:0:
481,254,147959,2,0,P|508:200|517:160,1,77.9999943631493,14|0,1:2|3:0,0:0:0:0:
354,82,148236,1,0,3:0:0:0:
401,131,148375,1,0,3:0:0:0:
354,82,148514,2,0,P|319:65|280:57,1,77.9999943631493,2|2,0:0|1:2,0:0:0:0:
280,57,148722,5,2,0:0:0:0:
280,57,148792,2,0,P|205:94|67:83,1,194.999985907873,4|0,1:0|0:0,0:0:0:0:
86,85,149209,1,0,1:0:0:0:
43,173,149347,2,0,P|0:112|-5:86,1,77.9999943631493,2|0,0:0|1:0,0:0:0:0:
179,198,149625,2,0,P|150:293|150:394,1,155.999988726299,14|0,1:2|3:0,0:0:0:0:
41,302,150042,2,0,P|49:356|65:385,2,77.9999943631493,0|2|2,3:0|2:3|2:3,0:0:0:0:
267,226,150459,6,0,B|330:226|369:276|364:277|360:279|400:335|471:338,1,233.999983089448,4|0,1:0|1:0,0:0:0:0:
420,215,151014,2,0,P|394:180|391:122,1,77.9999943631493,2|0,0:0|1:0,0:0:0:0:
277,310,151292,2,0,P|258:340|257:397,1,80.9999981632233,10|0,1:2|3:0,0:0:0:0:
183,161,151570,2,0,P|173:124|208:60,1,83.9999952112835,0|0,3:0|3:0,0:0:0:0:
61,309,151847,2,0,P|21:347|14:404,1,87.0000003503164,2|2,0:0|1:2,0:0:0:0:
13,116,152125,2,0,P|105:123|182:283,1,270.000003147125,4|0,1:0|1:0,0:0:0:0:
333,317,152681,2,0,P|299:364|227:377,1,90.0000010490418,2|0,0:0|1:0,0:0:0:0:
264,142,152959,5,6,1:2:0:0:
418,281,153097,1,0,0:2:0:0:
497,189,153236,1,4,0:3:0:0:
369,222,153375,2,0,L|355:167,1,41.9999976056418,4|2,0:3|2:3,0:0:0:0:
358,181,153584,1,2,2:3:0:0:
358,181,153653,1,2,2:3:0:0:
174,279,153792,5,4,1:0:0:0:
218,217,153931,2,0,P|264:244|275:353,1,155.999988726299,2|2,0:2|0:0,0:0:0:0:
43,379,154347,2,0,P|76:335|77:300,1,77.9999943631493,2|0,0:0|1:3,0:0:0:0:
130,72,154625,1,10,1:2:0:0:
186,125,154764,2,0,P|153:158|113:166,1,77.9999943631493,0|2,0:0|0:0,0:0:0:0:
16,49,155042,1,2,0:0:0:0:
62,224,155181,2,0,P|29:191|-11:183,1,77.9999943631493,2|2,0:0|3:3,0:0:0:0:
176,298,155459,6,0,P|255:268|343:244,1,155.999988726299,6|2,1:2|0:0,0:0:0:0:
384,184,155875,2,0,P|424:195|481:217,1,77.9999943631493,0|0,1:0|3:0,0:0:0:0:
396,299,156153,1,2,1:2:0:0:
197,194,156292,2,0,P|135:152|184:-5,1,233.999983089448,14|0,1:2|3:0,0:0:0:0:
231,39,156847,2,0,P|221:67|218:82,2,38.9999971815746,2|2|2,2:3|2:3|2:3,0:0:0:0:
111,245,157125,5,6,1:2:0:0:
193,284,157264,2,0,P|230:295|282:321,1,77.9999943631493,2|0,0:2|0:0,0:0:0:0:
111,245,157542,1,2,1:2:0:0:
235,189,157681,2,0,P|287:172|372:132,1,116.999991544724,6|0,0:0|0:0,0:0:0:0:
354,156,157959,1,10,1:2:0:0:
404,227,158097,2,0,P|396:296|388:328,1,77.9999943631493,0|2,0:0|0:0,0:0:0:0:
354,156,158375,1,2,0:0:0:0:
292,83,158514,2,0,P|284:14|276:-18,1,77.9999943631493,6|2,0:0|3:3,0:0:0:0:
181,218,158792,5,6,1:2:0:0:
36,169,159070,1,2,0:0:0:0:
103,133,159209,2,0,P|103:90|6:30,1,155.999988726299,0|2,1:0|1:2,0:0:0:0:
181,218,159625,2,0,P|241:200|278:98,1,155.999988726299,14|2,1:2|0:0,0:0:0:0:
364,86,160042,2,0,P|357:39|304:13,1,77.9999943631493,2|2,0:0|2:3,0:0:0:0:
335,19,160250,1,2,2:3:0:0:
335,19,160320,1,2,2:3:0:0:
309,268,160459,5,4,1:0:0:0:
309,268,160736,1,2,0:0:0:0:
377,234,160875,1,0,1:0:0:0:
309,268,161014,2,0,P|273:250|224:241,1,77.9999943631493,2|0,0:0|1:0,0:0:0:0:
364,384,161292,1,10,1:2:0:0:
364,384,161570,1,2,0:0:0:0:
294,350,161709,1,0,1:0:0:0:
364,384,161847,2,0,P|400:366|449:357,1,77.9999943631493,2|0,1:2|1:0,0:0:0:0:
199,332,162125,6,0,P|120:247|109:133,1,233.999983089448,0|0,1:0|1:0,0:0:0:0:
32,108,162681,2,0,P|39:70|60:36,1,77.9999943631493,2|0,0:0|1:0,0:0:0:0:
259,97,162959,2,0,P|337:119|415:140,1,155.999988726299,10|2,1:2|0:0,0:0:0:0:
511,179,163375,2,0,P|492:103|479:61,1,77.9999943631493,0|2,1:0|1:2,0:0:0:0:
492,103,163584,1,2,2:3:0:0:
492,103,163653,1,2,1:3:0:0:
327,207,163792,5,0,1:0:0:0:
327,207,164070,1,2,0:0:0:0:
298,276,164209,1,0,1:0:0:0:
388,256,164347,1,2,0:0:0:0:
357,324,164486,1,0,1:0:0:0:
173,164,164625,1,10,1:2:0:0:
173,164,164903,1,2,0:0:0:0:
202,233,165042,1,0,1:0:0:0:
112,213,165180,1,2,1:2:0:0:
143,281,165319,1,0,1:0:0:0:
270,131,165459,6,0,P|305:103|310:-6,1,155.999988726299,0|2,1:0|0:0,0:0:0:0:
379,212,165875,2,0,P|361:299|348:392,1,155.999988726299,0|2,1:0|0:0,0:0:0:0:
95,327,166292,1,10,1:2:0:0:
288,221,166431,1,2,1:2:0:0:
232,368,166570,1,4,0:3:0:0:
142,231,166709,1,4,0:3:0:0:
212,253,166847,2,0,L|199:289,2,38.9999971815746,2|2|2,1:2|2:3|1:3,0:0:0:0:
168,110,167125,6,0,P|97:119|48:214,1,155.999988726299,0|2,1:0|0:0,0:0:0:0:
273,169,167542,2,0,P|299:145|304:88,1,77.9999943631493,0|2,1:0|0:0,0:0:0:0:
265,27,167820,1,0,1:0:0:0:
158,206,167959,2,0,P|169:292|179:378,1,155.999988726299,8|2,1:2|0:0,0:0:0:0:
253,379,168375,1,4,0:3:0:0:
310,323,168514,2,0,L|325:242,1,77.9999943631493,0|4,1:0|0:3,0:0:0:0:
85,324,168792,5,4,1:0:0:0:
23,267,169070,1,2,0:0:0:0:
36,190,169347,1,2,0:0:0:0:
256,181,169625,5,0,1:0:0:0:
318,124,169764,1,0,1:0:0:0:
305,47,169903,1,0,1:0:0:0:
163,92,170042,5,4,3:0:0:0:
197,108,170181,1,4,3:0:0:0:
217,73,170320,1,4,3:0:0:0:
102,20,170459,6,0,P|24:48|-8:59,1,71.9999958953859,6|0,1:0|0:0,0:0:0:0:
114,178,170771,1,2,1:2:0:0:
187,215,170909,2,0,P|260:244|353:289,1,143.999991790772,0|0,1:0|1:0,0:0:0:0:
121,374,171326,2,2,P|72:353|57:264,1,143.999991790772,6|0,1:0|0:0,0:1:0:0:
54,270,171742,1,0,0:0:0:0:
232,217,171881,2,2,P|206:246|201:286,1,71.9999958953859,2|0,1:0|0:0,0:1:0:0:
39,150,172159,6,2,P|107:155|189:27,1,215.999987686158,6|0,1:0|1:0,0:1:0:0:
280,47,172714,2,0,P|305:21|338:9,1,71.9999958953859,0|0,0:0|1:0,0:0:0:0:
487,212,172992,2,2,P|428:183|316:156,1,143.999991790772,6|0,1:0|0:0,0:1:0:0:
301,228,173409,2,0,P|324:293|328:317,1,71.9999958953859,2|2,3:2|3:0,0:0:0:0:
324,295,173617,1,2,3:2:0:0:
324,295,173686,1,2,3:0:0:0:
148,384,173825,6,2,P|106:373|83:329,1,71.9999958953859,6|0,1:0|0:0,0:1:0:0:
130,284,174103,2,0,P|154:258|189:251,1,71.9999958953859,0|0,1:0|1:0,0:0:0:0:
231,316,174381,1,0,3:0:0:0:
231,316,174520,1,0,1:0:0:0:
0,68,174659,2,2,P|29:129|175:158,1,215.999987686158,6|0,1:0|3:0,0:1:0:0:
381,185,175214,2,2,P|369:158|389:89,1,71.9999958953859,2|0,1:0|0:0,0:1:0:0:
309,67,175492,5,2,1:0:0:0:
309,67,175631,1,2,0:0:0:0:
252,285,175770,1,2,1:2:0:0:
311,235,175909,1,2,1:2:0:0:
231,27,176047,2,0,P|218:83|202:129,1,71.9999958953859,0|2,1:2|1:2,0:0:0:0:
59,227,176325,1,6,1:2:0:0:
19,167,176464,1,2,0:3:0:0:
84,136,176603,2,0,P|115:150|160:180,1,71.9999958953859,2|2,0:3|0:3,0:0:0:0:
101,310,176846,2,0,P|63:324|28:329,2,53.9999969215394,0|2|0,0:0|0:3|0:0,0:0:0:0:
241,277,177159,6,0,P|308:307|408:343,1,137.99999897639,4|0,1:0|0:0,0:0:0:0:
453,222,177575,2,0,P|439:139|436:112,1,68.9999994881948,2|2,1:2|1:2,0:0:0:0:
511,125,177853,1,2,1:2:0:0:
393,6,177992,1,0,1:0:0:0:
336,64,178131,2,0,P|318:135|296:204,1,137.99999897639,2|2,0:2|0:2,0:0:0:0:
136,216,178547,2,0,P|156:278|173:315,1,68.9999994881948,2|2,1:2|0:2,0:0:0:0:
358,351,178825,5,4,1:1:0:0:
303,303,178964,2,0,P|260:328|234:354,1,68.9999994881948,2|2,0:2|0:2,0:0:0:0:
457,251,179242,2,0,P|490:185|477:79,1,137.99999897639,2|2,1:2|0:2,0:0:0:0:
279,209,179659,1,4,1:2:0:0:
382,58,179936,1,2,0:2:0:0:
312,24,180075,1,2,0:2:0:0:
382,58,180214,2,0,P|426:35|468:24,1,68.9999994881948,2|2,1:2|0:2,0:0:0:0:
253,128,180492,6,0,P|179:161|88:161,1,137.99999897639,4|2,1:1|0:2,0:0:0:0:
48,192,180909,1,2,1:2:0:0:
194,275,181047,1,2,0:2:0:0:
124,312,181186,1,2,1:2:0:0:
288,362,181325,2,0,P|305:295|309:263,1,68.9999994881948,4|0,1:1|0:0,0:0:0:0:
210,193,181603,1,4,1:2:0:0:
356,105,181742,2,0,P|365:138|372:171,2,68.9999994881948,0|4|0,0:0|1:2|0:0,0:0:0:0:
288,143,182159,5,4,1:1:0:0:
512,252,182297,1,2,1:2:0:0:
453,302,182436,2,0,P|423:315|372:342,1,68.9999994881948,2|2,0:2|0:2,0:0:0:0:
512,151,182714,2,0,P|482:138|431:111,1,68.9999994881948,2|4,1:2|3:0,0:0:0:0:
262,284,182992,5,10,1:2:0:0:
341,245,183131,1,2,1:2:0:0:
271,262,183270,1,2,1:2:0:0:
332,267,183409,1,2,1:2:0:0:
287,254,183547,1,4,3:0:0:0:
316,275,183686,1,4,3:0:0:0:
151,361,183825,6,0,P|25:218|122:50,2,359.999990463257,4|10|2,1:1|1:2|1:2,0:0:0:0:
285,109,185770,1,2,3:0:0:0:
219,74,185909,2,0,P|200:144|185:211,1,119.999996821086,2|2,3:0|3:0,0:0:0:0:
456,344,186325,2,0,P|440:262|287:226,1,239.999993642171,4|2,1:1|1:2,0:0:0:0:
304,217,187020,1,2,3:0:0:0:
140,340,187159,6,0,P|86:310|74:219,1,143.999996185303,4|2,1:1|3:0,0:0:0:0:
356,100,187853,1,2,3:0:0:0:
311,43,187992,2,0,P|264:52|209:203,1,215.999987686158,14|2,1:2|3:0,0:0:0:0:
446,343,188825,2,0,P|433:265|330:223,1,179.999995231629,6|2,1:2|3:0,0:0:0:0:
116,349,189520,5,2,3:0:0:0:
40,325,189659,2,0,P|-8:264|197:132,1,389.999971815747,14|2,1:2|3:0,0:0:0:0:
277,27,190492,6,0,P|265:96|257:228,1,179.999995231629,4|2,1:1|3:0,0:0:0:0:
190,248,191047,2,0,P|208:304|219:332,1,59.9999984105428,2|2,3:0|3:0,0:0:0:0:
481,336,191325,2,0,P|499:257|354:156,1,239.999993642171,10|2,1:2|3:0,0:0:0:0:
198,60,192159,6,0,P|128:98|27:129,1,179.999995231629,2|2,1:2|3:0,0:0:0:0:
85,207,192714,2,0,P|116:220|158:248,1,59.9999984105428,2|2,3:0|3:0,0:0:0:0:
320,348,192992,2,0,P|244:298|267:139,1,239.999993642171,10|2,1:2|1:2,0:0:0:0:
473,332,193825,5,4,1:1:0:0:
404,210,194103,2,0,P|415:187|421:112,2,59.9999984105428,0|2|2,0:0|3:0|3:0,0:0:0:0:
498,134,194520,1,2,3:0:0:0:
335,165,194659,2,0,P|277:149|175:54,1,179.999995231629,10|2,1:2|3:0,0:0:0:0:
143,162,195214,1,2,3:0:0:0:
329,82,195353,1,2,3:0:0:0:
143,162,195492,6,0,P|45:205|0:250,1,119.999996821086,6|0,1:2|0:0,0:0:0:0:
84,276,195909,1,2,3:0:0:0:
369,227,196186,1,2,3:0:0:0:
399,155,196325,2,0,P|497:198|542:243,1,119.999996821086,14|0,1:2|0:0,0:0:0:0:
239,250,196742,1,2,1:2:0:0:
262,179,196881,1,2,1:2:0:0:
262,179,197159,6,0,P|283:256|294:360,1,179.999989738465,4|2,1:0|0:0,0:0:0:0:
293,355,198825,1,2,0:0:0:0:
435,251,199381,2,0,P|453:200|461:138,1,107.999993843079,2|0,0:0|0:0,0:0:0:0:
500,0,200492,6,0,P|439:53|344:79,1,179.999989738465,2|2,0:0|0:0,0:0:0:0:
261,141,202159,2,0,P|208:112|192:107,1,71.9999958953859,2|2,0:0|0:0,0:0:0:0:
114,60,202992,2,0,P|93:76|71:85,2,35.999997947693,2|0|0,0:0|0:0|0:0,0:0:0:0:
276,233,203825,6,0,P|270:275|272:391,1,143.999996185303,2|6,0:0|0:0,0:0:0:0:
239,149,205492,2,0,P|233:107|235:-9,1,143.999996185303,2|6,0:0|0:0,0:0:0:0:
438,221,206881,6,0,L|402:235,1,23.9999993642171,2|2,0:0|0:0,0:0:0:0:
384,254,207159,2,0,L|408:124,1,119.999996821086,2|2,1:2|0:0,0:0:0:0:
223,78,207992,1,2,0:0:0:0:
280,126,208270,1,2,0:0:0:0:
217,161,208547,1,2,0:0:0:0:
302,271,208825,6,0,L|47:347,1,251.999985633851,2|2,1:2|1:2,0:0:0:0:
301,30,210492,5,4,1:2:0:0:
122,211,210770,2,0,P|110:173|106:134,1,66.0000002657573,2|2,1:2|1:2,0:0:0:0:
180,105,211047,1,2,1:2:0:0:
314,294,211186,2,0,P|326:256|330:217,1,66.0000002657573,4|2,1:3|0:2,0:0:0:0:
209,358,211464,5,8,1:2:0:0:
261,136,211603,1,2,1:2:0:0:
199,184,211742,1,2,1:2:0:0:
239,249,211881,1,4,1:3:0:0:
233,34,212020,5,4,1:3:0:0:
352,114,212159,2,0,P|388:92|440:73,1,71.9999958953859,6|2,1:2|0:2,0:0:0:0:
117,154,212436,2,0,P|81:133|51:104,1,77.9999943631493,2|2,0:2|0:2,0:0:0:0:
303,306,212714,2,0,P|322:346|331:384,1,83.9999952112835,2|2,1:2|0:2,0:0:0:0:
271,133,212992,5,2,1:2:0:0:
206,171,213131,1,2,0:2:0:0:
296,205,213270,5,2,1:2:0:0:
228,245,213409,1,2,0:2:0:0:
252,193,213547,5,2,1:2:0:0:
252,193,213686,1,2,0:2:0:0:
277,339,219650,6,0,B|312:279|271:216|264:222|254:229|203:161|261:78,1,251.999985633851,4|2,1:0|0:0,0:0:0:0:
281,23,220205,1,0,1:0:0:0:
281,23,220344,1,0,1:0:0:0:
145,175,220483,6,0,P|83:211|14:223,1,83.9999952112835,4|0,1:0|0:0,0:0:0:0:
354,203,220760,2,0,P|392:219|427:242,1,83.9999952112835,0|0,1:0|1:0,0:0:0:0:
208,279,221038,1,2,1:2:0:0:
305,119,221177,1,4,1:3:0:0:
208,279,221316,2,0,P|175:209|165:42,1,209.999988028209,14|0,1:2|0:0,0:0:0:0:
175,70,221733,1,0,1:0:0:0:
445,99,221871,2,0,L|333:59,1,83.9999952112835,2|2,0:0|1:2,0:0:0:0:
365,70,222080,5,2,0:0:0:0:
365,70,222149,2,0,P|417:125|403:235,1,167.999990422567,4|0,1:0|1:0,0:0:0:0:
236,123,222566,1,0,1:0:0:0:
284,298,222705,1,2,1:2:0:0:
236,123,222844,1,0,1:0:0:0:
149,307,222983,2,0,P|95:246|101:177,1,125.999992816925,14|0,1:2|0:0,0:0:0:0:
104,202,223260,1,4,3:0:0:0:
186,11,223399,2,0,P|158:47|159:103,1,83.9999952112835,4|4,3:0|2:3,0:0:0:0:
154,84,223608,1,2,2:3:0:0:
154,84,223677,1,2,2:3:0:0:
398,130,223816,6,0,P|442:196|446:354,1,233.999983089448,4|0,1:0|1:0,0:0:0:0:
313,264,224371,2,0,P|329:212|329:162,1,80.9999981632233,2|0,0:0|1:0,0:0:0:0:
190,282,224649,2,0,P|207:388|204:400,1,83.9999952112835,10|0,1:2|3:0,0:0:0:0:
99,149,224927,2,0,P|126:85|129:9,1,87.0000003503164,0|0,3:0|3:0,0:0:0:0:
0,295,225205,2,0,P|5:402|1:413,1,90.0000010490418,2|2,0:0|1:2,0:0:0:0:
302,361,225483,2,0,P|318:179|209:33,1,371.9999929835,4|2,1:0|0:0,0:0:0:0:
144,91,226177,1,0,1:0:0:0:
404,156,226316,1,14,1:2:0:0:
218,248,226594,5,4,0:3:0:0:
312,132,226733,1,4,0:3:0:0:
136,225,226871,1,2,2:3:0:0:
308,332,227010,1,2,2:3:0:0:
234,172,227150,5,4,1:0:0:0:
301,224,227288,2,0,B|405:245|335:277|456:302,1,155.999988726299,2|2,0:2|0:0,0:0:0:0:
202,325,227705,2,0,P|167:332|119:394,1,77.9999943631493,2|0,0:0|1:3,0:0:0:0:
301,224,227983,1,14,1:2:0:0:
344,151,228122,2,0,P|324:91|316:-9,1,155.999988726299,2|2,0:0|0:0,0:0:0:0:
229,103,228538,2,0,P|209:55|201:8,1,77.9999943631493,2|2,0:0|3:3,0:0:0:0:
116,62,228816,5,6,1:2:0:0:
116,62,229094,2,0,P|81:146|97:275,1,155.999988726299,2|0,0:0|3:0,0:0:0:0:
262,256,229511,1,2,1:2:0:0:
199,375,229650,2,0,P|176:328|180:266,1,77.9999943631493,14|0,1:2|0:0,0:0:0:0:
340,176,229927,1,0,3:0:0:0:
399,226,230066,2,0,P|392:264|373:298,1,77.9999943631493,0|2,3:0|2:3,0:0:0:0:
373,298,230275,1,2,2:3:0:0:
373,298,230344,1,2,2:3:0:0:
193,182,230483,5,6,1:2:0:0:
249,236,230622,2,0,P|301:193|278:91,1,155.999988726299,2|2,0:2|1:2,0:0:0:0:
111,247,231038,2,0,P|45:263|23:366,1,155.999988726299,6|14,0:0|1:2,0:0:0:0:
95,366,231455,2,0,P|136:367|190:375,1,77.9999943631493,0|2,0:0|0:0,0:0:0:0:
461,297,231733,1,2,0:0:0:0:
367,315,231872,2,0,P|325:316|272:324,1,77.9999943631493,6|2,0:0|3:3,0:0:0:0:
157,177,232150,5,6,1:2:0:0:
348,130,232427,1,2,0:0:0:0:
279,88,232566,2,0,P|303:38|434:45,1,155.999988726299,0|2,1:0|1:2,0:0:0:0:
157,177,232983,2,0,P|248:178|310:336,1,233.999983089448,14|2,1:2|0:0,0:0:0:0:
210,365,233538,2,0,P|205:335|248:283,1,77.9999943631493,2|2,2:3|2:3,0:0:0:0:
324,374,233816,5,4,1:0:0:0:
324,374,234094,1,2,0:0:0:0:
390,338,234233,1,0,1:0:0:0:
324,374,234372,2,0,P|302:320|298:293,1,77.9999943631493,2|0,0:0|1:0,0:0:0:0:
416,228,234650,1,10,1:2:0:0:
416,228,234927,1,2,0:0:0:0:
347,191,235066,1,0,1:0:0:0:
416,228,235205,2,0,P|438:174|442:147,1,77.9999943631493,2|0,1:2|1:0,0:0:0:0:
275,43,235483,6,0,P|176:72|160:138,1,155.999988726299,4|2,1:0|0:0,0:0:0:0:
132,195,235900,2,0,P|91:225|63:224,1,77.9999943631493,0|2,1:0|0:0,0:0:0:0:
29,152,236177,1,0,1:0:0:0:
245,195,236316,2,0,P|298:211|390:254,1,155.999988726299,10|2,1:2|0:0,0:0:0:0:
417,329,236733,2,0,P|455:310|503:297,2,77.9999943631493,0|2|2,1:0|1:2|1:3,0:0:0:0:
231,295,237150,5,4,1:0:0:0:
231,295,237427,1,2,0:0:0:0:
300,321,237566,1,0,1:0:0:0:
231,295,237705,1,2,0:0:0:0:
300,321,237844,1,0,1:0:0:0:
238,159,237983,1,10,1:2:0:0:
238,159,238261,1,2,0:0:0:0:
172,184,238400,1,0,1:0:0:0:
238,159,238538,1,2,1:2:0:0:
172,184,238678,1,0,1:0:0:0:
224,30,238816,6,0,P|304:42|417:185,1,233.999983089448,4|0,1:0|1:0,0:0:0:0:
486,198,239372,2,0,P|467:264|437:307,1,77.9999943631493,2|2,0:0|0:0,0:0:0:0:
292,384,239650,2,0,P|252:319|241:214,1,155.999988726299,10|4,1:2|0:3,0:0:0:0:
169,122,240066,2,0,P|145:181|142:222,1,77.9999943631493,4|2,0:3|1:2,0:0:0:0:
142,194,240275,1,2,2:3:0:0:
142,194,240344,1,2,1:3:0:0:
324,197,240483,6,0,P|361:199|409:300,1,155.999988726299,4|2,1:0|0:0,0:0:0:0:
314,296,240900,2,0,P|269:308|222:335,1,77.9999943631493,0|2,1:0|0:0,0:0:0:0:
292,384,241177,1,0,1:0:0:0:
253,155,241316,2,0,P|260:85|269:-22,1,155.999988726299,8|2,1:2|0:0,0:0:0:0:
304,86,241733,1,4,0:3:0:0:
193,201,241872,1,0,1:0:0:0:
294,264,242011,1,4,0:3:0:0:
259,338,242150,1,4,1:0:0:0:
108,266,243816,6,0,P|101:199|93:133,1,125.999992816925,2|0,0:0|0:0,0:0:0:0:
94,140,244556,1,2,0:0:0:0:
217,84,244927,2,0,P|207:137|204:153,1,62.9999964084627,2|0,0:0|0:0,0:0:0:0:
206,146,245343,1,2,0:0:0:0:
318,144,245621,2,0,P|328:214|333:241,1,94.499994612694,2|2,0:0|0:0,0:0:0:0:
323,319,246316,1,0,0:0:0:0:
323,319,246454,2,0,P|274:299|239:290,1,62.9999964084627,2|2,0:0|0:0,0:0:0:0:
459,376,247149,2,0,P|474:272|478:245,1,125.999992816925,2|2,0:0|0:0,0:0:0:0:
341,30,248260,6,0,P|291:50|257:61,1,62.9999964084627,2|0,0:0|0:0,0:0:0:0:
282,52,248677,1,2,0:0:0:0:
221,99,248954,1,2,0:0:0:0:
63,46,249371,2,0,P|76:89|82:116,1,62.9999964084627,2|0,0:0|0:0,0:0:0:0:
80,106,249788,1,2,0:0:0:0:
33,168,250066,1,2,0:0:0:0:
251,298,250482,6,0,L|285:288,3,20.9999988028209,2|2|2|2,0:0|0:0|0:0|0:0,0:0:0:0:
256,192,250853,12,0,256385,0:0:0:0:
