osu file format v14

[General]
AudioFilename: audio.mp3
AudioLeadIn: 0
PreviewTime: 140319
Countdown: 0
SampleSet: Soft
StackLeniency: 0.7
Mode: 0
LetterboxInBreaks: 0
WidescreenStoryboard: 0

[Editor]
DistanceSpacing: 1
BeatDivisor: 6
GridSize: 4
TimelineZoom: 1

[Metadata]
Title:Here
TitleUnicode:Here
Artist:JUNNA
ArtistUnicode:JUNNA
Creator:Mirash
Version:PandaHero's Intermediate
Source:魔法使いの嫁
Tags:PandaHero Testo the ancient magus' bride mahoutsukai no yome opening op
BeatmapID:1577637
BeatmapSetID:737103

[Difficulty]
HPDrainRate:5
CircleSize:4
OverallDifficulty:5
ApproachRate:6.5
SliderMultiplier:1.5
SliderTickRate:1

[Events]
//Background and Video events
0,0,"sinii.jpg",0,0
//Break Periods
2,8833,11984
2,100458,103928
2,105103,112817
2,213826,218675
//Storyboard Layer 0 (Background)
//Storyboard Layer 1 (Fail)
//Storyboard Layer 2 (Pass)
//Storyboard Layer 3 (Foreground)
//Storyboard Sound Samples

[TimingPoints]
1323,555.555555555556,3,2,1,50,1,0
1582,555.555555555556,3,2,1,50,1,0
2156,555.555555555556,3,2,1,50,1,0
2415,555.555555555556,3,2,1,50,1,0
2989,576.923076923077,3,2,1,50,1,0
2989,-100,3,2,1,50,0,0
4625,555.555555555556,3,2,1,50,1,0
6291,-100,3,2,1,50,0,0
7958,875.912408759124,3,2,1,10,1,0
8833,833.333333333333,3,2,1,40,1,0
8833,-100,3,2,1,40,0,0
12959,555.555555555556,3,2,1,40,1,0
12959,-100,3,2,1,40,0,0
13516,555.555555555556,4,2,1,60,1,0
19256,-100,4,2,1,60,0,0
19627,-100,4,2,1,60,0,0
19997,-100,4,2,1,60,0,0
22404,-100,4,2,1,50,0,0
30460,-100,4,2,1,50,0,0
31293,-100,4,2,1,50,0,0
37404,-100,4,2,1,40,0,0
37543,-100,4,2,1,30,0,0
37682,-100,4,2,1,20,0,0
37821,-100,4,2,1,10,0,0
37960,-100,4,2,1,15,0,0
39071,-100,4,2,1,40,0,0
39210,-100,4,2,1,70,0,0
40113,-100,4,2,1,20,0,0
40182,-100,4,2,1,60,0,0
53377,-100,4,2,1,50,0,0
53516,-100,4,2,1,60,0,0
57682,-100,4,2,1,50,0,0
57891,-100,4,2,1,20,0,0
57960,833.333333333333,2,2,1,70,1,0
58098,-66.6666666666667,4,2,1,70,0,0
61015,-66.6666666666667,4,2,2,70,0,0
61293,-66.6666666666667,4,2,1,70,0,0
77960,-66.6666666666667,4,2,1,60,0,0
86293,-66.6666666666667,4,2,1,40,0,0
87960,555.555555555556,4,2,1,50,1,0
88098,-100,4,2,1,40,0,0
89904,555.555555555556,4,2,1,50,1,0
90042,-100,4,2,1,40,0,0
91848,555.555555555556,4,2,1,50,1,0
91986,-100,4,2,1,40,0,0
93792,555.555555555556,4,2,1,50,1,0
96014,-100,4,2,1,50,0,0
105736,-100,4,2,1,40,0,0
113236,-100,4,2,1,10,0,0
113375,-100,4,2,1,40,0,0
113792,-100,4,2,1,50,0,0
120458,-100,4,2,1,50,0,0
121708,-100,4,2,1,70,0,0
122611,-100,4,2,1,20,0,0
122680,-100,4,2,1,60,0,0
140180,-100,4,2,1,50,0,0
140389,-100,4,2,1,20,0,0
140459,833.333333333333,2,2,1,70,1,0
140597,-66.6666666666667,4,2,1,70,0,0
150320,-66.6666666666667,4,2,2,70,0,0
150459,-66.6666666666667,4,2,1,70,0,0
153514,-66.6666666666667,4,2,2,70,0,0
153792,-66.6666666666667,4,2,1,70,0,0
156986,-66.6666666666667,4,2,2,70,0,0
157125,-66.6666666666667,4,2,1,70,0,0
160459,-66.6666666666667,4,2,1,60,0,0
168792,-66.6666666666667,4,2,1,50,0,0
169347,-66.6666666666667,4,2,1,30,0,0
169625,-66.6666666666667,4,2,1,70,0,0
170771,833.333333333333,2,2,1,80,1,0
170771,-66.6666666666667,2,2,1,80,0,0
171326,833.333333333333,2,2,1,80,1,0
171326,-66.6666666666667,2,2,1,80,0,0
177159,833.333333333333,2,2,1,80,1,0
177159,-66.6666666666667,2,2,1,80,0,0
183826,833.333333333333,2,2,1,70,1,0
183826,-66.6666666666667,4,2,1,70,0,0
190353,-66.6666666666667,4,2,2,70,0,0
190492,-66.6666666666667,4,2,1,70,0,0
197159,-100,4,2,1,40,0,0
197992,-100,4,2,0,40,0,0
198131,-100,4,2,1,40,0,0
201326,-100,4,2,0,40,0,0
201464,-100,4,2,1,40,0,0
202992,-100,4,2,0,40,0,0
203131,-100,4,2,1,40,0,0
204659,-100,4,2,1,30,0,0
205492,-100,4,2,1,40,0,0
206326,-100,4,2,1,30,0,0
207159,-66.6666666666667,4,2,1,50,0,0
209659,-66.6666666666667,4,2,1,50,0,0
210770,-66.6666666666667,4,2,1,60,0,0
211326,-66.6666666666667,4,2,1,60,0,0
213826,1153.84615384615,4,2,1,35,1,0
214018,1071.42857142857,4,2,1,35,1,0
214419,1132.07547169811,4,2,1,35,1,0
214702,1153.84615384615,4,2,1,35,1,0
214894,1016.94915254237,4,2,1,35,1,0
215402,895.522388059701,4,2,1,35,1,0
216409,1481.48148148148,4,2,1,35,1,0
217149,1071.42857142857,4,2,1,35,1,0
217327,1052.63157894737,4,2,1,35,1,0
217984,1153.84615384615,4,2,1,35,1,0
218176,895.522388059701,4,2,1,35,1,0
218399,1052.63157894737,4,2,1,35,1,0
218662,923.076923076923,4,2,1,35,1,0
219123,895.522388059701,4,2,1,35,1,0
219650,833.333333333333,2,2,1,70,1,0
219650,-66.6666666666667,2,2,1,70,0,0
220483,833.333333333333,2,2,1,70,1,0
220483,-66.6666666666667,2,2,1,70,0,0
227150,833.333333333333,2,2,1,70,1,0
227150,-66.6666666666667,2,2,1,70,0,0
227288,-66.6666666666667,4,2,1,70,0,0
230344,-66.6666666666667,4,2,2,70,0,0
230483,-66.6666666666667,4,2,1,70,0,0
233816,-66.6666666666667,4,2,1,60,0,0
242150,-66.6666666666667,4,2,1,50,0,0
243816,1111.11111111111,4,2,3,30,1,0
243816,-100,4,2,3,30,0,0
248260,-100,4,2,3,30,0,0
248677,-100,4,2,3,40,0,0
249371,-100,4,2,3,30,0,0
250482,-100,4,2,3,20,0,0

[Colours]
Combo1 : 61,91,182
Combo2 : 43,202,194
Combo3 : 35,126,237
Combo4 : 94,149,172

[HitObjects]
250,166,1323,5,2,0:0:0:0:
65,46,2156,1,2,0:0:0:0:
65,46,2989,2,0,P|115:164|48:320,1,300
229,364,4625,6,0,P|165:341|59:362,2,150,2|0|0,0:0|0:0|0:0,0:0:0:0:
256,192,6291,12,0,7958,0:0:0:0:
116,312,12959,6,0,P|154:310|214:314,1,75,2|2,0:0|0:0,0:0:0:0:
235,282,13516,6,0,B|314:258|314:320|415:293,1,150,4|2,1:0|1:3,0:0:0:0:
472,248,14349,1,2,0:0:0:0:
472,248,14488,1,0,0:0:0:0:
472,248,14627,2,0,P|465:193|456:149,1,75,2|0,1:2|0:0,0:0:0:0:
364,132,15182,2,0,L|358:195,2,37.5,2|2|2,1:3|0:0|0:0,0:0:0:0:
332,31,15738,6,0,P|274:47|194:46,1,112.5,4|2,1:0|0:0,0:0:0:0:
172,32,16293,2,0,P|188:72|196:126,1,75,2|0,1:3|0:0,0:0:0:0:
160,203,16849,1,2,1:2:0:0:
76,139,17127,2,0,L|21:139,2,37.5,2|0|2,0:0|0:0|1:3,0:0:0:0:
165,210,17682,5,4,0:0:0:0:
165,210,17821,1,0,0:0:0:0:
165,210,17960,2,0,P|212:209|265:211,1,75,4|0,1:0|0:0,0:0:0:0:
262,223,18377,1,2,0:0:0:0:
277,244,18516,2,0,L|278:328,1,75,2|0,1:3|0:0,0:0:0:0:
381,299,19071,6,0,L|381:236,2,50,0|0|2,1:0|1:0|0:0,0:0:0:0:
445,333,19627,2,0,L|446:393,2,50,2|2|2,1:3|1:2|1:2,0:0:0:0:
503,285,20182,6,0,P|501:225|502:127,1,150,4|2,1:2|1:3,0:0:0:0:
497,29,21016,1,0,0:0:0:0:
402,73,21293,2,0,L|312:69,1,75,0|0,1:0|0:0,0:0:0:0:
268,157,21849,2,0,L|359:161,1,75,2|2,1:3|0:0,0:0:0:0:
362,177,22266,1,4,1:2:0:0:
370,201,22404,6,0,L|343:366,1,150,4|2,1:0|1:3,0:0:0:0:
244,376,23238,1,0,0:0:0:0:
162,309,23516,2,0,L|163:173,1,112.5,0|0,1:0|0:0,0:0:0:0:
158,144,24071,2,0,P|123:157|61:168,1,75,2|0,1:3|0:0,0:0:0:0:
36,72,24627,6,0,P|105:49|203:42,1,150,4|2,1:2|1:3,0:0:0:0:
286,49,25460,1,0,0:0:0:0:
323,146,25738,2,0,L|326:246,1,75,0|2,1:0|0:0,0:0:0:0:
336,244,26154,1,0,0:0:0:0:
352,264,26293,2,0,L|445:266,1,75,2|0,1:3|0:0,0:0:0:0:
428,371,26849,6,0,P|343:357|279:370,1,150,6|0,1:0|1:0,0:0:0:0:
176,375,27682,1,2,1:0:0:0:
176,375,27821,1,2,0:1:0:0:
176,375,27960,2,0,L|177:260,1,112.5,2|2,1:0|1:0,0:0:0:0:
159,212,28516,2,0,P|202:220|258:217,1,75,0|0,1:0|1:0,0:0:0:0:
268,121,29071,6,0,P|192:101|95:120,1,150,6|0,1:0|1:0,0:0:0:0:
29,161,29904,1,2,0:1:0:0:
29,161,30043,1,2,0:1:0:0:
29,161,30182,2,0,L|21:76,1,75,2|2,1:0|1:0,0:0:0:0:
121,110,30738,2,0,L|116:200,1,75,0|2,1:0|1:0,0:0:0:0:
70,279,31293,5,6,1:0:0:0:
70,279,31432,1,0,0:0:0:0:
70,279,31571,1,0,1:0:0:0:
70,279,31710,2,0,P|132:276|207:284,1,112.5,0|0,1:0|1:0,0:0:0:0:
267,340,32404,2,0,P|314:342|374:338,1,75,0|0,1:0|0:0,0:0:0:0:
364,326,32821,1,0,0:0:0:0:
386,312,32960,2,0,P|428:308|484:315,1,75,2|0,1:3|0:0,0:0:0:0:
465,205,33516,6,0,P|401:209|308:189,2,150,4|2|0,1:2|1:3|1:0,0:0:0:0:
487,102,34904,1,2,0:0:0:0:
409,31,35182,2,0,P|374:34|326:43,1,75,2|0,1:3|0:0,0:0:0:0:
250,104,35738,6,0,B|167:75|182:141|73:97,1,150,6|2,1:0|1:3,0:0:0:0:
2,80,36571,1,2,1:1:0:0:
50,173,36849,2,0,P|75:224|76:260,1,75,2|2,1:0|1:0,0:0:0:0:
74,267,37266,1,0,0:0:0:0:
65,291,37404,2,0,P|117:290|163:303,1,75,6|6,1:2|1:2,0:0:0:0:
224,356,37960,5,2,0:0:0:0:
455,145,39210,5,8,1:0:0:0:
455,145,39349,1,8,1:0:0:0:
480,98,39488,1,8,1:0:0:0:
457,50,39627,2,0,L|391:53,1,37.5,8|0,1:0|1:0,0:0:0:0:
368,37,39904,2,0,L|368:138,1,75,8|4,3:3|1:0,0:0:0:0:
283,174,40460,6,0,P|241:158|178:147,2,75,2|2|2,0:0|1:2|0:0,0:0:0:0:
310,275,41293,2,0,P|372:266|450:272,1,112.5,10|2,1:2|0:0,0:0:0:0:
472,283,41849,2,0,P|470:244|470:188,1,75,2|2,1:2|0:0,0:0:0:0:
464,103,42404,6,0,P|437:108|362:106,2,75,4|2|2,1:2|0:0|1:2,0:0:0:0:
401,18,43238,1,2,0:0:0:0:
296,28,43516,2,0,P|286:62|287:115,1,75,10|2,1:2|0:0,0:0:0:0:
182,124,44071,2,0,P|202:174|200:237,1,112.5,2|2,1:0|0:0,0:0:0:0:
187,283,44627,6,0,P|149:274|102:279,1,75,4|2,1:0|0:0,0:0:0:0:
28,338,45182,1,2,1:2:0:0:
127,372,45460,1,2,0:0:0:0:
224,333,45738,2,0,L|224:191,1,112.5,10|2,1:2|0:0,0:0:0:0:
226,167,46293,2,0,P|276:173|330:170,1,75,2|2,1:2|0:0,0:0:0:0:
302,67,46849,6,0,P|264:67|227:72,2,75,4|2|6,1:2|0:0|1:2,0:0:0:0:
407,65,47682,1,0,0:0:0:0:
456,157,47960,2,0,B|437:235|483:229|461:321,1,150,10|10,1:2|1:2,0:0:0:0:
378,364,48793,1,10,1:2:0:0:
300,292,49071,6,0,L|61:297,1,225,4|4,1:0|1:2,0:0:0:0:
75,296,50460,5,0,1:0:0:0:
130,206,50738,1,4,1:2:0:0:
180,113,51016,2,0,L|411:111,1,225,4|2,1:0|1:2,0:0:0:0:
469,193,52127,1,2,1:2:0:0:
386,257,52404,2,0,L|278:249,1,75,10|2,1:2|0:0,0:0:0:0:
295,273,52821,1,2,1:2:0:0:
279,294,52960,2,0,L|179:290,1,75,10|10,1:2|1:2,0:0:0:0:
106,330,53516,6,0,L|85:88,1,225,4|4,1:0|1:2,0:0:0:0:
86,105,54904,5,4,1:2:0:0:
60,207,55182,1,4,1:2:0:0:
31,308,55460,2,0,B|95:296|95:296|194:315,1,150,6|8,1:0|1:3,0:0:0:0:
201,325,56154,1,8,1:3:0:0:
221,340,56293,2,0,L|232:248,1,75,12|8,1:0|0:0,0:0:0:0:
246,161,56849,6,0,P|325:231|460:211,1,225,8|8,1:0|1:2,0:0:0:0:
446,124,57960,5,4,1:0:0:0:
446,124,58098,2,0,P|392:114|313:114,1,112.500004291535,0|0,1:0|1:0,0:0:0:0:
246,161,58793,2,0,P|208:162|138:155,2,75.000002861023,8|0|0,1:1|0:0|1:0,0:0:0:0:
251,265,59626,1,2,1:3:0:0:
251,265,59904,2,0,P|191:258|106:271,1,112.500004291535,8|0,1:2|0:0,0:0:0:0:
99,297,60460,2,0,P|83:229|40:160,1,150.000005722046,8|2,1:0|3:0,0:0:0:0:
20,58,61293,5,4,1:0:0:0:
20,58,61432,2,0,P|65:75|119:79,1,75.000002861023,0|0,1:0|0:0,0:0:0:0:
117,78,61848,1,0,1:0:0:0:
219,53,62126,2,0,P|214:88|214:142,2,75.000002861023,8|0|0,1:0|0:0|1:0,0:0:0:0:
320,25,62960,1,2,1:3:0:0:
320,25,63237,2,0,L|316:148,1,112.500004291535,8|4,1:2|1:2,0:0:0:0:
330,188,63793,2,0,P|410:175|493:193,1,150.000005722046,8|2,1:0|1:0,0:0:0:0:
472,292,64626,6,0,P|392:305|309:287,1,150.000005722046,4|0,1:0|1:0,0:0:0:0:
224,259,65460,2,0,B|147:228|148:293|66:260,1,150.000005722046,8|0,1:0|1:0,0:0:0:0:
74,159,66293,6,0,P|154:146|237:164,1,150.000005722046,4|0,1:0|1:0,0:0:0:0:
318,197,67126,2,0,P|305:117|359:51,1,150.000005722046,8|2,1:0|3:0,0:0:0:0:
436,106,67960,6,0,L|429:273,1,150.000005722046,4|0,1:0|1:0,0:0:0:0:
330,290,68793,2,0,P|321:252|322:210,2,75.000002861023,8|4|4,1:0|1:2|1:2,0:0:0:0:
267,374,69626,2,0,P|193:355|121:369,1,150.000005722046,8|8,1:2|1:0,0:0:0:0:
16,370,70460,2,0,P|28:293|7:197,1,150.000005722046,8|2,1:2|3:0,0:0:0:0:
4,118,71293,5,4,1:0:0:0:
4,118,71432,2,0,P|57:129|136:130,1,112.500004291535,0|0,1:0|1:0,0:0:0:0:
219,119,72126,1,8,1:0:0:0:
242,16,72404,1,0,0:0:0:0:
136,30,72682,1,0,1:0:0:0:
114,132,72960,2,0,P|105:199|106:266,1,112.500004291535,2|0,1:3|0:0,0:0:0:0:
153,336,73654,1,0,0:0:0:0:
153,336,73793,2,0,P|226:322|302:326,1,150.000005722046,8|0,1:0|3:0,0:0:0:0:
399,363,74626,5,4,1:0:0:0:
399,363,74765,2,0,L|403:233,1,112.500004291535,0|0,1:0|1:0,0:0:0:0:
402,145,75460,1,8,1:0:0:0:
491,194,75737,1,0,0:0:0:0:
402,250,76015,1,0,1:0:0:0:
316,188,76293,6,0,L|313:56,1,112.500004291535,4|0,1:0|1:0,0:0:0:0:
211,49,76987,1,0,0:0:0:0:
211,49,77126,2,0,L|208:190,1,112.500004291535,8|8,1:0|1:0,0:0:0:0:
197,185,77682,1,2,1:3:0:0:
182,206,77821,1,4,0:0:0:0:
165,226,77960,6,0,B|90:221|90:221|28:174,1,150.000005722046,4|2,1:0|0:0,0:0:0:0:
9,191,78654,1,2,1:3:0:0:
14,216,78793,2,0,B|31:266|31:266|20:338,1,112.500004291535,8|2,1:0|1:3,0:0:0:0:
32,348,79348,1,2,0:0:0:0:
58,351,79487,1,2,1:3:0:0:
84,350,79626,2,0,B|168:311|161:373|252:338,1,150.000005722046,8|2,1:2|1:0,0:0:0:0:
330,376,80459,2,2,L|346:252,1,112.500004291535,10|0,1:0|0:0,0:0:0:0:
353,212,81015,5,2,3:0:0:0:
307,238,81154,1,2,3:0:0:0:
254,241,81293,2,0,B|230:173|230:173|248:78,1,150.000005722046,4|2,1:0|0:0,0:0:0:0:
264,79,81987,1,2,1:3:0:0:
285,94,82126,2,0,B|333:115|333:115|419:110,1,112.500004291535,8|2,1:0|1:3,0:0:0:0:
410,91,82682,1,2,0:0:0:0:
428,71,82821,1,2,1:3:0:0:
452,80,82959,6,0,L|439:263,1,150.000005722046,8|0,1:2|0:0,0:0:0:0:
405,328,83793,1,8,1:0:0:0:
405,328,83932,2,0,P|325:302|272:307,1,112.500004291535,8|10,1:0|1:3,0:0:0:0:
197,333,84626,1,8,1:2:0:0:
85,38,85459,6,0,P|137:61|255:42,1,150.000005722046,8|8,1:0|1:3,0:0:0:0:
261,155,86293,2,0,B|137:127|172:225|25:192,1,225.000008583069,4|2,1:0|0:0,0:0:0:0:
198,343,87682,5,2,0:0:0:0:
198,343,87960,2,0,L|361:344,2,150,2|8|8,3:0|3:0|3:0,0:0:0:0:
198,133,89626,1,8,3:0:0:0:
198,133,89904,2,0,L|372:140,2,150,2|8|8,3:0|3:0|3:0,0:0:0:0:
20,244,91570,5,8,3:0:0:0:
20,244,91848,2,0,L|17:367,2,112.5,2|0|0,3:0|3:0|3:0,0:0:0:0:
27,139,92959,2,0,L|123:149,1,75,8|0,3:0|3:0,0:0:0:0:
206,157,93514,5,8,3:0:0:0:
206,157,93792,2,0,L|205:62,1,75,2|0,0:0|0:0,0:0:0:0:
307,107,94347,2,0,L|307:201,1,75,0|2,0:0|0:0,0:0:0:0:
266,279,94903,2,0,L|165:284,1,75,2|2,0:0|0:0,0:0:0:0:
243,373,95458,2,0,L|344:378,1,75,2|2,0:0|0:0,0:0:0:0:
343,372,95875,1,2,0:0:0:0:
368,364,96014,6,0,B|390:314|390:314|384:206,1,150,4|2,0:0|0:1,0:0:0:0:
364,115,96847,1,2,0:1:0:0:
260,130,97125,2,0,L|195:137,2,37.5,2|0|2,0:1|0:0|0:1,0:0:0:0:
322,214,97680,2,0,L|387:221,2,37.5,2|2|2,0:1|0:1|0:1,0:0:0:0:
269,216,98097,1,2,0:1:0:0:
238,258,98236,1,2,0:3:0:0:
72,254,104903,5,2,3:3:0:0:
38,97,113792,6,0,L|41:198,1,75,4|0,1:0|0:0,0:0:0:0:
142,145,114347,2,0,L|138:220,1,75,2|0,1:3|0:0,0:0:0:0:
93,315,114903,6,0,P|153:307|216:319,1,112.5,0|0,1:0|0:0,0:0:0:0:
246,346,115458,2,0,L|334:346,1,75,2|0,1:3|0:0,0:0:0:0:
422,376,116014,2,0,P|417:295|446:217,2,150,4|2|0,1:2|1:3|1:0,0:0:0:0:
321,346,117403,1,0,0:0:0:0:
318,241,117680,2,0,L|317:133,1,75,2|0,1:3|0:0,0:0:0:0:
234,100,118236,6,0,P|177:131|90:109,1,150,2|2,1:0|1:3,0:0:0:0:
20,186,119069,1,2,0:1:0:0:
106,245,119347,2,0,L|167:245,2,37.5,2|0|2,1:0|0:0|0:1,0:0:0:0:
36,324,119903,2,0,L|-6:325,2,37.5,2|2|2,1:3|0:1|0:0,0:0:0:0:
135,356,120458,5,2,0:0:0:0:
453,356,121708,5,8,1:0:0:0:
453,356,121847,1,8,1:0:0:0:
479,310,121986,1,8,1:0:0:0:
453,264,122125,2,0,L|388:265,1,37.5,8|0,1:0|1:0,0:0:0:0:
371,287,122403,2,0,L|283:287,1,75,8|4,3:0|1:0,0:0:0:0:
290,182,122958,6,0,P|325:180|378:186,2,75,2|2|2,0:0|1:2|0:0,0:0:0:0:
199,236,123792,2,0,P|150:235|71:221,1,112.5,10|0,1:2|0:0,0:0:0:0:
49,190,124347,2,0,P|52:233|49:284,1,75,2|2,1:2|0:0,0:0:0:0:
104,356,124903,6,0,P|142:349|205:348,1,75,4|2,1:2|0:0,0:0:0:0:
237,261,125458,2,0,P|275:268|338:269,1,75,2|2,1:2|1:0,0:0:0:0:
334,282,125875,1,2,0:0:0:0:
355,296,126014,2,0,L|455:297,1,75,2|0,1:0|0:0,1:1:0:0:
428,191,126569,2,0,L|341:191,1,75,0|2,1:0|1:0,0:0:0:0:
262,244,127125,5,6,1:0:0:0:
247,139,127403,2,0,P|242:102|233:53,2,75,2|2|2,0:0|1:2|0:0,0:0:0:0:
154,188,128236,2,0,P|176:234|166:303,1,112.5,10|2,1:2|0:0,0:0:0:0:
153,344,128792,2,0,P|197:332|255:347,1,75,2|2,1:2|0:0,0:0:0:0:
323,372,129347,6,0,P|360:374|395:362,2,75,4|0|2,1:2|0:0|1:2,0:0:0:0:
284,274,130180,1,2,0:0:0:0:
310,172,130458,2,0,P|369:204|455:202,1,150,8|8,1:2|1:2,0:0:0:0:
479,102,131292,5,8,1:2:0:0:
467,51,131430,1,8,1:0:0:0:
420,26,131569,2,0,P|361:58|275:56,1,150,4|4,1:0|1:2,0:0:0:0:
181,18,132403,2,0,P|106:15|40:49,1,150,4|0,1:2|1:0,0:0:0:0:
30,153,133236,1,4,1:2:0:0:
126,193,133514,6,0,P|139:253|114:366,1,150,4|0,1:0|1:0,0:0:0:0:
226,371,134347,2,0,P|235:327|252:284,1,75,8|0,1:2|1:0,0:0:0:0:
350,303,134903,2,0,P|362:338|369:375,2,75,2|2|10,1:2|0:0|1:2,0:0:0:0:
315,203,135736,5,2,1:2:0:0:
276,167,135875,1,2,0:0:0:0:
223,173,136014,2,0,P|164:205|78:203,1,150,4|4,1:0|1:2,0:0:0:0:
82,309,136848,2,0,P|156:306|222:340,1,150,4|0,1:2|1:0,0:0:0:0:
324,360,137680,1,4,1:2:0:0:
420,318,137958,6,0,L|427:133,1,150,4|10,1:0|1:2,0:0:0:0:
409,147,138653,1,2,1:2:0:0:
384,137,138792,2,0,L|282:140,1,75,12|12,1:0|1:2,0:0:0:0:
284,149,139208,1,8,1:0:0:0:
261,161,139347,6,0,L|266:56,1,75,12|0,1:2|0:0,0:0:0:0:
251,63,139764,1,8,1:2:0:0:
237,40,139903,2,0,L|131:41,1,75,8|8,1:0|1:2,0:0:0:0:
69,71,140459,5,4,1:0:0:0:
69,71,140597,2,0,P|79:149|62:211,1,112.500004291535,0|0,1:0|1:0,0:0:0:0:
12,267,141292,2,0,P|50:268|98:275,2,75.000002861023,8|0|0,1:0|0:0|1:0,0:0:0:0:
50,364,142125,1,2,1:3:0:0:
152,340,142403,2,0,B|209:324|209:368|280:350,1,112.500004291535,8|0,1:2|1:0,0:0:0:0:
308,376,142959,2,0,L|472:371,1,150.000005722046,8|4,1:0|1:2,0:0:0:0:
490,271,143792,6,0,P|487:231|473:175,2,75.000002861023,4|0|0,1:0|0:0|1:0,0:0:0:0:
387,246,144625,2,0,L|386:149,2,75.000002861023,8|0|0,1:0|0:0|1:0,0:0:0:0:
285,273,145459,1,2,1:3:0:0:
285,273,145736,2,0,P|282:214|300:135,1,112.500004291535,8|0,1:2|1:0,0:0:0:0:
314,114,146292,2,0,P|228:130|154:121,1,150.000005722046,8|2,1:0|1:0,0:0:0:0:
62,105,147125,6,0,P|71:160|63:259,1,150.000005722046,4|0,1:0|1:0,0:0:0:0:
62,359,147959,2,0,P|148:343|222:352,1,150.000005722046,8|0,1:0|1:0,0:0:0:0:
248,251,148792,6,0,P|322:256|395:241,1,150.000005722046,4|0,1:0|1:0,0:0:0:0:
487,190,149625,2,0,P|477:134|486:36,1,150.000005722046,8|0,1:0|1:0,0:0:0:0:
380,28,150459,5,4,1:0:0:0:
218,161,151014,1,0,1:0:0:0:
306,218,151292,1,8,1:0:0:0:
216,273,151570,1,4,1:2:0:0:
126,219,151847,1,4,1:2:0:0:
218,161,152125,6,0,L|216:326,1,150.000005722046,8|8,1:2|1:0,0:0:0:0:
131,373,152959,2,0,P|88:330|4:287,1,150.000005722046,8|2,1:2|3:0,0:0:0:0:
23,184,153792,5,4,1:0:0:0:
23,184,153931,2,0,P|105:194|141:186,1,112.500004291535,0|0,1:0|1:0,0:0:0:0:
121,83,154625,2,0,P|72:78|24:84,2,75.000002861023,8|0|0,1:0|0:0|1:0,0:0:0:0:
208,141,155459,1,2,1:3:0:0:
299,191,155736,2,0,P|377:192|437:167,1,112.500004291535,8|0,1:2|1:0,0:0:0:0:
457,160,156292,2,0,P|440:223|432:315,1,150.000005722046,8|2,1:0|1:2,0:0:0:0:
337,353,157125,5,4,1:0:0:0:
337,353,157264,2,0,P|313:297|283:266,1,75.000002861023,0|0,1:0|1:0,0:0:0:0:
282,271,157681,1,2,1:0:0:0:
180,297,157959,2,0,P|142:300|87:287,2,75.000002861023,8|0|2,1:0|0:0|1:0,0:0:0:0:
213,197,158792,6,0,P|230:141|271:85,1,112.500004291535,4|0,1:0|1:0,0:0:0:0:
353,49,159486,1,0,1:0:0:0:
353,49,159625,2,0,L|352:186,1,112.500004291535,8|8,1:0|1:0,0:0:0:0:
372,178,160181,1,2,1:3:0:0:
396,187,160320,1,4,0:0:0:0:
418,199,160459,6,0,B|432:273|432:273|404:344,1,150.000005722046,4|2,1:0|0:0,0:0:0:0:
381,353,161153,1,2,1:3:0:0:
357,365,161292,2,0,B|307:348|307:348|235:359,1,112.500004291535,8|2,1:0|1:3,0:0:0:0:
222,351,161847,1,2,0:0:0:0:
195,354,161986,1,2,1:3:0:0:
168,356,162125,2,0,B|207:272|145:279|180:188,1,150.000005722046,8|2,1:2|0:1,0:0:0:0:
171,104,162959,2,2,P|225:123|285:123,1,112.500004291535,10|0,1:0|1:0,0:0:0:0:
330,109,163514,5,2,3:0:0:0:
345,58,163653,1,2,3:0:0:0:
298,34,163792,2,0,L|299:197,1,150.000005722046,4|2,1:0|0:0,0:0:0:0:
317,202,164486,1,2,1:3:0:0:
339,215,164625,2,0,B|395:195|395:195|461:212,1,112.500004291535,8|2,1:0|1:3,0:0:0:0:
461,229,165181,1,2,0:0:0:0:
468,254,165320,1,2,1:3:0:0:
466,280,165459,2,0,B|415:316|415:316|315:310,1,150.000005722046,8|2,1:2|0:0,0:0:0:0:
231,353,166292,5,8,1:0:0:0:
231,353,166431,2,0,P|219:297|225:228,1,112.500004291535,8|10,1:0|1:3,0:0:0:0:
241,138,167125,2,0,P|168:177|84:169,1,150.000005722046,8|0,1:2|1:0,0:0:0:0:
33,95,167959,2,0,P|61:177|49:264,1,150.000005722046,8|8,1:0|1:3,0:0:0:0:
25,339,168792,6,0,P|138:316|197:334,1,150.000005722046,4|2,1:0|0:0,0:0:0:0:
269,357,169625,2,0,P|344:360|414:336,1,150.000005722046,8|8,1:0|1:2,0:0:0:0:
469,246,170459,5,8,1:2:0:0:
425,154,170771,1,2,1:0:0:0:
320,152,171048,1,2,1:0:0:0:
307,174,171187,1,2,0:1:0:0:
293,196,171326,2,2,B|205:164|215:222|136:198,1,150.000005722046,6|0,1:0|0:0,1:1:0:0:
52,155,172159,6,0,L|57:51,1,75.000002861023,10|0,1:0|0:0,0:0:0:0:
143,23,172714,1,2,1:0:0:0:
234,75,172992,2,0,L|231:192,1,112.500004291535,6|2,1:0|1:2,0:0:0:0:
238,212,173548,1,2,1:2:0:0:
249,235,173687,1,2,1:2:0:0:
262,257,173826,2,0,P|303:262|347:258,1,75.000002861023,8|8,1:0|1:0,0:0:0:0:
418,324,174381,5,8,1:0:0:0:
401,344,174520,1,2,0:0:0:0:
384,364,174659,2,0,P|308:353|234:362,1,150.000005722046,6|10,1:0|1:0,0:0:0:0:
130,368,175492,6,0,P|133:306|128:267,1,75.000002861023,8|10,1:0|1:0,0:0:0:0:
102,249,175909,1,8,1:3:0:0:
49,254,176048,1,10,1:0:0:0:
39,149,176326,6,0,P|81:158|139:151,1,75.000002861023,8|8,1:2|0:2,0:0:0:0:
152,122,176742,1,10,1:0:0:0:
149,69,176881,1,10,1:0:0:0:
250,40,177159,6,2,P|246:104|260:174,1,112.500004291535,6|2,1:0|1:0,1:1:0:0:
296,181,177714,2,0,L|360:173,2,37.5000014305115,2|2|10,1:0|1:0|1:0,0:0:0:0:
201,307,178409,6,0,L|137:299,2,37.5000014305115,2|2|2,1:0|1:0|1:0,0:0:0:0:
243,338,178825,1,4,1:0:0:0:
243,338,178964,2,0,L|352:338,1,75.000002861023,0|2,1:0|1:0,0:0:0:0:
421,358,179520,1,2,1:0:0:0:
421,358,179659,2,0,P|421:311|426:253,1,75.000002861023,10|2,1:0|1:0,0:0:0:0:
433,178,180214,5,10,1:0:0:0:
329,194,180492,1,6,1:0:0:0:
320,300,180770,2,0,L|316:352,2,37.5000014305115,2|8|10,1:0|1:3|1:0,0:0:0:0:
219,330,181325,2,0,P|151:314|64:326,1,150.000005722046,10|8,1:0|1:2,0:0:0:0:
87,218,182159,6,2,P|127:220|173:217,1,75.000002861023,6|2,1:0|1:0,1:1:0:0:
247,158,182714,1,10,1:0:0:0:
328,92,182992,2,0,P|329:168|353:222,1,112.500004291535,10|8,1:0|1:0,0:0:0:0:
382,298,183686,5,0,1:0:0:0:
382,298,183826,2,0,P|448:291|522:307,2,112.500004291535,4|0|8,1:0|1:0|1:0,0:0:0:0:
290,349,184937,1,0,0:0:0:0:
254,250,185214,1,0,1:0:0:0:
149,237,185492,2,0,P|149:305|91:372,1,150.000005722046,4|0,1:2|0:0,0:0:0:0:
23,294,186326,2,0,L|27:141,1,150.000005722046,8|0,1:0|1:0,0:0:0:0:
58,43,187159,6,0,P|100:76|188:81,2,112.500004291535,4|0|8,1:0|1:0|1:0,0:0:0:0:
28,143,188270,1,0,1:0:0:0:
106,212,188548,1,0,0:0:0:0:
204,176,188826,2,0,P|210:97|237:23,1,150.000005722046,4|0,1:2|0:0,0:0:0:0:
315,95,189659,2,0,B|395:65|391:141|485:100,1,150.000005722046,8|2,1:0|1:3,0:0:0:0:
463,214,190492,6,0,P|403:210|336:218,1,112.500004291535,4|0,1:0|1:0,0:0:0:0:
268,280,191187,1,0,1:0:0:0:
268,280,191326,2,0,P|191:289|100:276,1,150.000005722046,8|0,1:0|1:0,0:0:0:0:
24,235,192159,2,0,P|25:326|16:365,2,112.500004291535,4|0|8,1:2|1:0|1:0,0:0:0:0:
43,131,193270,1,0,0:0:0:0:
145,106,193548,1,0,1:0:0:0:
135,210,193826,1,4,1:2:0:0:
256,192,193964,12,4,196326,1:0:0:0:
46,47,197159,6,0,P|83:112|89:193,1,150,4|2,1:0|0:3,0:0:0:0:
205,264,198548,1,0,0:0:0:0:
205,264,198826,2,0,L|207:150,2,100,2|2|0,0:0|0:0|0:0,0:0:0:0:
317,347,200492,6,0,P|381:310|455:303,1,150,2|2,0:0|0:3,0:0:0:0:
435,164,201881,1,2,0:0:0:0:
435,164,202159,2,0,P|386:168|334:163,1,100,2|0,0:0|0:0,0:0:0:0:
264,144,202992,1,2,0:3:0:0:
105,287,203826,6,2,P|177:269|252:280,1,150,2|4,0:0|0:0,0:0:0:0:
457,318,205492,2,2,P|382:318|313:348,1,150,2|4,0:0|0:0,0:0:0:0:
198,172,207159,5,4,1:2:0:0:
27,49,207714,1,2,0:0:0:0:
12,153,207992,2,0,L|19:239,2,75.000002861023,0|2|2,1:0|0:0|0:0,0:0:0:0:
100,95,208826,2,0,P|133:101|254:92,1,150.000005722046,0|2,1:0|0:0,0:0:0:0:
336,151,209659,2,0,L|321:326,1,150.000005722046,4|0,0:0|0:0,0:0:0:0:
232,353,210492,5,4,1:0:0:0:
132,318,210770,2,0,L|132:254,2,37.5000014305115,8|10|10,1:0|1:3|1:3,0:0:0:0:
35,361,211326,2,0,L|37:262,1,75.000002861023,4|8,1:2|1:0,0:0:0:0:
60,183,211881,1,8,1:2:0:0:
165,180,212159,6,0,L|232:182,2,37.5000014305115,12|2|8,1:0|0:0|1:0,0:0:0:0:
60,183,212714,1,8,1:0:0:0:
101,86,212992,2,0,L|118:39,2,37.5000014305115,8|8|8,1:0|0:2|1:0,0:0:0:0:
60,183,213547,1,8,1:0:0:0:
60,183,219650,6,0,L|2:184,2,37.5000014305115,12|8|10,1:0|1:2|1:3,0:0:0:0:
148,239,220205,1,8,1:0:0:0:
167,256,220344,1,8,1:0:0:0:
186,273,220483,2,0,L|313:266,1,112.500004291535,12|0,1:0|1:0,0:0:0:0:
318,283,221038,1,8,1:0:0:0:
338,299,221177,1,8,1:0:0:0:
358,315,221316,2,0,L|364:210,2,75.000002861023,4|2|8,1:0|0:0|1:0,0:0:0:0:
455,354,222150,6,0,P|455:299|468:224,1,112.500004291535,12|8,1:0|1:0,0:0:0:0:
468,216,222705,1,8,1:0:0:0:
477,191,222844,1,8,1:0:0:0:
486,166,222983,2,0,P|443:164|396:160,2,75.000002861023,4|2|8,1:0|0:0|1:0,0:0:0:0:
491,61,223816,6,0,P|420:77|361:29,1,150.000005722046,4|2,1:0|0:3,0:0:0:0:
257,25,224650,1,4,1:0:0:0:
308,116,224927,1,0,1:0:0:0:
241,197,225205,1,0,1:0:0:0:
138,175,225483,6,0,P|136:134|142:92,1,75.000002861023,8|8,1:2|1:0,0:0:0:0:
91,78,225900,1,8,1:0:0:0:
43,100,226038,1,8,1:2:0:0:
44,205,226316,6,0,P|46:246|40:288,1,75.000002861023,8|8,1:2|1:0,0:0:0:0:
91,302,226733,1,8,1:0:0:0:
139,280,226871,1,8,1:0:0:0:
233,327,227150,5,12,1:0:0:0:
233,327,227288,2,0,P|301:315|373:329,1,112.500004291535,0|0,1:0|1:3,0:0:0:0:
443,353,227983,1,8,1:0:0:0:
443,353,228122,2,0,L|454:222,1,112.500004291535,0|0,1:0|1:0,0:0:0:0:
405,147,228816,2,0,P|367:163|270:171,1,112.500004291535,4|0,1:2|1:0,0:0:0:0:
201,127,229511,1,0,1:0:0:0:
201,127,229650,2,0,P|212:206|200:284,1,150.000005722046,8|0,1:0|1:0,0:0:0:0:
98,288,230483,6,0,P|89:245|87:184,2,75.000002861023,4|0|0,1:2|1:0|1:0,0:0:0:0:
175,359,231316,1,8,1:0:0:0:
175,359,231455,2,0,P|240:349|277:353,1,75.000002861023,0|0,1:0|1:0,0:0:0:0:
300,360,231872,1,0,1:0:0:0:
405,364,232150,2,0,P|396:306|405:242,1,112.500004291535,4|0,1:2|1:0,0:0:0:0:
483,186,232844,1,0,1:0:0:0:
483,186,232983,2,0,P|492:128|483:64,1,112.500004291535,8|10,1:0|1:3,0:0:0:0:
464,59,233538,1,8,1:3:0:0:
437,61,233677,1,8,1:0:0:0:
416,77,233816,6,0,B|347:99|347:99|248:72,1,150.000005722046,4|2,1:0|1:2,0:0:0:0:
250,63,234511,1,2,1:3:0:0:
226,51,234650,2,0,B|238:109|238:109|224:168,1,112.500004291535,8|2,1:0|1:3,0:0:0:0:
212,183,235205,1,2,0:0:0:0:
192,201,235344,1,2,1:3:0:0:
172,218,235483,2,0,B|89:195|106:256|13:233,1,150.000005722046,8|2,1:2|1:0,0:0:0:0:
49,331,236316,2,0,P|128:314|174:325,1,112.500004291535,10|2,1:0|0:0,0:0:0:0:
208,335,236872,5,0,1:0:0:0:
254,359,237011,1,0,1:0:0:0:
303,341,237150,2,0,P|310:279|303:187,1,150.000005722046,4|2,1:0|0:0,0:0:0:0:
291,168,237844,1,2,1:3:0:0:
279,144,237983,2,0,P|352:155|415:138,1,112.500004291535,8|2,1:0|1:3,0:0:0:0:
414,141,238538,1,2,0:0:0:0:
437,129,238677,1,2,1:3:0:0:
460,116,238816,6,0,P|441:229|487:344,1,225.000008583069,8|8,1:2|1:0,0:0:0:0:
269,362,240205,5,10,1:3:0:0:
230,326,240344,1,14,1:2:0:0:
235,273,240483,2,0,P|200:320|102:341,1,150.000005722046,4|0,1:0|0:0,0:0:0:0:
23,292,241316,2,0,P|25:199|44:131,1,150.000005722046,8|8,1:0|1:2,0:0:0:0:
104,61,242150,6,0,B|201:70|201:70|225:53|225:53|336:62,2,225.000008583069,4|2|2,1:0|0:0|0:0,0:0:0:0:
