osu file format v14

[General]
AudioFilename: audio.mp3
AudioLeadIn: 0
PreviewTime: 140319
Countdown: 0
SampleSet: Soft
StackLeniency: 0.7
Mode: 0
LetterboxInBreaks: 0
WidescreenStoryboard: 0

[Editor]
DistanceSpacing: 1
BeatDivisor: 6
GridSize: 4
TimelineZoom: 0.9

[Metadata]
Title:Here
TitleUnicode:Here
Artist:JUNNA
ArtistUnicode:JUNNA
Creator:Mirash
Version:Normal
Source:魔法使いの嫁
Tags:PandaHero Testo the ancient magus' bride mahoutsukai no yome opening op
BeatmapID:1572026
BeatmapSetID:737103

[Difficulty]
HPDrainRate:4
CircleSize:4
OverallDifficulty:4
ApproachRate:5
SliderMultiplier:1.4
SliderTickRate:1

[Events]
//Background and Video events
0,0,"sinii.jpg",0,0
//Break Periods
2,8833,11759
2,100458,103703
2,197359,202626
2,213826,218450
//Storyboard Layer 0 (Background)
//Storyboard Layer 1 (Fail)
//Storyboard Layer 2 (Pass)
//Storyboard Layer 3 (Foreground)
//Storyboard Sound Samples

[TimingPoints]
1323,555.555555555556,3,2,1,50,1,0
1582,555.555555555556,3,2,1,50,1,0
2156,555.555555555556,3,2,1,50,1,0
2415,555.555555555556,3,2,1,50,1,0
2989,576.923076923077,3,2,1,50,1,0
2989,-100,3,2,1,50,0,0
4625,555.555555555556,3,2,1,50,1,0
6291,-100,3,2,1,50,0,0
7958,875.912408759124,3,2,1,10,1,0
8833,833.333333333333,3,2,1,40,1,0
8833,-100,3,2,1,40,0,0
12959,555.555555555556,3,2,1,40,1,0
12959,-100,3,2,1,40,0,0
13516,555.555555555556,4,2,1,60,1,0
19256,-100,4,2,1,60,0,0
19627,-100,4,2,1,60,0,0
19997,-100,4,2,1,60,0,0
22404,-100,4,2,1,50,0,0
30460,-100,4,2,1,50,0,0
31293,-100,4,2,1,50,0,0
37404,-100,4,2,1,40,0,0
37543,-100,4,2,1,30,0,0
37682,-100,4,2,1,20,0,0
37821,-100,4,2,1,10,0,0
37960,-100,4,2,1,15,0,0
39071,-100,4,2,1,40,0,0
39210,-100,4,2,1,70,0,0
40113,-100,4,2,1,20,0,0
40182,-100,4,2,1,60,0,0
53377,-100,4,2,1,50,0,0
53516,-100,4,2,1,60,0,0
57682,-100,4,2,1,50,0,0
57891,-100,4,2,1,20,0,0
57960,833.333333333333,2,2,1,70,1,0
58098,-66.6666666666667,4,2,1,70,0,0
61015,-66.6666666666667,4,2,2,70,0,0
61293,-66.6666666666667,4,2,1,70,0,0
67682,-66.6666666666667,4,2,2,70,0,0
67960,-66.6666666666667,4,2,1,70,0,0
71015,-66.6666666666667,4,2,2,70,0,0
71293,-66.6666666666667,4,2,1,70,0,0
77960,-66.6666666666667,4,2,1,60,0,0
81015,-66.6666666666667,4,2,2,60,0,0
81293,-66.6666666666667,4,2,1,60,0,0
86293,-66.6666666666667,4,2,1,40,0,0
87960,555.555555555556,4,2,1,50,1,0
88098,-100,4,2,1,40,0,0
89904,555.555555555556,4,2,1,50,1,0
90042,-100,4,2,1,40,0,0
91848,555.555555555556,4,2,1,50,1,0
91986,-100,4,2,1,40,0,0
93792,555.555555555556,4,2,1,50,1,0
96014,-100,4,2,1,50,0,0
105736,-100,4,2,1,40,0,0
113236,-100,4,2,1,10,0,0
113375,-100,4,2,1,40,0,0
113792,-100,4,2,1,50,0,0
120458,-100,4,2,1,50,0,0
121708,-100,4,2,1,70,0,0
122611,-100,4,2,1,20,0,0
122680,-100,4,2,1,60,0,0
140180,-100,4,2,1,50,0,0
140389,-100,4,2,1,20,0,0
140459,833.333333333333,2,2,1,70,1,0
140597,-66.6666666666667,4,2,1,70,0,0
150320,-66.6666666666667,4,2,2,70,0,0
150459,-66.6666666666667,4,2,1,70,0,0
153514,-66.6666666666667,4,2,2,70,0,0
153792,-66.6666666666667,4,2,1,70,0,0
156986,-66.6666666666667,4,2,2,70,0,0
157125,-66.6666666666667,4,2,1,70,0,0
160459,-66.6666666666667,4,2,1,60,0,0
163514,-66.6666666666667,4,2,2,60,0,0
163792,-66.6666666666667,4,2,1,60,0,0
168792,-66.6666666666667,4,2,1,50,0,0
169347,-66.6666666666667,4,2,1,30,0,0
169625,-66.6666666666667,4,2,1,70,0,0
170771,833.333333333333,2,2,1,80,1,0
171326,833.333333333333,2,2,1,80,1,0
171326,-66.6666666666667,2,2,1,80,0,0
177159,833.333333333333,2,2,1,80,1,0
177159,-66.6666666666667,2,2,1,80,0,0
183826,833.333333333333,2,2,1,70,1,0
183826,-66.6666666666667,4,2,1,70,0,0
190353,-66.6666666666667,4,2,2,70,0,0
190492,-66.6666666666667,4,2,1,70,0,0
197159,-100,4,2,1,40,0,0
204659,-100,4,2,1,30,0,0
205492,-100,4,2,1,40,0,0
206326,-100,4,2,1,30,0,0
207159,-100,4,2,1,50,0,0
209659,-66.6666666666667,4,2,1,50,0,0
210770,-66.6666666666667,4,2,1,60,0,0
211326,-66.6666666666667,4,2,1,60,0,0
213826,1153.84615384615,4,2,1,35,1,0
214018,1071.42857142857,4,2,1,35,1,0
214419,1132.07547169811,4,2,1,35,1,0
214702,1153.84615384615,4,2,1,35,1,0
214894,1016.94915254237,4,2,1,35,1,0
215402,895.522388059701,4,2,1,35,1,0
216409,1481.48148148148,4,2,1,35,1,0
217149,1071.42857142857,4,2,1,35,1,0
217327,1052.63157894737,4,2,1,35,1,0
217984,1153.84615384615,4,2,1,35,1,0
218176,895.522388059701,4,2,1,35,1,0
218399,1052.63157894737,4,2,1,35,1,0
218662,923.076923076923,4,2,1,35,1,0
219123,895.522388059701,4,2,1,35,1,0
219650,833.333333333333,2,2,1,70,1,0
219650,-66.6666666666667,2,2,1,70,0,0
220483,833.333333333333,2,2,1,70,1,0
220483,-66.6666666666667,2,2,1,70,0,0
227150,833.333333333333,2,2,1,70,1,0
227150,-66.6666666666667,2,2,1,70,0,0
227288,-66.6666666666667,4,2,1,70,0,0
230344,-66.6666666666667,4,2,2,70,0,0
230483,-66.6666666666667,4,2,1,70,0,0
233816,-66.6666666666667,4,2,1,60,0,0
242150,-66.6666666666667,4,2,1,50,0,0
243816,1111.11111111111,4,2,3,30,1,0
243816,-50,4,2,3,30,0,0
248260,-50,4,2,3,30,0,0
248677,-50,4,2,3,40,0,0
249371,-50,4,2,3,30,0,0
250482,-50,4,2,3,20,0,0

[Colours]
Combo1 : 61,91,182
Combo2 : 43,202,194
Combo3 : 35,126,237
Combo4 : 94,149,172

[HitObjects]
4,192,1323,5,2,0:0:0:0:
212,165,2156,1,2,0:0:0:0:
255,363,2989,1,2,0:0:0:0:
508,192,4625,6,0,P|432:148|268:304,1,350,2|0,0:0|0:0,0:0:0:0:
256,192,6291,12,0,7958,0:0:0:0:
501,205,12959,6,0,L|493:123,1,69.9999999999999,2|2,0:0|0:0,0:0:0:0:
441,88,13516,6,0,P|386:84|308:142,1,140,4|2,1:0|1:3,0:0:0:0:
289,193,14349,1,2,0:0:0:0:
221,209,14627,2,0,P|158:202|126:186,2,69.9999999999999,2|0|2,1:2|0:0|1:3,0:0:0:0:
265,263,15460,1,2,0:0:0:0:
257,332,15738,2,0,P|320:355|404:329,1,140,4|2,1:0|1:3,0:0:0:0:
461,218,16849,2,0,P|444:154|438:64,1,140,2|2,1:2|1:3,0:0:0:0:
305,33,17960,6,0,P|222:42|145:82,1,140,4|2,1:0|1:3,0:0:0:0:
132,122,18793,1,0,0:0:0:0:
61,119,19071,2,0,P|24:153|22:252,1,140,0|2,1:0|1:3,0:0:0:0:
113,339,20182,1,4,1:2:0:0:
113,339,20460,2,0,L|202:347,1,69.9999999999999,0|2,1:0|1:3,0:0:0:0:
246,374,21016,2,0,L|327:364,2,69.9999999999999,0|0|0,0:0|1:0|0:0,0:0:0:0:
239,304,21849,2,0,L|230:223,1,69.9999999999999,2|2,1:3|0:0,0:0:0:0:
270,176,22404,5,4,1:0:0:0:
119,29,23238,1,0,0:0:0:0:
119,29,23516,2,0,P|117:81|172:166,1,140,0|2,1:0|1:3,0:0:0:0:
223,129,24349,1,0,0:0:0:0:
291,112,24627,2,0,P|365:112|396:190,1,140,4|2,1:2|1:3,0:0:0:0:
466,284,25738,2,0,P|430:334|414:347,1,69.9999999999999,0|2,1:0|0:0,0:0:0:0:
357,316,26293,1,2,1:3:0:0:
357,316,26571,1,2,0:0:0:0:
297,352,26849,6,0,P|242:356|178:304,1,140,6|0,1:0|1:0,0:0:0:0:
71,214,27960,2,0,L|82:63,1,140,2|0,1:0|1:0,0:0:0:0:
140,37,28793,1,0,1:0:0:0:
140,37,29071,2,0,L|228:45,2,69.9999999999999,6|2|0,1:0|1:0|1:0,0:0:0:0:
238,136,30182,2,0,P|242:188|241:225,1,69.9999999999999,2|2,1:0|1:0,0:0:0:0:
294,252,30738,2,0,P|290:304|291:341,1,69.9999999999999,0|2,1:0|1:0,0:0:0:0:
344,365,31293,5,6,1:0:0:0:
490,214,32127,1,0,0:0:0:0:
490,214,32404,2,0,P|477:138|475:112,2,69.9999999999999,0|0|2,1:0|0:0|1:3,0:0:0:0:
431,253,33238,1,0,0:0:0:0:
361,258,33516,2,0,P|310:236|285:136,1,140,4|2,1:2|1:3,0:0:0:0:
265,30,34627,2,0,P|226:36|192:46,1,69.9999999999999,0|2,1:0|0:0,0:0:0:0:
157,102,35182,2,0,P|118:96|84:86,1,69.9999999999999,2|0,1:3|0:0,0:0:0:0:
18,85,35738,6,0,B|4:200|75:168|54:317,1,210,6|2,1:0|1:1,0:0:0:0:
106,337,36849,2,0,P|143:333|181:334,1,69.9999999999999,2|2,1:0|1:0,0:0:0:0:
236,368,37404,1,6,1:2:0:0:
251,228,37960,1,2,0:0:0:0:
251,228,39071,2,0,L|261:78,2,140,4|8|4,3:3|1:0|1:0,0:0:0:0:
315,270,40460,5,2,0:0:0:0:
315,270,40738,2,0,P|364:264|384:256,1,69.9999999999999,2|2,1:2|0:0,0:0:0:0:
452,259,41293,2,0,P|451:198|418:115,1,140,10|2,1:2|1:2,0:0:0:0:
361,92,42127,1,2,0:0:0:0:
299,124,42404,1,4,1:2:0:0:
186,41,42960,2,0,P|136:46|96:54,1,69.9999999999999,2|2,1:2|0:0,0:0:0:0:
89,114,43516,2,0,L|99:200,1,69.9999999999999,10|2,1:2|0:0,0:0:0:0:
77,250,44071,2,0,P|23:265|1:268,1,69.9999999999999,2|2,1:0|0:0,0:0:0:0:
14,337,44627,6,0,P|72:349|164:329,1,140,4|2,1:0|1:2,0:0:0:0:
270,262,45738,2,0,P|316:259|389:269,2,105,10|2|2,1:2|0:0|0:0,0:0:0:0:
207,229,46849,2,0,P|211:168|209:130,1,69.9999999999999,4|2,1:2|0:0,0:0:0:0:
251,102,47404,1,2,1:2:0:0:
251,102,47682,2,0,P|307:107|335:103,2,69.9999999999999,0|10|0,0:0|1:2|1:0,0:0:0:0:
183,81,48516,1,10,1:2:0:0:
77,172,49071,5,4,1:0:0:0:
124,310,49627,1,4,1:2:0:0:
124,310,49904,2,0,P|182:302|266:293,1,140,4|0,1:2|1:0,0:0:0:0:
334,322,50738,1,4,1:2:0:0:
334,322,51016,2,0,P|375:318|388:225,1,140,4|0,1:0|1:0,0:0:0:0:
340,191,51849,2,0,L|346:111,2,69.9999999999999,2|2|10,1:2|1:2|1:2,0:0:0:0:
290,240,52682,1,2,0:0:0:0:
232,199,52960,2,0,L|143:200,1,69.9999999999999,10|10,1:2|1:2,0:0:0:0:
96,226,53516,5,4,1:0:0:0:
65,89,54071,1,4,1:2:0:0:
65,89,54349,2,0,P|109:85|159:4,1,140,4|4,1:2|1:2,0:0:0:0:
234,15,55182,1,4,1:2:0:0:
234,15,55460,1,6,1:0:0:0:
287,60,55738,2,0,L|367:53,1,69.9999999999999,12|8,0:0|1:3,0:0:0:0:
426,62,56293,2,0,P|420:140|423:209,1,140,12|8,1:0|1:0,0:0:0:0:
378,257,57127,2,0,P|337:260|287:349,1,140,8|8,1:0|1:2,0:0:0:0:
218,355,57960,5,4,1:0:0:0:
218,355,58098,2,0,P|166:353|139:308,1,105.000004005432,0|0,1:0|1:0,0:0:0:0:
80,251,58793,2,0,P|24:277|-1:296,2,70.0000026702882,8|0|0,1:1|0:0|1:0,0:0:0:0:
161,232,59626,2,0,P|178:170|81:59,1,210.000008010865,2|8,1:3|1:0,0:0:0:0:
344,20,61293,5,4,1:0:0:0:
344,20,61432,2,0,L|341:143,1,105.000004005432,0|0,1:0|1:0,0:0:0:0:
382,198,62126,2,0,L|481:213,2,70.0000026702882,8|0|0,1:0|0:0|1:0,0:0:0:0:
300,220,62960,2,0,P|268:278|258:310,2,70.0000026702882,2|8|0,1:3|1:2|0:0,0:0:0:0:
257,147,63793,1,8,1:0:0:0:
8,189,64626,6,0,P|21:289|18:351,1,140.000005340576,4|0,1:0|1:0,0:0:0:0:
94,367,65460,2,0,P|138:355|178:349,1,70.0000026702882,8|2,1:0|0:0,0:0:0:0:
203,356,66015,1,0,1:0:0:0:
285,373,66293,2,0,P|322:335|303:239,1,140.000005340576,4|0,1:0|1:0,0:0:0:0:
231,262,67126,2,0,P|200:258|151:264,1,70.0000026702882,8|2,1:0|0:0,0:0:0:0:
305,173,67960,6,0,P|314:118|400:82,1,140.000005340576,4|0,1:0|1:0,0:0:0:0:
447,133,68793,2,0,P|441:188|441:221,1,70.0000026702882,8|4,1:0|1:2,0:0:0:0:
401,276,69348,1,4,1:2:0:0:
329,319,69626,2,0,B|197:294|250:388|102:365,1,210.000008010865,8|8,1:2|1:2,0:0:0:0:
60,326,70737,2,0,B|71:293|71:293|61:247,1,70.0000026702882,8|2,1:0|3:0,0:0:0:0:
4,198,71293,5,4,1:0:0:0:
4,198,71432,2,0,P|22:160|18:96,1,105.000004005432,0|0,1:0|1:0,0:0:0:0:
101,81,72126,2,0,P|101:45|104:10,2,70.0000026702882,8|0|0,1:0|0:0|1:0,0:0:0:0:
167,133,72960,2,0,P|229:117|263:115,1,70.0000026702882,2|8,1:3|1:2,0:0:0:0:
396,161,73793,2,0,P|384:218|378:303,1,140.000005340576,8|0,1:0|3:0,0:0:0:0:
313,352,74626,5,4,1:0:0:0:
313,352,74765,2,0,P|253:347|180:358,1,105.000004005432,0|0,1:0|1:0,0:0:0:0:
124,361,75460,2,0,P|94:303|91:278,2,70.0000026702882,8|0|0,1:0|0:0|1:0,0:0:0:0:
169,290,76293,2,0,B|147:180|212:200|189:81,1,210.000008010865,4|8,1:0|1:0,0:0:0:0:
299,22,77543,2,0,L|386:40,1,70.0000026702882,8|4,1:0|0:0,0:0:0:0:
409,30,77960,6,0,P|404:85|418:181,1,140.000005340576,4|2,1:0|0:0,0:0:0:0:
461,238,78793,2,0,P|447:287|343:319,1,140.000005340576,8|2,1:0|0:0,0:0:0:0:
297,286,79626,1,8,1:2:0:0:
53,349,80459,2,0,P|39:285|35:203,1,140.000005340576,10|2,1:0|3:0,0:0:0:0:
2,132,81293,6,0,P|50:113|146:132,1,140.000005340576,4|2,1:0|0:0,0:0:0:0:
193,186,82126,2,0,L|353:173,1,140.000005340576,8|2,1:0|0:0,0:0:0:0:
400,125,82959,1,8,1:2:0:0:
442,243,83376,2,0,P|437:276|433:330,1,70.0000026702882,0|0,1:0|1:0,0:0:0:0:
404,343,83793,2,0,P|369:339|326:336,1,70.0000026702882,8|2,1:0|1:3,0:0:0:0:
297,316,84209,1,8,1:2:0:0:
180,363,84626,6,0,P|121:350|87:257,1,140.000005340576,8|0,1:2|1:0,0:0:0:0:
151,234,85459,1,8,1:0:0:0:
77,82,86015,1,8,1:3:0:0:
148,38,86293,2,0,L|281:56,1,105.000004005432,4|0,1:0|0:0,0:0:0:0:
351,129,87126,2,0,L|440:118,2,70.0000026702882,2|0|2,0:0|0:0|0:0,0:0:0:0:
288,185,87960,5,2,3:0:0:0:
253,245,88237,2,0,P|253:298|261:325,2,70,0|8|0,3:0|3:0|3:0,0:0:0:0:
203,194,89071,2,0,P|150:192|97:266,1,140,8|8,3:0|3:0,0:0:0:0:
53,308,89904,5,2,3:0:0:0:
179,368,90459,2,0,L|256:356,1,70,8|0,3:0|3:0,0:0:0:0:
317,344,91015,2,0,P|363:353|392:362,2,70,8|0|8,3:0|3:0|3:0,0:0:0:0:
271,290,91848,5,2,3:0:0:0:
191,175,92403,2,0,P|186:134|177:95,1,70,8|0,3:0|3:0,0:0:0:0:
211,43,92959,2,0,P|265:37|344:84,1,140,8|8,3:0|3:0,0:0:0:0:
360,142,93792,6,0,L|347:212,2,70,2|0|0,0:0|0:0|0:0,0:0:0:0:
406,89,94625,2,0,P|456:93|474:232,1,210,2|2,0:0|0:0,0:0:0:0:
420,258,95736,1,2,0:0:0:0:
432,326,96014,5,4,0:0:0:0:
297,365,96569,2,0,L|216:369,1,70,2|2,0:1|0:1,0:0:0:0:
164,336,97125,2,0,L|83:332,2,70,2|2|2,0:1|0:1|0:1,0:0:0:0:
220,294,97958,1,2,0:1:0:0:
224,224,98236,1,2,0:3:0:0:
6,191,104903,5,2,3:3:0:0:
128,361,105736,2,0,L|220:357,1,70,2|8,0:0|0:3,0:0:0:0:
246,307,106292,1,2,0:0:0:0:
246,307,106569,2,0,P|246:249|246:210,1,70,0|0,0:0|0:0,0:0:0:0:
276,173,107125,2,0,P|335:174|378:254,1,140,2|0,0:3|0:0,0:0:0:0:
503,173,108236,2,0,P|492:126|492:76,1,70,8|2,0:3|0:0,0:0:0:0:
434,62,108792,2,0,P|382:62|345:55,1,70,0|0,0:0|0:0,0:0:0:0:
302,26,109347,6,0,P|241:38|197:107,1,140,2|0,0:3|0:0,0:0:0:0:
160,157,110180,2,0,P|110:158|89:150,1,70,2|8,0:0|0:3,0:0:0:0:
10,265,111014,2,0,P|18:316|24:355,1,70,2|8,0:0|0:3,0:0:0:0:
83,366,111569,2,0,B|208:383|148:288|294:297,1,210,2|2,0:3|0:0,0:0:0:0:
331,331,112680,1,8,0:3:0:0:
400,324,112958,2,0,L|394:235,1,70,8|4,3:0|3:0,0:0:0:0:
400,113,113792,6,0,P|353:88|250:127,1,140,4|2,1:0|1:3,0:0:0:0:
227,160,114625,1,0,0:0:0:0:
227,160,114903,2,0,P|176:163|141:157,1,70,0|0,1:0|0:0,0:0:0:0:
96,125,115458,2,0,P|61:122|26:125,1,70,2|0,1:3|0:0,0:0:0:0:
4,192,116014,2,0,P|10:247|12:347,1,140,4|2,1:2|1:3,0:0:0:0:
151,350,117125,2,0,P|190:330|231:323,1,70,0|0,1:0|0:0,0:0:0:0:
275,359,117680,2,0,P|316:368|347:368,1,70,2|0,1:3|0:0,0:0:0:0:
397,322,118236,6,0,B|385:200|457:248|443:107,1,210,2|2,1:0|0:1,0:0:0:0:
406,64,119347,2,0,P|366:66|323:75,1,70,2|2,1:0|0:1,0:0:0:0:
282,116,119903,2,0,P|242:114|199:105,1,70,2|2,1:3|0:0,0:0:0:0:
145,129,120458,1,2,0:0:0:0:
145,129,121569,2,0,L|151:282,2,140,4|8|4,3:0|1:0|1:0,0:0:0:0:
195,80,122958,5,2,0:0:0:0:
249,124,123236,2,0,P|297:117|322:110,1,70,2|2,1:2|0:0,0:0:0:0:
366,60,123792,2,0,P|423:64|453:159,1,140,10|2,1:2|1:2,0:0:0:0:
431,194,124625,1,2,0:0:0:0:
441,263,124903,1,4,1:2:0:0:
335,354,125458,2,0,L|246:353,1,70,2|2,1:2|1:0,0:0:0:0:
204,317,126014,2,0,B|82:315|150:227|1:231,1,210,2|2,1:0|1:0,1:1:0:0:
9,162,127125,5,6,1:0:0:0:
9,162,127403,2,0,P|19:103|92:68,1,140,2|2,0:0|0:0,0:0:0:0:
145,103,128236,2,0,P|196:107|256:97,2,105,10|2|2,1:2|0:0|0:0,0:0:0:0:
125,170,129347,1,4,1:2:0:0:
225,268,129903,2,0,P|262:266|307:258,1,70,2|2,1:2|0:0,0:0:0:0:
343,210,130458,2,0,P|383:209|423:214,2,70,8|0|8,1:2|1:0|1:2,0:0:0:0:
278,182,131292,1,8,1:2:0:0:
265,113,131569,5,4,1:0:0:0:
399,72,132125,1,4,1:2:0:0:
399,72,132403,2,0,P|401:129|416:228,1,140,4|0,1:2|1:0,0:0:0:0:
366,264,133236,1,4,1:2:0:0:
366,264,133514,2,0,P|309:275|287:354,1,140,4|0,1:0|1:0,0:0:0:0:
220,375,134347,1,8,1:2:0:0:
86,333,134903,2,0,P|80:274|49:180,1,140,2|10,1:2|1:2,0:0:0:0:
14,141,135736,1,2,1:2:0:0:
47,79,136014,5,4,1:0:0:0:
182,112,136569,1,4,1:2:0:0:
182,112,136847,2,0,P|239:112|274:27,1,140,4|0,1:2|1:0,0:0:0:0:
348,26,137680,1,4,1:2:0:0:
348,26,137958,2,0,P|392:32|463:118,1,140,4|10,1:0|1:2,0:0:0:0:
415,155,138792,2,0,P|407:226|410:256,1,70,12|12,1:0|1:2,0:0:0:0:
409,294,139347,2,0,P|464:302|506:324,2,105,12|8|8,1:2|1:2|1:2,0:0:0:0:
334,332,140458,5,4,1:0:0:0:
334,332,140597,2,0,P|283:338|241:297,1,105.000004005432,0|0,1:0|1:0,0:0:0:0:
177,253,141292,2,0,P|129:268|100:283,2,70.0000026702882,8|0|0,1:0|0:0|1:0,0:0:0:0:
257,229,142125,2,0,P|260:185|116:111,1,210.000008010865,2|8,1:3|1:0,0:0:0:0:
64,344,143792,5,4,1:0:0:0:
64,344,143931,2,0,P|116:336|184:345,1,105.000004005432,0|0,1:0|1:0,0:0:0:0:
246,370,144625,2,0,P|291:368|335:362,2,70.0000026702882,8|0|0,1:0|0:0|1:0,0:0:0:0:
230,287,145459,2,0,P|209:247|192:205,2,70.0000026702882,2|8|4,1:3|1:2|1:2,0:0:0:0:
314,285,146292,1,8,1:0:0:0:
257,39,147125,6,0,L|279:191,1,140.000005340576,4|0,1:0|1:0,0:0:0:0:
326,245,147959,2,0,P|384:235|425:228,2,70.0000026702882,8|2|0,1:0|0:0|1:0,0:0:0:0:
242,256,148792,2,0,P|167:246|124:184,1,140.000005340576,4|0,1:0|1:0,0:0:0:0:
58,152,149625,2,0,P|36:192|30:222,1,70.0000026702882,8|2,1:0|0:0,0:0:0:0:
134,348,150459,6,0,P|208:343|303:350,1,140.000005340576,4|0,1:0|1:0,0:0:0:0:
356,331,151292,2,0,P|399:344|426:356,2,70.0000026702882,8|4|4,1:0|1:2|1:2,0:0:0:0:
294,273,152125,2,0,B|271:143|357:208|335:50,1,210.000008010865,8|8,1:2|1:2,0:0:0:0:
274,20,153236,2,0,P|233:29|199:32,1,70.0000026702882,8|2,1:0|3:0,0:0:0:0:
120,30,153792,5,4,1:0:0:0:
120,30,153931,2,0,P|118:76|92:137,1,105.000004005432,0|0,1:0|1:0,0:0:0:0:
38,191,154625,2,0,P|27:245|25:272,2,70.0000026702882,8|0|0,1:0|0:0|1:0,0:0:0:0:
119,214,155459,2,0,P|168:251|185:273,1,70.0000026702882,2|8,1:3|1:2,0:0:0:0:
308,356,156292,2,0,P|377:342|405:304,1,105.000004005432,8|2,1:0|1:2,0:0:0:0:
469,213,157125,5,4,1:0:0:0:
469,213,157264,2,0,P|436:189|439:112,1,105.000004005432,0|2,1:0|1:0,0:0:0:0:
386,56,157959,2,0,P|360:21|335:-17,2,70.0000026702882,8|0|2,1:0|0:0|1:0,0:0:0:0:
346,130,158792,2,0,P|274:143|225:270,1,210.000008010865,4|8,1:0|1:0,0:0:0:0:
145,358,160042,2,0,B|111:350|111:350|77:360,1,70.0000026702882,8|4,1:0|0:0,0:0:0:0:
35,358,160459,6,0,P|43:299|9:205,1,140.000005340576,4|2,1:0|0:0,0:0:0:0:
35,140,161292,2,0,B|122:140|82:194|184:189,1,140.000005340576,8|2,1:0|0:0,0:0:0:0:
224,244,162125,1,8,1:2:0:0:
475,223,162959,2,0,P|436:207|420:110,1,140.000005340576,10|2,1:0|3:0,0:0:0:0:
416,34,163792,6,0,P|351:31|270:43,1,140.000005340576,4|2,1:0|0:0,0:0:0:0:
194,26,164625,2,0,P|197:96|246:170,1,140.000005340576,8|2,1:0|0:0,0:0:0:0:
313,170,165459,1,8,1:2:0:0:
381,275,165875,2,0,P|377:313|378:357,1,70.0000026702882,2|2,1:3|1:3,0:0:0:0:
341,368,166292,2,0,P|294:357|253:354,1,70.0000026702882,8|2,1:0|1:3,0:0:0:0:
230,359,166709,1,8,1:2:0:0:
104,367,167125,6,0,P|72:316|76:225,1,140.000005340576,8|0,1:2|1:0,0:0:0:0:
148,205,167959,1,8,1:0:0:0:
114,40,168514,1,8,1:3:0:0:
193,12,168792,2,0,L|339:35,1,140.000005340576,4|2,1:0|0:0,0:0:0:0:
372,107,169625,2,0,L|456:105,2,70.0000026702882,8|8|8,1:0|1:0|1:2,0:0:0:0:
311,165,170459,5,8,1:2:0:0:
311,165,170771,2,0,L|302:232,1,46.6666666666667,2|2,1:0|1:0,0:0:0:0:
326,292,171326,2,0,P|266:288|206:328,1,105.000004005432,6|2,1:0|1:0,0:0:0:0:
106,345,172159,2,0,P|68:357|36:359,2,70.0000026702882,10|0|2,1:0|0:0|1:0,0:0:0:0:
147,272,172992,2,0,P|153:227|117:160,1,105.000004005432,6|2,1:0|1:2,0:0:0:0:
70,61,173826,2,0,P|37:72|9:94,2,70.0000026702882,8|8|8,1:0|1:0|1:0,0:0:0:0:
146,94,174659,6,0,P|210:69|298:74,2,140.000005340576,6|10|10,1:0|1:0|1:0,0:0:0:0:
125,175,176048,1,10,1:0:0:0:
166,247,176326,2,0,P|154:282|130:328,2,70.0000026702882,8|8|10,1:2|0:2|1:0,0:0:0:0:
219,182,177159,6,2,P|269:180|314:240,1,105.000004005432,6|2,1:0|1:0,1:1:0:0:
381,317,177992,2,0,P|436:304|483:278,1,105.000004005432,10|2,1:0|1:0,0:0:0:0:
443,160,178825,2,0,P|447:105|469:31,2,105.000004005432,4|2|10,1:0|1:0|1:0,0:0:0:0:
367,122,179936,2,0,P|326:117|297:106,1,70.0000026702882,2|10,1:0|1:0,0:0:0:0:
220,137,180492,5,6,1:0:0:0:
142,104,180770,2,0,P|99:105|64:116,2,70.0000026702882,2|10|10,1:0|1:0|1:0,0:0:0:0:
151,187,181603,2,0,L|141:273,1,70.0000026702882,8|8,1:2|1:2,0:0:0:0:
156,339,182159,2,2,P|222:331|258:335,2,70.0000026702882,6|2|10,1:0|1:0|1:0,1:1:0:0:
72,342,182992,2,0,P|19:326|10:227,1,140.000005340576,10|0,1:0|1:0,0:0:0:0:
54,188,183825,5,4,1:0:0:0:
172,69,184381,1,0,1:0:0:0:
244,111,184659,2,0,P|321:98|374:63,1,140.000005340576,8|0,1:0|1:0,0:0:0:0:
456,66,185492,2,0,P|467:121|460:222,1,140.000005340576,4|0,1:2|0:0,0:0:0:0:
391,248,186326,1,8,1:0:0:0:
254,345,186881,1,0,1:0:0:0:
173,368,187159,6,0,P|128:331|138:246,1,140.000005340576,4|0,1:0|0:0,0:0:0:0:
207,219,187992,2,0,P|220:153|184:73,1,140.000005340576,8|0,1:0|0:0,0:0:0:0:
122,43,188826,2,0,P|90:87|86:110,2,70.0000026702882,4|0|0,1:2|0:0|0:0,0:0:0:0:
197,7,189659,2,0,L|279:18,1,70.0000026702882,8|2,1:0|1:3,0:0:0:0:
325,76,190214,1,2,1:3:0:0:
408,69,190492,5,4,1:0:0:0:
491,307,191326,2,0,P|426:319|351:348,1,140.000005340576,8|0,1:0|1:0,0:0:0:0:
275,324,192159,2,0,P|227:326|181:323,2,70.0000026702882,4|0|0,1:2|0:0|0:0,0:0:0:0:
327,258,192992,2,0,P|309:209|353:115,1,140.000005340576,8|0,1:0|1:0,0:0:0:0:
399,72,193826,6,0,P|461:120|447:253,1,210.000008010865,4|8,1:2|1:0,0:0:0:0:
288,233,195214,1,2,1:3:0:0:
215,191,195492,2,0,P|151:197|67:243,1,140.000005340576,4|8,1:0|1:0,0:0:0:0:
24,289,196326,2,0,P|-4:221|23:145,1,140.000005340576,4|10,1:0|1:3,0:0:0:0:
19,75,197159,5,4,1:0:0:0:
260,16,203826,6,2,L|250:172,1,140,2|4,0:0|0:0,0:0:0:0:
252,368,205492,2,2,L|262:212,1,140,2|4,0:0|0:0,0:0:0:0:
253,192,207159,6,0,P|212:178|146:188,1,93.3333333333333,4|2,1:2|0:0,0:0:0:0:
105,221,207992,2,0,P|61:230|43:231,2,46.6666666666667,0|2|2,1:0|0:0|0:0,0:0:0:0:
98,151,208826,2,0,P|109:102|200:59,1,140,0|4,1:0|0:0,0:0:0:0:
394,193,210492,5,4,1:0:0:0:
309,191,210770,2,0,P|315:247|318:285,1,70.0000026702882,8|10,1:0|1:3,0:0:0:0:
269,331,211326,1,4,1:2:0:0:
187,311,211603,2,0,P|113:308|91:312,1,70.0000026702882,8|8,1:0|1:2,0:0:0:0:
33,300,212159,2,0,P|14:330|4:362,2,70.0000026702882,12|8|8,1:0|1:0|1:0,0:0:0:0:
85,234,212992,2,0,P|76:178|63:148,1,70.0000026702882,8|8,1:0|1:0,0:0:0:0:
4,115,213548,1,8,1:0:0:0:
504,195,219650,6,0,B|441:177|436:237|363:231,1,140.000005340576,12|8,1:0|1:0,0:0:0:0:
297,195,220483,2,0,P|232:197|206:214,2,70.0000026702882,12|8|8,1:0|1:0|1:0,0:0:0:0:
362,142,221316,2,0,P|364:84|433:29,1,140.000005340576,4|8,1:0|1:0,0:0:0:0:
483,88,222150,2,0,L|473:236,1,140.000005340576,12|8,1:0|1:0,0:0:0:0:
429,299,222983,5,4,1:0:0:0:
179,263,223816,2,0,P|121:273|93:367,1,140.000005340576,4|2,1:0|0:3,0:0:0:0:
164,374,224650,2,0,L|239:377,1,70.0000026702882,4|0,1:0|1:0,0:0:0:0:
303,328,225205,1,0,1:0:0:0:
283,246,225483,2,0,P|276:189|303:25,1,210.000008010865,8|8,1:2|1:2,0:0:0:0:
379,57,226594,2,0,P|435:50|462:42,1,70.0000026702882,8|8,1:0|1:0,0:0:0:0:
500,112,227150,5,12,1:0:0:0:
500,112,227288,2,0,P|489:150|475:231,1,105.000004005432,0|4,1:0|0:3,0:0:0:0:
425,280,227983,2,0,P|440:310|449:364,2,70.0000026702882,8|4|0,1:0|0:3|1:0,0:0:0:0:
359,227,228816,1,4,1:3:0:0:
191,244,229372,1,4,0:3:0:0:
131,303,229650,2,0,P|140:341|143:386,2,70.0000026702882,8|4|0,1:0|1:3|1:0,0:0:0:0:
50,278,230483,5,4,1:3:0:0:
50,278,230622,2,0,P|54:226|34:155,1,105.000004005432,0|4,1:0|1:3,0:0:0:0:
86,102,231316,2,0,P|74:62|55:38,2,70.0000026702882,8|4|0,1:0|0:3|1:0,0:0:0:0:
128,175,232150,2,0,P|184:177|283:137,1,140.000005340576,4|4,1:3|0:3,0:0:0:0:
315,85,232983,2,0,P|365:92|420:128,1,105.000004005432,8|10,1:0|1:3,0:0:0:0:
473,229,233816,5,4,1:0:0:0:
354,348,234372,1,2,0:0:0:0:
354,348,234650,2,0,P|310:347|229:291,1,140.000005340576,8|2,1:0|0:0,0:0:0:0:
161,249,235483,2,0,P|112:261|66:306,2,105.000004005432,8|2|10,1:2|1:0|1:0,0:0:0:0:
263,116,236872,1,0,1:0:0:0:
339,80,237150,6,0,P|377:94|477:79,1,140.000005340576,4|2,1:0|0:0,0:0:0:0:
480,164,237983,2,0,P|461:215|451:307,1,140.000005340576,8|2,1:0|0:0,0:0:0:0:
375,336,238816,2,0,P|325:307|331:206,1,140.000005340576,8|2,1:2|0:0,0:0:0:0:
367,164,239650,1,8,1:0:0:0:
212,98,240205,1,10,1:3:0:0:
129,113,240483,6,0,P|106:147|120:241,1,140.000005340576,4|0,1:0|0:0,0:0:0:0:
162,312,241316,2,0,L|262:293,2,70.0000026702882,8|8|8,1:0|1:2|1:2,0:0:0:0:
77,312,242150,1,4,1:0:0:0:
256,192,242983,1,2,0:0:0:0:
456,253,243816,6,0,P|451:204|456:61,1,186.666666666667,2|0,0:0|3:0,0:0:0:0:
353,48,244927,2,0,P|306:58|250:173,1,175,2|2,0:0|0:0,0:0:0:0:
269,264,246038,2,0,B|169:246|209:333|93:315,1,175,2|0,0:0|3:0,0:0:0:0:
23,258,247149,1,2,0:0:0:0:
11,118,247704,1,2,0:0:0:0:
139,61,248260,6,0,P|175:74|310:27,1,175,4|2,0:0|0:0,0:0:0:0:
405,45,249371,2,0,P|439:108|436:220,1,175,2|0,0:0|3:0,0:0:0:0:
354,271,250482,1,2,0:0:0:0:
