osu file format v14

[General]
AudioFilename: audio.mp3
AudioLeadIn: 0
PreviewTime: 140319
Countdown: 0
SampleSet: Soft
StackLeniency: 0.7
Mode: 0
LetterboxInBreaks: 0
WidescreenStoryboard: 0

[Editor]
DistanceSpacing: 0.9
BeatDivisor: 8
GridSize: 4
TimelineZoom: 0.9

[Metadata]
Title:Here
TitleUnicode:Here
Artist:JUNNA
ArtistUnicode:JUNNA
Creator:Mirash
Version:Extra
Source:魔法使いの嫁
Tags:PandaHero Testo the ancient magus' bride mahoutsukai no yome opening op
BeatmapID:1555562
BeatmapSetID:737103

[Difficulty]
HPDrainRate:7
CircleSize:4
OverallDifficulty:8
ApproachRate:9
SliderMultiplier:3.2
SliderTickRate:1

[Events]
//Background and Video events
0,0,"sinii.jpg",0,0
//Break Periods
2,100458,103792
//Storyboard Layer 0 (Background)
//Storyboard Layer 1 (Fail)
//Storyboard Layer 2 (Pass)
//Storyboard Layer 3 (Foreground)
//Storyboard Sound Samples

[TimingPoints]
1323,555.555555555556,3,2,1,50,1,0
1582,555.555555555556,3,2,1,50,1,0
2156,555.555555555556,3,2,1,50,1,0
2415,555.555555555556,3,2,1,50,1,0
2989,576.923076923077,3,2,1,50,1,0
2989,-500,3,2,1,50,0,0
4625,555.555555555556,3,2,1,50,1,0
6291,-500,3,2,1,50,0,0
7958,875.912408759124,3,2,1,10,1,0
8833,833.333333333333,3,2,1,40,1,0
8833,-333.333333333333,3,2,1,40,0,0
12959,555.555555555556,3,2,1,40,1,0
12959,-200,3,2,1,40,0,0
13516,555.555555555556,4,2,1,60,1,0
19256,-166.666666666667,4,2,1,60,0,0
19627,-125,4,2,1,60,0,0
19997,-100,4,2,1,60,0,0
22404,-125,4,2,1,50,0,0
30460,-100,4,2,1,50,0,0
31293,-125,4,2,1,50,0,0
37404,-125,4,2,1,40,0,0
37543,-125,4,2,1,30,0,0
37682,-125,4,2,1,20,0,0
37821,-125,4,2,1,10,0,0
37960,-500,4,2,1,15,0,0
39071,-500,4,2,1,40,0,0
39210,-500,4,2,1,70,0,0
40113,-500,4,2,1,20,0,0
40182,-125,4,2,1,60,0,0
53377,-125,4,2,1,50,0,0
53516,-125,4,2,1,60,0,0
57682,-500,4,2,1,50,0,0
57891,-500,4,2,1,20,0,0
57960,833.333333333333,2,2,1,70,1,0
58098,-62.5,4,2,1,70,0,0
61015,-62.5,4,2,2,70,0,0
61293,-62.5,4,2,1,70,0,0
67682,-62.5,4,2,2,70,0,0
67960,-62.5,4,2,1,70,0,0
71015,-62.5,4,2,2,70,0,0
71293,-62.5,4,2,1,70,0,0
77960,-100,4,2,1,60,0,0
81015,-100,4,2,2,60,0,0
81293,-100,4,2,1,60,0,0
86293,-250,4,2,1,40,0,0
87960,555.555555555556,4,2,1,50,1,0
88098,-100,4,2,1,40,0,0
89904,555.555555555556,4,2,1,50,1,0
90042,-100,4,2,1,40,0,0
91848,555.555555555556,4,2,1,50,1,0
91986,-100,4,2,1,40,0,0
93792,555.555555555556,4,2,1,50,1,0
96014,-133.333333333333,4,2,1,50,0,0
105736,-200,4,2,1,40,0,0
113236,-200,4,2,1,10,0,0
113375,-200,4,2,1,40,0,0
113792,-125,4,2,1,50,0,0
120458,-500,4,2,1,50,0,0
121708,-500,4,2,1,70,0,0
122611,-500,4,2,1,20,0,0
122680,-125,4,2,1,60,0,0
140180,-500,4,2,1,50,0,0
140389,-500,4,2,1,20,0,0
140459,833.333333333333,2,2,1,70,1,0
140597,-62.5,4,2,1,70,0,0
150320,-62.5,4,2,2,70,0,0
150459,-62.5,4,2,1,70,0,0
153514,-62.5,4,2,2,70,0,0
153792,-62.5,4,2,1,70,0,0
156986,-62.5,4,2,2,70,0,0
157125,-62.5,4,2,1,70,0,0
160459,-100,4,2,1,60,0,0
163514,-100,4,2,2,60,0,0
163792,-100,4,2,1,60,0,0
168792,-250,4,2,1,50,0,0
169347,-250,4,2,1,30,0,0
169625,-250,4,2,1,70,0,0
170459,-50,4,2,1,70,0,0
170771,833.333333333333,2,2,1,80,1,0
170771,-50,4,2,1,80,0,0
171326,833.333333333333,2,2,1,80,1,0
171326,-50,4,2,1,80,0,0
177159,833.333333333333,2,2,1,80,1,0
177159,-50,4,2,1,80,0,0
183826,833.333333333333,2,2,1,70,1,0
183826,-62.5,4,2,1,70,0,0
190353,-62.5,4,2,2,70,0,0
190492,-62.5,4,2,1,70,0,0
197159,-250,4,2,1,40,0,0
204659,-250,4,2,1,30,0,0
205492,-250,4,2,1,40,0,0
206326,-250,4,2,1,30,0,0
207159,-125,4,2,1,50,0,0
209659,-500,4,2,1,50,0,0
210770,-500,4,2,1,60,0,0
211326,-62.5,4,2,1,60,0,0
213826,1153.84615384615,4,2,1,35,1,0
213826,-100,4,2,1,35,0,0
214018,1071.42857142857,4,2,1,35,1,0
214419,1132.07547169811,4,2,1,35,1,0
214419,-100,4,2,1,35,0,0
214702,1153.84615384615,4,2,1,35,1,0
214894,1016.94915254237,4,2,1,35,1,0
214894,-100,4,2,1,35,0,0
215402,895.522388059701,4,2,1,35,1,0
215551,-100,4,2,1,35,0,0
216409,1481.48148148148,4,2,1,35,1,0
216409,-100,4,2,1,35,0,0
217149,1071.42857142857,4,2,1,35,1,0
217327,1052.63157894737,4,2,1,35,1,0
217327,-100,4,2,1,35,0,0
217984,1153.84615384615,4,2,1,35,1,0
218176,895.522388059701,4,2,1,35,1,0
218176,-100,4,2,1,35,0,0
218399,1052.63157894737,4,2,1,35,1,0
218662,923.076923076923,4,2,1,35,1,0
218662,-100,4,2,1,35,0,0
218969,-100,4,2,1,15,0,0
219123,895.522388059701,4,2,1,35,1,0
219123,-100,4,2,1,35,0,0
219650,833.333333333333,2,2,1,70,1,0
220483,833.333333333333,4,2,1,70,1,0
220483,-62.5,4,2,1,70,0,0
227150,833.333333333333,2,2,1,70,1,0
227288,-55.5555555555556,4,2,1,70,0,0
230344,-55.5555555555556,4,2,2,70,0,0
230483,-55.5555555555556,4,2,1,70,0,0
233816,-100,4,2,1,60,0,0
242150,-250,4,2,1,50,0,0
243816,1111.11111111111,4,2,1,30,1,0
243816,-166.666666666667,4,2,1,30,0,0
248260,-166.666666666667,4,2,1,30,0,0
248677,-166.666666666667,4,2,1,40,0,0
249371,-166.666666666667,4,2,1,30,0,0
250482,-166.666666666667,4,2,1,20,0,0

[Colours]
Combo1 : 61,91,182
Combo2 : 43,202,194
Combo3 : 35,126,237
Combo4 : 94,149,172

[HitObjects]
480,273,1323,5,2,0:0:0:0:
349,303,1582,1,0,0:0:0:0:
339,211,1721,1,0,0:0:0:0:
323,288,1860,1,0,0:0:0:0:
32,273,2156,5,2,0:0:0:0:
163,303,2415,1,0,0:0:0:0:
173,211,2554,1,0,0:0:0:0:
189,288,2692,1,0,0:0:0:0:
253,180,2989,6,0,L|261:47,1,128
165,37,4625,5,2,0:0:0:0:
109,150,4902,1,0,0:0:0:0:
84,69,5041,1,0,0:0:0:0:
84,143,5180,1,0,0:0:0:0:
84,143,5319,1,2,0:0:0:0:
347,37,5458,5,2,0:0:0:0:
403,150,5736,1,0,0:0:0:0:
428,69,5875,1,0,0:0:0:0:
428,143,6013,1,0,0:0:0:0:
428,143,6152,1,2,0:0:0:0:
254,181,6291,6,0,L|240:376,1,192,2|0,0:0|0:0,0:0:0:0:
240,372,8833,6,0,P|206:369|173:367,1,64,2|0,0:0|0:0,0:0:0:0:
120,319,9666,2,0,P|82:323|21:344,1,95.9999970703126,0|2,0:0|0:0,0:0:0:0:
31,345,11020,1,2,0:0:0:0:
31,345,11333,2,0,L|18:181,1,155.999995239258,2|0,0:0|0:0,0:0:0:0:
0,169,12959,6,0,L|17:180,1,20,2|0,0:0|0:0,0:0:0:0:
12,158,13098,2,0,L|21:176,1,20,2|0,0:0|0:0,0:0:0:0:
27,154,13237,2,0,L|25:174,1,20,2|0,0:0|0:0,0:0:0:0:
41,158,13376,2,0,L|30:174,1,20,2|0,0:0|0:0,0:0:0:0:
108,222,13516,6,0,B|186:215|186:215|243:158|243:158|331:153,1,240,4|2,1:0|0:0,0:0:0:0:
407,122,14071,2,0,P|401:78|389:34,1,80,2|0,1:3|0:0,0:0:0:0:
289,78,14349,1,2,0:0:0:0:
389,197,14488,1,0,0:0:0:0:
282,235,14627,6,0,P|288:279|382:372,1,160,2|0,1:2|0:0,0:0:0:0:
206,308,15043,1,0,0:0:0:0:
134,239,15182,2,0,B|171:224|171:224|219:235,1,80,2|2,1:3|0:0,0:0:0:0:
54,307,15460,2,0,L|56:212,1,80,2|0,0:0|0:0,0:0:0:0:
107,10,15738,6,0,L|104:184,1,160,4|0,1:0|0:0,0:0:0:0:
285,156,16154,1,2,0:0:0:0:
285,156,16293,2,0,B|295:195|295:195|283:248,1,80,2|2,1:3|0:0,0:0:0:0:
182,282,16571,2,0,B|171:242|171:242|183:189,1,80
364,49,16849,5,2,1:2:0:0:
440,72,16988,1,0,0:0:0:0:
433,151,17127,1,2,0:0:0:0:
356,127,17266,1,0,0:0:0:0:
257,182,17404,5,2,1:3:0:0:
181,205,17543,1,2,0:0:0:0:
188,284,17682,1,4,0:0:0:0:
265,260,17821,1,0,0:0:0:0:
468,257,17960,6,0,B|390:245|390:245|329:312,1,160,4|0,1:0|0:0,0:0:0:0:
264,336,18377,1,2,0:0:0:0:
100,247,18516,2,0,B|111:289|111:289|97:338,1,80,2|2,1:3|0:0,0:0:0:0:
23,232,18793,2,0,L|33:55,1,160,0|0,0:0|1:0,0:0:0:0:
362,21,19256,6,0,L|355:97,1,63.9999980468751,0|2,1:0|0:0,0:0:0:0:
347,182,19627,6,0,L|260:122,1,85.3333333333333,2|2,1:3|1:2,0:0:0:0:
185,91,19997,6,0,L|287:35,1,106.666666666667,2|4,1:2|1:2,0:0:0:0:
347,182,20321,5,2,0:0:0:0:
270,219,20460,1,0,1:0:0:0:
276,133,20599,1,2,0:0:0:0:
390,255,20738,5,2,1:3:0:0:
467,292,20877,1,2,0:0:0:0:
504,215,21016,1,0,0:0:0:0:
427,178,21155,1,2,1:2:0:0:
197,246,21293,5,0,1:0:0:0:
221,333,21432,1,2,1:2:0:0:
147,306,21571,1,0,0:0:0:0:
272,272,21710,1,2,1:2:0:0:
74,238,21849,5,2,1:3:0:0:
61,348,21988,1,6,1:2:0:0:
53,224,22127,1,2,0:0:0:0:
40,334,22266,1,4,1:2:0:0:
25,123,22404,6,0,B|131:98|105:187|208:170,1,192,4|0,1:0|0:0,0:0:0:0:
267,139,22960,2,0,P|312:145|352:166,1,64,2|0,1:3|0:0,0:0:0:0:
371,217,23238,2,0,P|423:214|450:209,1,64
446,202,23516,2,0,P|437:272|430:348,1,128,0|0,1:0|0:0,0:0:0:0:
364,361,23932,2,0,P|335:357|295:358,1,64,0|2,0:0|1:3,0:0:0:0:
232,328,24210,2,0,P|202:331|164:342,1,64
99,312,24488,1,0,0:0:0:0:
53,151,24627,6,0,P|64:71|177:44,1,192,4|0,1:2|0:0,0:0:0:0:
198,100,25182,2,0,P|239:97|275:88,1,64,2|0,1:3|0:0,0:0:0:0:
314,38,25460,2,0,P|342:37|392:46,1,64
500,196,25738,6,0,L|490:287,1,64,0|0,1:0|0:0,0:0:0:0:
350,209,26016,1,2,0:0:0:0:
362,284,26154,2,0,L|372:375,1,64,0|2,0:0|1:3,0:0:0:0:
208,231,26432,2,0,L|214:167,1,64,2|0,0:0|0:0,0:0:0:0:
248,103,26710,1,2,0:0:0:0:
86,304,26849,6,0,L|78:231,1,64,6|0,1:0|0:0,0:0:0:0:
136,195,27127,1,2,1:1:0:0:
96,376,27266,2,0,P|139:322|211:312,1,128,2|0,1:0|0:0,0:0:0:0:
334,219,27682,1,2,1:0:0:0:
281,272,27821,2,0,B|276:306|276:306|287:334,1,64,2|2,0:1|1:0,0:0:0:0:
440,369,28099,2,0,B|445:335|445:335|433:306,1,64,2|0,1:0|0:0,0:0:0:0:
261,19,28377,5,2,1:0:0:0:
261,19,28654,1,2,1:0:0:0:
261,19,28793,2,0,L|264:91,1,64,0|4,1:0|0:0,0:0:0:0:
205,259,29071,5,6,1:0:0:0:
129,243,29210,1,0,0:0:0:0:
64,288,29349,1,2,1:0:0:0:
75,370,29488,1,2,1:0:0:0:
75,370,29766,6,0,P|105:366|151:363,1,64,2|2,1:0|0:1,0:0:0:0:
294,308,30043,1,2,0:1:0:0:
419,362,30182,6,0,P|389:358|343:355,1,64,2|4,1:0|0:0,0:0:0:0:
149,247,30460,6,0,P|179:243|242:238,1,80,2|2,1:0|1:0,0:0:0:0:
429,254,30738,5,0,1:0:0:0:
483,195,30877,1,4,0:0:0:0:
404,179,31016,1,2,1:0:0:0:
350,237,31154,1,4,1:2:0:0:
237,28,31293,6,0,B|230:62|230:62|242:104,1,64,6|0,1:0|0:0,0:0:0:0:
240,164,31571,2,0,L|157:162,1,64
151,93,31849,2,0,P|98:101|64:182,1,128,2|0,1:3|0:0,0:0:0:0:
49,319,32266,5,0,0:0:0:0:
49,319,32404,2,0,P|94:295|173:290,1,128,0|0,1:0|0:0,0:0:0:0:
292,264,32821,2,0,P|262:253|231:248,1,64,0|2,0:0|1:3,0:0:0:0:
363,240,33099,2,0,P|391:253|417:272,1,64
350,313,33377,1,0,0:0:0:0:
302,190,33516,6,0,P|303:99|284:-6,1,192,4|0,1:2|0:0,0:0:0:0:
216,31,34071,2,0,P|179:27|142:15,1,64,2|0,1:3|0:0,0:0:0:0:
93,64,34349,2,0,P|59:64|21:70,1,64
31,240,34627,6,0,L|39:312,1,64,0|0,1:0|0:0,0:0:0:0:
211,355,34904,1,2,0:0:0:0:
244,285,35043,2,0,L|251:221,1,64,0|2,0:0|1:3,0:0:0:0:
329,102,35321,1,2,0:0:0:0:
413,131,35460,1,0,0:0:0:0:
340,120,35599,1,2,0:0:0:0:
267,148,35738,6,0,P|235:144|201:147,1,64,6|0,1:0|0:0,0:0:0:0:
132,114,36016,1,2,1:1:0:0:
132,114,36154,2,0,P|102:126|74:146,1,64,2|2,0:1|1:3,0:0:0:0:
121,36,36432,1,2,1:1:0:0:
193,60,36571,1,2,1:1:0:0:
268,53,36710,1,0,0:0:0:0:
335,22,36849,1,2,1:0:0:0:
409,33,36988,1,0,0:0:0:0:
457,93,37127,1,2,1:0:0:0:
459,177,37266,1,0,0:0:0:0:
410,244,37404,5,6,1:2:0:0:
319,244,37543,1,2,0:2:0:0:
292,208,37682,1,6,1:2:0:0:
296,179,37821,1,2,1:2:0:0:
303,169,37960,6,0,L|287:301,1,128,2|4,0:0|3:3,0:0:0:0:
48,132,39210,5,8,1:0:0:0:
145,140,39349,1,8,1:0:0:0:
361,53,39488,5,8,1:0:0:0:
361,53,39557,1,0,1:0:0:0:
361,53,39627,1,8,1:0:0:0:
305,123,39766,1,0,1:0:0:0:
265,42,39904,2,0,L|266:72,1,24,8|0,3:3|0:0,0:0:0:0:
221,132,40182,6,0,P|231:191|293:226,1,128,4|2,1:0|0:0,0:0:0:0:
416,212,40599,1,0,0:0:0:0:
426,289,40738,2,0,P|417:314|410:356,1,64,2|0,1:2|0:0,0:0:0:0:
263,369,41016,2,0,P|259:318|253:291,1,64,2|0,0:0|0:0,0:0:0:0:
181,254,41293,6,0,P|112:262|74:382,1,192,10|2,1:2|0:0,0:0:0:0:
21,247,41849,2,0,L|27:165,1,64,2|0,1:2|0:0,0:0:0:0:
75,127,42127,2,0,L|69:45,1,64,2|0,0:0|0:0,0:0:0:0:
220,35,42404,6,0,P|285:51|316:100,1,128,4|2,1:2|0:0,0:0:0:0:
174,165,42821,1,0,0:0:0:0:
174,165,42960,2,0,P|176:108|174:81,1,64,2|0,1:2|0:0,0:0:0:0:
310,222,43238,6,0,P|253:220|226:222,1,64,2|0,0:0|0:0,0:0:0:0:
415,204,43516,2,0,P|366:173|342:162,1,64,10|0,1:2|0:0,0:0:0:0:
512,241,43793,2,0,P|485:190|469:168,1,64,2|0,0:0|0:0,0:0:0:0:
443,286,44071,5,2,1:0:0:0:
385,333,44210,1,0,0:0:0:0:
302,347,44349,1,2,0:0:0:0:
230,306,44488,1,2,0:0:0:0:
152,326,44627,1,4,1:0:0:0:
152,326,44904,5,2,0:0:0:0:
79,299,45043,2,0,L|66:223,1,64,0|2,0:0|1:2,0:0:0:0:
56,52,45321,1,0,0:0:0:0:
120,89,45460,2,0,L|109:152,1,64,2|0,0:0|0:0,0:0:0:0:
138,219,45738,2,0,P|215:208|234:92,1,192,10|2,1:2|0:0,0:0:0:0:
199,32,46293,2,0,P|243:32|276:36,1,64,2|0,1:2|0:0,0:0:0:0:
322,93,46571,1,2,0:0:0:0:
478,65,46710,1,0,0:0:0:0:
436,127,46849,6,0,L|433:213,1,64,4|0,1:2|0:0,0:0:0:0:
332,227,47127,6,0,L|334:290,1,64,2|4,0:0|1:2,0:0:0:0:
180,161,47404,6,0,L|177:247,1,64,2|2,1:2|0:0,0:0:0:0:
12,276,47682,6,0,L|15:362,1,64,0|6,0:0|1:2,0:0:0:0:
207,319,47960,5,10,1:2:0:0:
251,260,48099,1,6,0:0:0:0:
262,175,48238,1,0,1:0:0:0:
238,95,48377,1,2,1:2:0:0:
250,13,48516,1,10,1:2:0:0:
330,0,48654,1,0,0:0:0:0:
375,67,48793,1,10,1:2:0:0:
315,121,48932,1,0,0:0:0:0:
154,42,49071,6,0,P|79:63|42:171,1,192,4|2,1:0|0:0,0:0:0:0:
71,293,49627,2,0,P|73:261|76:229,1,64,4|0,1:2|0:0,0:0:0:0:
164,116,49904,2,0,P|155:197|153:258,1,128,4|0,1:2|0:0,0:0:0:0:
204,303,50321,1,2,0:0:0:0:
204,303,50460,2,0,P|235:302|278:303,1,64,0|0,1:0|0:0,0:0:0:0:
330,345,50738,2,0,P|360:352|401:364,1,64,4|0,1:2|0:0,0:0:0:0:
472,330,51016,2,0,P|470:263|352:227,1,192,4|2,1:0|0:0,0:0:0:0:
251,211,51571,6,0,P|263:169|266:137,1,64,0|0,1:0|0:0,0:0:0:0:
221,69,51849,1,2,1:2:0:0:
121,90,51988,1,0,0:0:0:0:
216,57,52127,1,2,1:2:0:0:
116,78,52266,1,0,1:0:0:0:
41,180,52404,5,10,1:2:0:0:
141,201,52543,1,0,0:0:0:0:
46,168,52682,1,2,0:0:0:0:
146,189,52821,1,2,1:2:0:0:
217,307,52960,5,10,1:2:0:0:
117,328,53099,1,0,1:0:0:0:
212,295,53238,1,10,1:2:0:0:
112,316,53377,1,4,0:0:0:0:
241,207,53516,6,0,B|345:180|319:277|428:264,1,192,4|2,1:0|0:0,0:0:0:0:
486,303,54071,2,0,P|491:264|499:233,1,64,4|0,1:2|0:0,0:0:0:0:
431,194,54349,2,0,P|430:131|389:83,1,128,4|0,1:2|0:0,0:0:0:0:
326,119,54766,1,2,0:0:0:0:
326,119,54904,2,0,P|294:114|262:112,1,64,4|0,1:2|0:0,0:0:0:0:
212,58,55182,2,0,P|182:59|141:65,1,64,4|0,1:2|0:0,0:0:0:0:
7,174,55460,6,0,L|19:252,1,64,6|0,1:0|0:0,0:0:0:0:
185,355,55738,5,12,0:0:0:0:
289,356,55877,1,8,1:3:0:0:
403,259,56016,1,8,1:3:0:0:
256,236,56155,1,8,1:3:0:0:
374,143,56293,6,0,L|384:301,1,128,12|8,1:0|0:0,0:0:0:0:
79,317,56710,5,8,1:0:0:0:
121,260,56849,2,0,L|125:196,1,64,8|8,1:0|1:2,0:0:0:0:
328,38,57127,5,8,1:0:0:0:
181,61,57266,1,8,1:2:0:0:
181,61,57543,5,8,1:0:0:0:
328,84,57682,2,0,L|327:113,1,24,8|0,1:2|0:0,0:0:0:0:
275,184,57960,5,4,1:0:0:0:
275,184,58098,2,0,B|374:164|341:250|447:222,1,170.666666666667,0|0,1:0|0:0,0:0:0:0:
512,327,58515,2,0,L|417:318,1,85.3333333333333,0|0,1:0|0:0,0:0:0:0:
209,291,58793,1,8,1:1:0:0:
149,331,58932,2,0,P|94:336|34:223,1,170.666666666667,0|0,1:0|0:0,0:0:0:0:
96,115,59348,1,0,1:0:0:0:
160,202,59487,1,0,0:0:0:0:
40,224,59626,6,0,P|30:174|22:131,1,85.3333333333333,2|0,1:3|0:0,0:0:0:0:
177,120,59904,6,0,P|180:69|183:25,1,85.3333333333333,8|0,1:2|0:0,0:0:0:0:
337,87,60182,6,0,P|353:38|367:-2,1,85.3333333333333,4|0,1:2|0:0,0:0:0:0:
340,219,60460,5,8,1:0:0:0:
230,187,60598,1,2,0:0:0:0:
252,300,60737,1,2,0:0:0:0:
340,219,60876,1,4,1:2:0:0:
152,264,61015,2,0,L|141:311,2,42.6666666666667,2|2|2,3:0|3:0|3:0,0:0:0:0:
423,341,61293,5,4,1:0:0:0:
423,341,61432,2,0,P|446:246|431:152,1,170.666666666667,0|0,1:0|0:0,0:0:0:0:
348,37,61848,2,0,P|388:68|451:86,1,85.3333333333333,0|0,1:0|0:0,0:0:0:0:
351,150,62126,1,8,1:0:0:0:
282,177,62265,2,0,L|91:183,1,170.666666666667,0|0,1:0|0:0,0:0:0:0:
71,351,62682,1,0,1:0:0:0:
146,280,62821,1,0,0:0:0:0:
35,246,62960,6,0,L|77:372,1,85.3333333333333,2|0,1:3|0:0,0:0:0:0:
17,165,63237,2,0,P|97:123|89:26,1,170.666666666667,8|0,1:2|0:0,0:0:0:0:
39,10,63654,1,4,1:2:0:0:
176,25,63793,2,0,L|264:42,1,85.3333333333333,8|0,1:0|0:0,0:0:0:0:
321,143,64071,5,2,1:0:0:0:
433,126,64210,1,2,1:0:0:0:
300,230,64348,5,2,1:0:0:0:
182,193,64487,1,2,1:0:0:0:
379,204,64626,6,0,P|377:307|213:310,1,256,4|0,1:0|1:0,0:0:0:0:
193,284,65182,2,0,P|151:285|99:296,1,85.3333333333333,0|0,1:0|0:0,0:0:0:0:
37,316,65460,1,8,1:0:0:0:
26,246,65598,1,2,0:0:0:0:
93,217,65737,1,2,0:0:0:0:
103,117,65876,1,4,1:2:0:0:
175,141,66015,1,0,1:0:0:0:
224,31,66154,1,0,1:0:0:0:
49,18,66293,6,0,P|55:130|60:282,1,256,4|0,1:0|1:0,0:0:0:0:
170,351,66848,1,0,1:0:0:0:
246,337,66987,1,0,0:0:0:0:
393,274,67126,1,8,1:0:0:0:
304,265,67265,1,2,0:0:0:0:
172,187,67404,1,2,0:0:0:0:
266,176,67543,1,4,1:2:0:0:
500,192,67682,6,0,P|495:215|492:235,2,42.6666666666667,2|2|2,3:0|3:0|3:0,0:0:0:0:
417,183,67960,6,0,P|425:100|282:25,1,256,4|0,1:0|0:0,0:0:0:0:
163,80,68515,2,0,P|207:78|261:84,1,85.3333333333333,0|0,1:0|1:0,0:0:0:0:
397,281,68793,2,0,P|353:283|299:277,1,85.3333333333333,8|0,1:0|0:0,0:0:0:0:
159,227,69071,2,0,P|203:229|257:223,1,85.3333333333333,4|0,1:2|0:0,0:0:0:0:
390,140,69349,2,0,P|346:138|292:144,1,85.3333333333333,4|0,1:2|0:0,0:0:0:0:
36,215,69626,5,8,1:2:0:0:
41,240,69765,1,2,0:0:0:0:
46,265,69904,1,2,0:0:0:0:
51,290,70043,1,0,1:0:0:0:
248,232,70182,5,8,1:0:0:0:
260,152,70321,1,8,1:0:0:0:
461,94,70460,5,8,1:2:0:0:
471,144,70599,1,10,1:3:0:0:
481,194,70738,1,8,1:0:0:0:
491,244,70877,1,8,1:0:0:0:
251,378,71015,6,0,L|256:334,2,42.6666666666667,2|2|2,3:0|3:0|3:0,0:0:0:0:
251,24,71293,5,4,1:0:0:0:
251,24,71432,2,0,P|259:114|261:201,1,170.666666666667,0|0,1:0|0:0,0:0:0:0:
136,269,71848,2,0,P|173:259|236:259,1,85.3333333333333,0|0,1:0|0:0,0:0:0:0:
444,292,72126,1,8,1:0:0:0:
455,217,72265,2,0,P|384:224|294:263,1,170.666666666667,0|0,1:0|0:0,0:0:0:0:
59,187,72682,1,0,1:0:0:0:
37,293,72821,1,0,0:0:0:0:
136,269,72960,6,0,L|148:154,1,85.3333333333333,2|0,1:3|0:0,0:0:0:0:
245,34,73237,2,0,B|325:4|325:4|431:34,1,170.666666666667,8|4,1:2|1:2,0:0:0:0:
484,30,73654,1,0,0:0:0:0:
502,194,73793,2,0,L|490:309,1,85.3333333333333,8|2,1:0|0:0,0:0:0:0:
299,302,74071,1,2,0:0:0:0:
251,241,74210,1,4,1:2:0:0:
318,204,74348,1,0,3:0:0:0:
366,263,74487,1,0,1:0:0:0:
173,300,74626,5,4,1:0:0:0:
173,300,74765,2,0,L|165:192,1,85.3333333333333,0|0,1:0|0:0,0:0:0:0:
56,85,75043,1,0,1:0:0:0:
87,249,75182,2,0,P|144:166|119:89,1,170.666666666667,0|8,1:0|1:0,0:0:0:0:
262,79,75598,2,0,P|260:120|257:172,1,85.3333333333333,0|0,1:0|0:0,0:0:0:0:
242,259,75876,1,0,1:0:0:0:
400,292,76015,1,0,1:0:0:0:
429,162,76154,1,2,0:0:0:0:
340,151,76293,6,0,P|322:244|314:328,1,170.666666666667,4|0,1:0|0:0,0:0:0:0:
499,361,76710,2,0,P|486:284|477:253,1,85.3333333333333,0|0,1:0|0:0,0:0:0:0:
244,333,76987,1,0,0:0:0:0:
176,364,77126,2,0,P|150:309|126:177,1,170.666666666667,8|0,1:0|0:0,0:0:0:0:
34,99,77543,5,8,1:0:0:0:
156,50,77682,1,2,1:3:0:0:
44,82,77821,1,4,0:0:0:0:
276,115,77960,6,0,P|303:110|333:99,1,53.3333333333333,4|0,1:0|0:0,0:0:0:0:
372,44,78237,2,0,P|398:48|423:57,1,53.3333333333333,2|2,0:0|1:3,0:0:0:0:
480,107,78515,1,2,0:0:0:0:
480,107,78654,1,2,1:3:0:0:
453,174,78793,2,0,P|444:229|452:291,1,106.666666666667,8|2,1:0|0:0,0:0:0:0:
373,251,79210,2,0,L|371:313,1,53.3333333333333,2|2,1:3|0:0,0:0:0:0:
307,346,79487,1,2,1:3:0:0:
241,318,79626,6,0,P|236:247|143:190,1,160,8|2,1:2|1:0,0:0:0:0:
102,222,80182,2,0,P|105:253|105:284,1,53.3333333333333,2|2,1:0|0:1,0:0:0:0:
38,183,80460,2,2,P|61:115|165:84,1,160,10|0,1:0|0:0,0:1:0:0:
204,114,81015,2,0,L|233:108,2,26.6666666666667,2|2|2,3:0|3:0|3:0,0:0:0:0:
282,56,81293,6,0,P|346:81|367:137,1,106.666666666667,4|2,1:0|0:0,0:0:0:0:
322,176,81710,1,2,1:3:0:0:
322,176,81848,2,0,L|314:251,1,53.3333333333333,2|2,0:0|1:3,0:0:0:0:
367,319,82126,2,0,P|379:268|433:239,1,106.666666666667,8|2,1:0|0:0,0:0:0:0:
493,267,82543,1,2,1:3:0:0:
493,267,82682,2,0,P|489:303|491:339,1,53.3333333333333,2|2,0:0|1:3,0:0:0:0:
292,307,82960,6,0,L|98:319,1,160,8|0,1:2|1:0,0:0:0:0:
116,308,83515,1,0,0:0:0:0:
113,274,83654,1,0,1:0:0:0:
144,232,83793,1,8,1:0:0:0:
218,238,83932,5,8,1:0:0:0:
294,205,84071,5,2,1:3:0:0:
320,108,84210,5,8,1:2:0:0:
226,37,84348,5,10,1:3:0:0:
141,109,84487,5,8,1:2:0:0:
430,38,84626,6,0,L|422:232,1,160,8|0,1:2|1:0,0:0:0:0:
355,234,85182,2,0,L|350:331,1,53.3333333333333,0|0,1:0|1:0,0:0:0:0:
275,346,85460,2,0,L|267:152,1,160,8|2,1:0|3:3,0:0:0:0:
163,70,86015,1,8,1:3:0:0:
40,35,86154,1,8,1:3:0:0:
142,51,86293,6,0,L|136:191,1,128,4|2,1:0|0:0,0:0:0:0:
140,182,87682,1,2,0:0:0:0:
140,182,87960,5,2,3:0:0:0:
179,174,88098,1,0,3:0:0:0:
218,170,88237,1,0,3:0:0:0:
257,176,88376,1,0,3:0:0:0:
294,189,88515,1,8,3:0:0:0:
330,205,88654,1,0,3:0:0:0:
369,212,88793,1,0,3:0:0:0:
408,207,88932,1,0,3:0:0:0:
441,184,89071,1,8,3:0:0:0:
450,145,89210,1,0,3:0:0:0:
436,107,89348,1,0,3:0:0:0:
430,67,89487,1,0,3:0:0:0:
455,36,89626,1,8,3:0:0:0:
493,45,89765,1,0,3:0:0:0:
310,69,89904,5,2,3:0:0:0:
308,77,90042,1,0,3:0:0:0:
316,80,90181,1,0,3:0:0:0:
317,73,90320,1,0,3:0:0:0:
278,63,90459,1,8,3:0:0:0:
241,78,90598,1,0,3:0:0:0:
209,102,90737,1,0,3:0:0:0:
175,123,90876,1,0,3:0:0:0:
135,120,91015,1,8,3:0:0:0:
97,105,91154,1,0,3:0:0:0:
57,107,91292,1,0,3:0:0:0:
23,128,91431,1,0,3:0:0:0:
9,165,91570,1,8,3:0:0:0:
22,202,91709,1,2,3:2:0:0:
202,351,91848,5,2,3:0:0:0:
236,331,91986,1,0,3:0:0:0:
275,327,92125,1,0,3:0:0:0:
314,335,92264,1,0,3:0:0:0:
351,349,92403,1,8,3:0:0:0:
390,355,92542,1,0,3:0:0:0:
429,352,92681,1,0,3:0:0:0:
465,335,92820,1,0,3:0:0:0:
484,300,92959,1,8,3:0:0:0:
490,260,93098,1,0,3:0:0:0:
477,222,93236,1,0,3:0:0:0:
452,190,93375,1,0,3:0:0:0:
437,152,93514,1,8,3:0:0:0:
453,115,93653,1,0,3:0:0:0:
149,232,93792,5,2,0:0:0:0:
110,241,93930,1,0,0:0:0:0:
70,248,94069,1,0,0:0:0:0:
109,257,94208,1,0,0:0:0:0:
149,264,94347,1,0,0:0:0:0:
232,254,94486,5,2,0:0:0:0:
333,193,94625,5,2,0:0:0:0:
327,232,94764,1,0,0:0:0:0:
321,271,94903,1,2,0:0:0:0:
316,310,95042,1,2,0:0:0:0:
402,158,95180,5,2,0:0:0:0:
406,197,95319,1,0,0:0:0:0:
410,236,95458,1,2,0:0:0:0:
415,275,95597,1,0,0:0:0:0:
460,106,95736,5,2,0:0:0:0:
474,143,95875,1,2,0:0:0:0:
257,178,96014,6,0,P|260:107|257:45,1,120.000004577637,4|2,0:0|0:1,0:0:0:0:
102,61,96430,1,2,0:1:0:0:
58,123,96569,2,0,P|56:172|55:196,1,60.0000022888184,2|0,0:1|0:0,0:0:0:0:
210,242,96847,2,0,P|212:291|213:315,1,60.0000022888184,2|0,0:1|0:0,0:0:0:0:
90,350,97125,1,2,0:1:0:0:
70,312,97264,1,0,0:0:0:0:
78,270,97403,1,2,0:1:0:0:
108,240,97542,1,0,0:0:0:0:
135,208,97680,1,2,0:1:0:0:
152,169,97819,1,2,0:1:0:0:
155,127,97958,1,2,0:1:0:0:
148,85,98097,1,2,0:1:0:0:
127,48,98236,1,2,0:3:0:0:
8,192,104903,5,2,3:3:0:0:
8,192,105736,2,0,P|45:189|98:188,1,80,2|8,0:0|0:3,0:0:0:0:
152,234,106292,1,2,0:0:0:0:
152,234,106430,2,0,P|191:235|231:237,1,80,8|0,0:3|0:0,0:0:0:0:
310,277,106986,5,0,0:0:0:0:
310,277,107124,2,0,P|311:237|323:84,1,160,2|0,0:3|0:0,0:0:0:0:
319,117,107958,1,2,0:0:0:0:
393,86,108236,2,0,P|443:91|501:94,1,80,8|2,0:3|0:0,0:0:0:0:
485,88,108653,2,0,P|480:138|477:196,1,80,8|0,0:3|0:0,0:0:0:0:
426,224,109208,5,0,0:0:0:0:
426,224,109347,2,0,P|431:274|433:367,1,120,2|8,0:3|0:3,0:0:0:0:
363,367,110042,1,8,0:3:0:0:
363,367,110180,2,0,P|313:362|255:359,1,80,2|8,0:0|0:3,0:0:0:0:
287,364,110875,1,8,0:3:0:0:
287,364,111014,2,0,P|288:304|294:259,1,80,2|8,0:0|0:3,0:0:0:0:
146,153,111569,6,0,P|81:148|44:236,1,160,2|8,0:3|0:3,0:0:0:0:
115,312,112264,1,8,0:3:0:0:
115,312,112403,2,0,P|113:252|108:207,1,80,2|8,0:0|0:3,0:0:0:0:
224,176,112958,1,8,3:0:0:0:
227,168,113051,1,8,3:0:0:0:
231,161,113143,1,8,3:0:0:0:
235,154,113236,2,0,P|237:94|242:49,1,80,4|2,3:0|0:3,0:0:0:0:
495,184,113792,6,0,P|421:183|389:298,1,192,4|0,1:0|0:0,0:0:0:0:
454,351,114347,2,0,P|455:317|462:270,1,64,2|0,1:3|0:0,0:0:0:0:
295,257,114625,2,0,P|298:288|299:320,1,64
235,361,114903,2,0,P|166:349|106:352,1,128,0|0,1:0|0:0,0:0:0:0:
96,348,115319,2,0,L|92:280,1,64,0|2,0:0|1:3,0:0:0:0:
34,233,115597,2,0,L|38:165,1,64
1,104,115875,1,0,0:0:0:0:
77,106,116014,6,0,P|147:104|203:211,1,192,4|0,1:2|0:0,0:0:0:0:
240,267,116569,2,0,P|271:262|319:262,1,64,2|0,1:3|0:0,0:0:0:0:
354,204,116847,2,0,P|385:207|431:219,1,64
494,190,117125,2,0,P|465:126|418:93,1,128,0|0,1:0|0:0,0:0:0:0:
289,108,117542,2,0,P|320:111|366:123,1,64,0|2,0:0|1:3,0:0:0:0:
171,66,117819,2,0,P|202:61|250:61,1,64
104,28,118097,1,0,0:0:0:0:
304,29,118236,6,0,P|374:39|458:33,1,128,2|0,1:0|0:0,0:0:0:0:
500,182,118653,1,2,0:1:0:0:
359,163,118792,2,0,P|367:211|370:245,1,64,2|2,1:3|0:1,0:0:0:0:
92,230,119069,1,2,0:1:0:0:
191,272,119208,1,0,0:0:0:0:
102,251,119347,2,0,P|94:299|91:333,1,64,2|0,1:0|0:0,0:0:0:0:
323,330,119625,5,2,0:1:0:0:
289,279,119764,1,2,0:1:0:0:
278,240,119903,1,2,1:3:0:0:
285,209,120042,1,2,0:1:0:0:
284,187,120180,1,2,0:0:0:0:
274,173,120319,1,0,0:1:0:0:
266,168,120458,6,0,L|266:295,1,128,2|4,0:0|3:0,0:0:0:0:
469,204,121708,5,8,1:0:0:0:
376,168,121847,1,8,1:0:0:0:
83,119,121986,5,8,1:0:0:0:
83,119,122055,1,0,1:0:0:0:
83,119,122125,1,8,1:0:0:0:
147,70,122264,1,0,1:0:0:0:
154,147,122403,2,0,L|151:177,1,24,8|0,3:0|0:0,0:0:0:0:
80,199,122680,6,0,P|71:271|69:352,1,128,4|2,1:0|0:0,0:0:0:0:
135,363,123097,1,0,0:0:0:0:
329,363,123236,2,0,P|326:318|321:288,1,64,2|0,1:2|0:0,0:0:0:0:
381,253,123514,2,0,P|384:208|389:178,1,64,2|0,0:0|0:0,0:0:0:0:
344,128,123792,1,10,1:2:0:0:
284,80,123930,1,0,0:0:0:0:
230,134,124069,1,0,0:0:0:0:
288,184,124208,1,0,0:0:0:0:
460,62,124347,5,2,1:2:0:0:
452,138,124486,1,0,0:0:0:0:
473,61,124625,1,2,0:0:0:0:
465,137,124764,1,0,0:0:0:0:
436,225,124903,6,0,P|453:286|500:350,1,128,4|2,1:2|0:0,0:0:0:0:
356,356,125319,1,0,0:0:0:0:
356,356,125458,2,0,P|359:306|360:273,1,64,2|0,1:2|0:0,0:0:0:0:
63,46,125736,6,0,P|64:77|66:109,1,64,2|2,1:0|0:0,0:0:0:0:
66,109,125944,1,2,0:0:0:0:
66,109,126014,2,0,B|282:40|176:262|418:247,1,384,2|2,1:0|1:0,1:0:0:0:
498,190,126986,1,2,0:0:0:0:
477,84,127125,6,0,P|470:145|466:229,1,128,6|2,1:0|0:0,0:0:0:0:
500,278,127542,1,0,0:0:0:0:
335,381,127680,2,0,P|341:343|345:311,1,64,2|0,1:2|0:0,0:0:0:0:
197,213,127958,2,0,P|201:244|206:276,1,64,2|0,0:0|0:0,0:0:0:0:
329,212,128236,6,0,P|342:129|253:71,1,192,10|2,1:2|0:0,0:0:0:0:
203,30,128792,2,0,P|162:35|128:30,1,64,2|0,1:2|0:0,0:0:0:0:
84,78,129069,2,0,P|54:82|18:91,1,64,2|0,0:0|0:0,0:0:0:0:
16,305,129347,6,0,L|64:384,1,64,4|0,1:2|0:0,0:0:0:0:
141,208,129625,2,0,L|47:209,1,64,0|4,0:0|1:2,0:0:0:0:
161,364,129903,2,0,L|206:282,1,64,2|2,1:2|0:0,0:0:0:0:
0,317,130180,6,0,L|48:396,1,64,2|6,0:0|1:2,0:0:0:0:
156,196,130458,1,8,1:2:0:0:
44,212,130597,1,2,1:2:0:0:
175,378,130736,2,0,L|220:296,1,64,0|2,1:0|0:0,0:0:0:0:
356,321,131014,6,0,P|346:254|343:174,1,128,8|8,1:2|1:2,0:0:0:0:
234,36,131430,1,8,1:0:0:0:
287,86,131569,6,0,B|391:62|375:157|494:136,1,192,4|2,1:0|0:0,0:0:0:0:
501,203,132125,2,0,P|491:254|488:293,1,64,4|2,1:2|0:0,0:0:0:0:
293,356,132403,6,0,P|221:341|199:207,1,192,4|2,1:2|0:0,0:0:0:0:
260,173,132958,2,0,P|261:220|257:260,1,64,0|0,1:0|0:0,0:0:0:0:
184,162,133236,2,0,P|183:115|187:75,1,64,4|0,1:2|0:0,0:0:0:0:
139,41,133514,6,0,P|71:51|53:179,1,192,4|2,1:0|0:0,0:0:0:0:
88,216,134069,1,0,1:0:0:0:
76,291,134208,1,2,0:0:0:0:
175,357,134347,2,0,B|237:343|237:343|336:370,1,128,8|0,1:2|1:0,0:0:0:0:
373,346,134764,1,2,0:0:0:0:
510,227,134903,2,0,L|501:148,1,64,2|0,1:2|0:0,0:0:0:0:
357,70,135180,2,0,L|349:133,1,64,2|0,0:0|1:0,0:0:0:0:
427,291,135458,2,0,P|395:230|318:213,1,128,10|2,1:2|1:2,0:0:0:0:
271,243,135875,1,2,0:0:0:0:
86,207,136014,6,0,P|112:115|199:94,1,192,4|2,1:0|0:0,0:0:0:0:
210,165,136569,2,0,P|255:164|292:157,1,64,4|2,1:2|0:0,0:0:0:0:
440,38,136847,2,0,L|424:234,1,192,4|2,1:2|0:0,0:0:0:0:
500,315,137403,2,0,B|516:286|516:286|512:251,1,64,0|2,1:0|0:0,0:0:0:0:
351,177,137680,2,0,B|335:206|335:206|339:241,1,64,4|0,1:2|0:0,0:0:0:0:
277,380,137958,6,0,L|181:369,1,64,4|2,1:0|0:0,0:0:0:0:
46,365,138236,2,0,L|109:372,1,64,4|0,1:2|1:0,0:0:0:0:
249,298,138514,5,10,1:2:0:0:
78,263,138653,1,2,1:2:0:0:
253,198,138792,1,12,1:0:0:0:
253,198,139069,5,12,1:2:0:0:
89,155,139208,1,8,1:0:0:0:
254,100,139347,1,12,1:2:0:0:
87,52,139486,1,8,1:0:0:0:
87,52,139764,5,8,1:2:0:0:
254,4,139903,1,8,1:0:0:0:
398,151,140042,5,8,1:0:0:0:
481,127,140180,2,0,L|482:154,1,24,8|0,1:2|0:0,0:0:0:0:
501,232,140459,5,4,1:0:0:0:
501,232,140597,2,0,P|414:252|402:326,1,170.666666666667,0|0,1:0|0:0,0:0:0:0:
319,376,141014,2,0,P|323:321|324:269,1,85.3333333333333,0|0,1:0|0:0,0:0:0:0:
221,149,141292,1,8,1:0:0:0:
164,204,141431,2,0,P|165:247|169:290,1,85.3333333333333,0|0,1:0|0:0,0:0:0:0:
272,227,141709,1,0,0:0:0:0:
317,164,141847,2,0,P|313:121|312:78,1,85.3333333333333,0|0,1:0|0:0,0:0:0:0:
16,149,142125,6,0,B|-1:188|-1:188|12:239,1,85.3333333333333,2|0,1:3|0:0,0:0:0:0:
0,305,142403,2,0,L|210:291,1,170.666666666667,8|4,1:2|1:2,0:0:0:0:
351,343,142820,1,0,1:0:0:0:
394,278,142959,2,0,L|486:272,1,85.3333333333333,8|0,1:0|0:0,0:0:0:0:
317,274,143236,5,2,1:2:0:0:
197,214,143375,1,2,0:2:0:0:
316,193,143514,1,4,1:2:0:0:
404,164,143653,1,0,1:2:0:0:
220,110,143792,5,4,1:0:0:0:
220,110,143931,2,0,L|227:290,1,170.666666666667,0|0,1:0|0:0,0:0:0:0:
308,111,144347,2,0,B|318:70|318:70|300:24,1,85.3333333333333,0|0,1:0|0:0,0:0:0:0:
90,145,144625,1,8,1:0:0:0:
92,219,144764,2,0,B|82:260|82:260|100:306,1,85.3333333333333,0|0,1:0|0:0,0:0:0:0:
312,353,145042,1,0,0:0:0:0:
397,297,145181,1,0,1:0:0:0:
305,250,145320,1,0,0:0:0:0:
215,364,145459,6,0,L|222:276,1,85.3333333333333,2|0,1:3|0:0,0:0:0:0:
382,200,145736,2,0,P|395:140|509:117,1,170.666666666667,8|4,1:2|1:2,0:0:0:0:
500,206,146153,1,0,1:0:0:0:
288,198,146292,2,0,L|191:194,1,85.3333333333333,8|0,1:0|0:0,0:0:0:0:
79,52,146570,5,2,1:0:0:0:
56,151,146709,1,0,1:0:0:0:
232,101,146847,5,2,1:0:0:0:
255,2,146986,1,2,1:0:0:0:
441,73,147125,6,0,B|506:195|506:195|459:325,1,256,4|0,1:0|1:0,0:0:0:0:
387,371,147681,2,0,L|388:270,1,85.3333333333333,0|0,1:0|0:0,0:0:0:0:
323,236,147959,5,8,1:0:0:0:
236,259,148097,1,2,0:0:0:0:
157,157,148236,1,2,0:0:0:0:
276,166,148375,1,4,1:2:0:0:
368,69,148514,1,0,1:0:0:0:
236,94,148653,1,0,1:0:0:0:
65,41,148792,6,0,L|79:305,1,256,4|0,1:0|1:0,0:0:0:0:
165,361,149347,2,0,B|178:320|178:320|165:279,1,85.3333333333333,0|0,1:0|0:0,0:0:0:0:
234,109,149625,1,8,1:0:0:0:
308,95,149764,1,2,0:0:0:0:
241,262,149903,1,2,0:0:0:0:
192,204,150042,1,4,1:2:0:0:
367,171,150181,1,0,1:0:0:0:
341,243,150320,1,2,3:0:0:0:
341,243,150389,1,2,3:0:0:0:
341,243,150459,6,0,P|339:161|492:80,1,256,4|0,1:0|0:0,0:0:0:0:
504,143,151014,2,0,P|498:192|496:241,1,85.3333333333333,0|0,1:0|1:0,0:0:0:0:
109,350,151292,6,0,P|83:310|49:273,1,85.3333333333333,8|0,1:0|0:0,0:0:0:0:
88,181,151570,2,0,P|135:178|184:167,1,85.3333333333333,4|0,1:2|0:0,0:0:0:0:
244,247,151847,2,0,P|222:289|207:337,1,85.3333333333333,4|0,1:2|0:0,0:0:0:0:
6,194,152125,5,8,1:2:0:0:
9,168,152264,1,2,0:0:0:0:
12,142,152403,1,2,0:0:0:0:
15,116,152542,1,0,1:0:0:0:
253,16,152681,5,8,1:0:0:0:
244,92,152820,1,8,1:0:0:0:
506,194,152959,5,8,1:2:0:0:
500,143,153098,1,10,1:3:0:0:
493,92,153237,1,8,1:0:0:0:
484,41,153375,1,8,1:0:0:0:
251,173,153514,6,0,L|258:236,2,42.6666666666667,2|2|2,3:0|3:0|3:0,0:0:0:0:
232,360,153792,5,4,1:0:0:0:
232,360,153931,2,0,P|217:297|125:262,1,170.666666666667,0|0,1:0|0:0,0:0:0:0:
51,251,154347,2,0,P|53:298|50:345,1,85.3333333333333,0|0,1:0|0:0,0:0:0:0:
150,152,154625,1,8,1:0:0:0:
217,180,154764,2,0,P|296:159|323:81,1,170.666666666667,0|0,1:0|0:0,0:0:0:0:
276,13,155181,1,0,1:0:0:0:
238,86,155320,1,0,0:0:0:0:
483,181,155459,6,0,B|498:223|498:223|482:269,1,85.3333333333333,2|0,1:3|0:0,0:0:0:0:
395,352,155736,2,0,L|404:167,1,170.666666666667,8|4,1:2|1:2,0:0:0:0:
299,209,156153,1,0,1:0:0:0:
308,282,156292,2,0,B|294:320|294:320|309:362,1,85.3333333333333,8|0,1:0|0:0,0:0:0:0:
186,318,156570,5,2,1:2:0:0:
108,336,156709,1,2,1:2:0:0:
90,258,156847,1,2,1:2:0:0:
176,247,156986,1,2,3:0:0:0:
176,247,157056,1,2,3:0:0:0:
176,247,157125,1,4,1:0:0:0:
11,191,157264,6,0,P|13:146|11:91,1,85.3333333333333,0|0,1:0|0:0,0:0:0:0:
225,12,157542,1,0,1:0:0:0:
289,69,157681,2,0,P|287:114|289:169,1,85.3333333333333,2|0,1:0|0:0,0:0:0:0:
117,182,157959,1,8,1:0:0:0:
240,224,158097,2,0,P|312:261|318:343,1,170.666666666667,0|2,1:0|0:1,0:0:0:0:
169,349,158514,2,0,P|164:308|165:250,1,85.3333333333333,2|0,1:0|0:0,0:0:0:0:
66,328,158792,6,0,P|119:288|128:172,1,170.666666666667,4|0,1:0|1:0,0:0:0:0:
73,142,159209,1,0,1:0:0:0:
147,26,159347,2,0,P|142:67|143:125,1,85.3333333333333,0|0,0:0|1:0,0:0:0:0:
419,130,159625,2,0,P|428:233|431:305,1,170.666666666667,8|0,1:0|0:0,0:0:0:0:
255,368,160042,5,8,1:0:0:0:
278,241,160181,1,2,1:3:0:0:
247,338,160320,1,4,0:0:0:0:
206,211,160459,6,0,P|203:150|195:95,1,106.666666666667,4|2,1:0|0:0,0:0:0:0:
239,44,160875,1,2,1:3:0:0:
239,44,161014,2,0,P|280:43|308:41,1,53.3333333333333,2|2,0:0|1:3,0:0:0:0:
347,93,161292,2,0,P|404:93|470:88,1,106.666666666667,8|2,1:0|0:0,0:0:0:0:
494,162,161709,1,2,1:3:0:0:
494,162,161847,2,0,L|488:221,1,53.3333333333333,2|2,0:0|1:3,0:0:0:0:
450,281,162125,6,0,P|421:255|352:255,1,106.666666666667,8|2,1:2|0:1,0:0:0:0:
287,280,162542,2,0,L|295:344,1,53.3333333333333,2|2,1:1|0:1,0:0:0:0:
236,376,162820,1,2,1:1:0:0:
236,376,162959,2,2,P|191:354|168:236,1,160,10|0,1:0|1:0,0:1:0:0:
96,212,163514,2,0,P|72:212|56:216,2,26.6666666666667,2|2|2,3:0|3:0|3:0,0:0:0:0:
169,177,163792,6,0,P|186:119|225:93,1,106.666666666667,4|2,1:0|0:0,0:0:0:0:
290,131,164209,1,0,1:3:0:0:
290,131,164347,2,0,L|361:133,1,53.3333333333333,2|2,0:0|1:3,0:0:0:0:
407,95,164625,2,0,P|459:131|472:171,1,106.666666666667,8|2,1:0|0:0,0:0:0:0:
416,221,165042,1,2,1:3:0:0:
416,221,165181,2,0,L|427:293,1,53.3333333333333,2|2,0:0|1:3,0:0:0:0:
374,334,165459,6,0,P|312:328|267:237,1,160,8|2,1:2|1:3,0:0:0:0:
202,208,166014,2,0,P|199:164|192:133,1,53.3333333333333,2|2,0:0|1:3,0:0:0:0:
182,27,166292,5,8,1:0:0:0:
267,84,166431,1,8,1:0:0:0:
139,93,166570,1,2,1:3:0:0:
65,21,166709,1,8,1:2:0:0:
182,27,166847,1,10,1:3:0:0:
267,84,166986,1,8,1:2:0:0:
139,93,167125,6,0,P|74:101|34:193,1,160,12|0,1:2|1:0,0:0:0:0:
90,230,167681,2,0,L|90:311,1,53.3333333333333,0|0,1:0|1:0,0:0:0:0:
122,350,167959,2,0,P|187:342|227:250,1,160,8|2,1:0|3:0,0:0:0:0:
324,144,168514,2,0,B|315:175|315:175|323:208,1,53.3333333333333,8|8,1:3|1:3,0:0:0:0:
410,356,168792,6,0,L|413:261,1,85.3333333333333,4|2,1:0|0:0,0:0:0:0:
404,46,169625,5,8,1:0:0:0:
397,200,169764,1,8,1:0:0:0:
332,37,169903,1,8,1:0:0:0:
440,142,170042,1,2,1:3:0:0:
260,272,170181,5,8,1:2:0:0:
240,163,170320,1,10,1:3:0:0:
246,255,170459,1,8,1:2:0:0:
8,201,170771,6,0,P|14:138|11:69,1,106.666666666667,2|2,1:0|0:1,0:0:0:0:
175,15,171048,2,0,P|169:78|172:147,1,106.666666666667,2|2,1:0|0:1,0:0:0:0:
249,355,171326,2,2,P|242:244|148:212,1,213.333333333333,6|0,1:0|0:0,1:1:0:0:
92,248,171742,2,0,P|94:303|90:363,1,106.666666666667,2|0,1:0|0:0,0:0:0:0:
166,372,172020,1,2,0:1:0:0:
341,263,172159,6,0,P|423:268|469:382,1,213.333333333333,10|0,1:0|0:0,0:0:0:0:
297,329,172576,1,2,1:0:0:0:
261,259,172714,1,2,1:0:0:0:
303,192,172853,1,4,1:2:0:0:
465,193,172992,2,0,P|457:102|326:65,1,213.333333333333,6|0,1:0|0:0,0:0:0:0:
225,129,173409,5,2,1:2:0:0:
105,142,173548,1,2,1:2:0:0:
37,46,173687,1,2,1:2:0:0:
158,49,173826,2,0,L|145:248,1,160,8|2,1:0|2:0,0:0:0:0:
111,282,174103,2,0,B|193:272|156:346|263:338,1,160,8|2,1:0|2:0,0:0:0:0:
332,312,174381,2,0,B|312:260|312:260|330:203,1,106.666666666667,8|2,1:0|0:0,0:0:0:0:
402,197,174659,6,2,P|405:109|193:28,1,320,6|0,1:0|0:0,1:0:0:0:
248,85,175214,2,0,P|247:136|240:202,1,106.666666666667,10|0,1:0|0:0,0:0:0:0:
96,350,175492,5,8,1:0:0:0:
53,288,175631,1,2,1:0:0:0:
136,269,175770,1,10,1:0:0:0:
171,340,175909,1,8,1:3:0:0:
59,280,176048,1,10,1:0:0:0:
177,332,176187,1,8,1:3:0:0:
376,329,176326,5,8,1:2:0:0:
254,276,176464,1,10,1:0:0:0:
356,227,176603,5,8,0:2:0:0:
508,189,176742,1,10,1:0:0:0:
139,102,176881,5,10,1:0:0:0:
306,120,177020,1,10,1:0:0:0:
241,12,177159,2,2,L|223:234,1,213.333333333333,6|0,1:0|0:0,1:0:0:0:
118,325,177576,5,2,1:0:0:0:
90,219,177714,1,2,1:0:0:0:
322,271,177853,1,2,1:0:0:0:
294,377,177992,2,0,P|341:364|420:372,1,106.666666666667,10|0,1:0|0:0,0:0:0:0:
496,200,178270,5,2,1:0:0:0:
349,244,178409,1,2,1:0:0:0:
280,114,178548,5,2,1:0:0:0:
387,136,178687,1,2,1:0:0:0:
236,225,178825,6,0,P|173:231|128:260,1,106.666666666667,4|0,1:0|0:0,0:0:0:0:
19,89,179103,1,2,1:0:0:0:
97,67,179242,2,0,P|142:101|167:171,1,106.666666666667,2|0,1:0|0:0,0:0:0:0:
169,358,179520,1,2,1:0:0:0:
281,370,179659,2,0,P|321:328|345:272,1,106.666666666667,10|0,1:0|0:0,0:0:0:0:
323,135,179937,5,2,1:0:0:0:
462,177,180076,1,2,1:0:0:0:
259,241,180214,5,10,1:0:0:0:
249,49,180353,1,10,1:0:0:0:
445,68,180492,6,0,L|419:294,1,213.333333333333,6|2,1:0|1:0,0:0:0:0:
350,356,180909,1,8,1:3:0:0:
208,319,181048,1,10,1:0:0:0:
138,252,181186,5,8,1:3:0:0:
301,198,181326,2,0,B|285:146|285:146|300:88,1,106.666666666667,10|0,1:0|0:0,0:0:0:0:
59,23,181603,5,8,1:2:0:0:
106,78,181742,2,2,L|93:201,1,106.666666666667,10|8,1:0|1:2,1:0:0:0:
467,287,182020,5,10,1:0:0:0:
363,361,182159,2,2,L|374:254,1,106.666666666667,6|8,1:0|1:0,1:0:0:0:
195,95,182436,6,2,B|248:80|248:80|298:95,1,106.666666666667,2|8,1:0|1:0,1:0:0:0:
447,59,182714,5,10,1:0:0:0:
470,188,182853,1,8,1:2:0:0:
269,297,182992,5,10,1:0:0:0:
284,170,183131,1,8,1:0:0:0:
75,152,183270,5,8,1:0:0:0:
153,352,183409,1,8,1:0:0:0:
189,272,183548,1,0,1:0:0:0:
39,232,183687,1,0,1:0:0:0:
114,252,183826,6,0,L|126:72,1,170.666666666667,4|0,1:0|0:0,0:0:0:0:
252,92,184242,5,0,1:0:0:0:
376,158,184381,1,0,0:0:0:0:
352,66,184520,1,0,1:0:0:0:
280,201,184659,2,0,L|291:371,1,170.666666666667,8|0,1:0|0:0,0:0:0:0:
500,191,185076,5,0,1:0:0:0:
448,141,185214,2,0,L|453:55,1,85.3333333333333,0|0,1:0|0:0,0:0:0:0:
203,207,185492,2,0,B|104:209|146:154|32:159,1,170.666666666667,4|0,1:2|0:0,0:0:0:0:
146,284,185909,1,0,1:0:0:0:
228,282,186048,2,0,B|215:326|215:326|229:389,1,85.3333333333333,0|0,0:0|1:0,0:0:0:0:
474,308,186326,6,0,P|448:216|369:196,1,170.666666666667,8|0,1:0|0:0,0:0:0:0:
385,339,186742,2,0,L|287:332,1,85.3333333333333,0|0,1:0|1:0,0:0:0:0:
168,107,187020,1,0,0:0:0:0:
219,157,187159,2,0,L|304:163,1,85.3333333333333,4|0,1:0|0:0,0:0:0:0:
455,87,187437,1,0,0:0:0:0:
377,47,187576,1,0,1:0:0:0:
309,80,187714,1,0,0:0:0:0:
222,43,187853,1,0,1:0:0:0:
61,68,187992,6,0,B|15:144|15:144|45:255,2,170.666666666667,8|0|0,1:0|1:0|0:0,0:0:0:0:
134,210,188687,1,0,1:0:0:0:
94,277,188826,2,0,L|86:373,1,85.3333333333333,4|0,1:2|0:0,0:0:0:0:
255,240,189103,2,0,L|247:154,1,85.3333333333333,0|0,0:0|1:0,0:0:0:0:
407,205,189381,5,0,0:0:0:0:
473,258,189520,1,0,1:0:0:0:
396,288,189659,1,8,1:0:0:0:
481,171,189798,1,8,1:3:0:0:
460,338,189937,1,2,1:3:0:0:
333,238,190076,1,8,1:3:0:0:
354,71,190214,1,2,1:3:0:0:
388,147,190353,1,2,3:0:0:0:
388,147,190423,1,2,3:0:0:0:
388,147,190492,6,0,B|290:121|310:190|216:175,1,170.666666666667,4|0,1:0|0:0,0:0:0:0:
85,242,190909,2,0,L|179:231,1,85.3333333333333,0|0,1:0|0:0,0:0:0:0:
46,138,191187,1,0,1:0:0:0:
291,34,191326,6,0,P|138:85|125:175,1,256,8|0,1:0|1:0,0:0:0:0:
328,127,191881,2,0,P|364:135|402:174,1,85.3333333333333,0|0,1:0|0:0,0:0:0:0:
256,191,192159,2,0,P|195:247|200:330,1,170.666666666667,4|0,1:2|0:0,0:0:0:0:
295,357,192576,1,0,1:0:0:0:
362,319,192714,1,0,0:0:0:0:
297,278,192853,1,0,1:0:0:0:
455,362,192992,6,0,P|456:262|472:179,1,170.666666666667,8|0,1:0|0:0,0:0:0:0:
296,35,193409,1,0,1:0:0:0:
251,91,193548,2,0,P|251:136|245:180,1,85.3333333333333,0|0,1:0|0:0,0:0:0:0:
14,202,193826,2,0,B|122:195|70:260|183:254,1,170.666666666667,4|0,1:2|0:0,0:0:0:0:
332,188,194242,1,2,1:3:0:0:
287,251,194381,2,0,P|287:296|293:340,1,85.3333333333333,2|2,0:0|1:3,0:0:0:0:
406,231,194659,6,0,P|408:141|389:50,2,170.666666666667,8|2|2,1:0|1:3|1:3,0:0:0:0:
192,347,195353,5,8,1:0:0:0:
81,113,195492,6,0,P|184:71|244:205,1,256,4|2,1:0|0:0,0:0:0:0:
184,212,196048,2,0,P|181:258|173:304,1,85.3333333333333,8|0,1:0|1:0,0:0:0:0:
498,202,196326,6,0,B|390:195|442:260|329:254,1,170.666666666667,4|2,1:0|0:0,0:0:0:0:
79,135,196742,5,8,1:0:0:0:
145,358,196881,1,10,0:3:0:0:
301,25,197159,6,0,P|290:67|318:242,1,213.333333333333,4|0,1:0|0:0,0:0:0:0:
479,292,198826,1,2,0:0:0:0:
479,292,199381,2,0,P|491:232|474:160,1,128,2|0,0:0|0:0,0:0:0:0:
345,354,200492,6,0,P|300:352|165:242,1,213.333333333333,2|2,0:0|0:0,0:0:0:0:
120,197,202159,2,0,P|78:201|31:215,1,85.3333333333333,2|0,0:0|0:0,0:0:0:0:
2,278,202992,2,0,P|3:314|8:338,2,42.6666666666667,2|2|2,0:0|0:0|0:0,0:0:0:0:
27,140,203826,6,2,P|75:136|170:134,1,128,2|4,0:0|0:0,0:0:0:0:
220,181,205492,2,2,P|283:179|347:174,1,128,2|4,0:0|0:0,0:0:0:0:
506,200,206951,1,2,0:0:0:0:
506,200,207055,1,2,0:0:0:0:
506,200,207159,2,0,P|452:215|428:328,1,170.666666666667,4|2,1:2|0:0,0:0:0:0:
318,336,207992,6,0,L|218:331,2,85.3333333333333,0|2|2,1:0|0:0|0:0,0:0:0:0:
179,273,208826,2,0,P|120:275|67:372,1,170.666666666667,0|2,1:0|0:0,0:0:0:0:
7,218,209659,6,0,L|12:151,1,64,4|4,0:0|1:0,0:0:0:0:
429,92,210770,5,8,1:0:0:0:
326,26,210909,1,10,1:3:0:0:
323,140,211048,1,10,1:3:0:0:
479,323,211187,5,8,1:2:0:0:
500,247,211326,2,0,L|509:156,1,85.3333333333333,4|8,1:2|1:0,0:0:0:0:
200,357,211603,5,8,1:0:0:0:
284,343,211742,1,0,1:0:0:0:
368,329,211881,1,8,1:2:0:0:
163,222,212020,5,10,1:3:0:0:
83,178,212159,2,0,B|69:218|69:218|80:262,1,85.3333333333333,12|2,1:0|0:0,0:0:0:0:
245,265,212437,2,0,B|259:225|259:225|248:181,1,85.3333333333333,8|2,1:0|0:0,0:0:0:0:
189,38,212714,1,8,1:0:0:0:
176,130,212853,1,8,1:2:0:0:
323,243,212992,5,8,1:0:0:0:
488,305,213131,1,8,0:2:0:0:
465,172,213270,5,8,1:0:0:0:
340,225,213409,1,8,0:2:0:0:
373,99,213548,5,8,1:0:0:0:
454,152,213687,1,8,1:0:0:0:
308,144,213826,6,0,P|292:144|254:141,1,53.3333333333333,2|0,0:0|0:0,0:0:0:0:
166,121,214285,1,2,0:0:0:0:
166,121,214419,2,0,P|166:137|166:170,1,40,2|0,0:0|0:0,0:0:0:0:
139,264,214702,1,2,0:0:0:0:
139,264,214894,2,0,P|176:261|248:258,1,80,2|0,0:0|0:0,0:0:0:0:
294,312,215275,1,2,0:0:0:0:
298,315,215551,6,0,P|297:263|305:195,1,106.666666666667,2|2,0:0|0:0,0:0:0:0:
381,109,216185,1,2,0:0:0:0:
456,112,216409,2,0,P|448:151|447:191,1,80,2|0,0:0|0:0,0:0:0:0:
391,250,217149,5,2,0:0:0:0:
391,250,217327,2,0,P|386:291|383:349,1,80,2|0,0:0|0:0,0:0:0:0:
314,361,217721,1,2,0:0:0:0:
314,361,217984,1,2,0:0:0:0:
238,369,218176,2,0,P|192:371|156:376,1,80,2|0,0:0|0:0,0:0:0:0:
86,368,218530,1,2,0:0:0:0:
86,368,218815,6,0,B|85:367|79:328|79:302,1,53.3333333333333,2|0,0:0|0:0,0:0:0:0:
3,315,219123,2,0,P|10:249|7:178,1,120,2|2,0:0|0:0,0:0:0:0:
9,196,219650,5,12,1:0:0:0:
126,180,219788,1,8,1:2:0:0:
266,223,219927,1,10,1:3:0:0:
366,183,220066,1,10,1:3:0:0:
216,101,220205,1,8,1:0:0:0:
168,306,220344,1,8,1:0:0:0:
380,346,220483,6,0,L|514:358,1,128,12|2,1:0|2:0,0:0:0:0:
328,289,220761,2,0,B|317:245|317:245|337:189,1,85.3333333333333,8|0,1:0|0:0,0:0:0:0:
397,162,221038,1,8,1:0:0:0:
384,79,221177,1,8,1:0:0:0:
185,32,221316,6,0,L|171:207,1,170.666666666667,4|2,1:0|0:0,0:0:0:0:
9,261,221733,1,8,1:0:0:0:
38,165,221872,1,8,1:0:0:0:
188,356,222011,1,8,1:0:0:0:
188,356,222080,1,0,0:0:0:0:
188,356,222150,2,0,B|232:345|232:345|288:365,1,85.3333333333333,12|2,1:0|0:0,0:0:0:0:
459,245,222427,5,8,1:2:0:0:
273,275,222566,1,8,1:0:0:0:
177,117,222705,1,8,1:0:0:0:
363,147,222844,1,8,1:0:0:0:
210,215,222983,6,0,L|223:44,1,170.666666666667,4|2,1:0|0:0,0:0:0:0:
466,78,223400,1,8,1:0:0:0:
349,27,223538,1,8,1:0:0:0:
439,99,223677,1,8,1:0:0:0:
318,227,223816,6,0,P|252:232|211:321,1,170.666666666667,4|0,1:0|0:0,0:0:0:0:
372,368,224233,2,0,P|369:325|377:263,1,85.3333333333333,8|2,1:0|0:3,0:0:0:0:
425,232,224511,1,8,1:0:0:0:
133,184,224650,6,0,P|56:156|41:76,2,170.666666666667,4|0|0,1:0|1:0|1:0,0:0:0:0:
188,125,225344,1,0,0:0:0:0:
344,55,225483,5,8,1:2:0:0:
467,116,225622,1,0,1:0:0:0:
320,129,225761,1,8,1:0:0:0:
421,205,225900,5,8,1:0:0:0:
298,266,226039,1,8,1:2:0:0:
445,279,226178,1,8,1:0:0:0:
208,207,226316,5,8,1:2:0:0:
171,322,226455,1,8,1:0:0:0:
196,200,226594,1,8,1:0:0:0:
159,315,226733,1,8,1:0:0:0:
19,192,226872,5,8,1:0:0:0:
21,179,226941,1,0,1:0:0:0:
23,166,227011,1,8,1:0:0:0:
25,153,227080,1,0,1:0:0:0:
28,140,227150,1,12,1:0:0:0:
120,122,227288,6,0,P|188:121|216:9,1,191.999994140625,0|0,1:0|1:0,0:0:0:0:
361,180,227705,2,0,L|252:167,1,95.9999970703126,4|0,0:3|1:0,0:0:0:0:
97,261,227983,1,8,1:0:0:0:
149,323,228122,2,0,L|256:337,1,95.9999970703126,0|4,1:0|0:3,0:0:0:0:
499,310,228400,1,0,1:0:0:0:
382,264,228538,1,0,1:0:0:0:
406,384,228677,1,0,0:0:0:0:
486,293,228816,6,0,P|479:199|492:136,1,95.9999970703126,4|0,1:3|0:0,0:0:0:0:
267,197,229094,2,0,P|266:100|254:0,1,191.999994140625,0|4,1:0|0:3,0:0:0:0:
23,153,229511,1,0,1:0:0:0:
1,221,229650,2,0,P|7:273|4:337,1,95.9999970703126,8|0,1:0|0:0,0:0:0:0:
195,331,229927,1,4,1:3:0:0:
295,363,230066,1,0,1:0:0:0:
365,288,230205,1,0,1:0:0:0:
265,256,230344,1,2,3:0:0:0:
265,256,230413,1,2,3:0:0:0:
265,256,230483,1,4,1:3:0:0:
306,181,230622,6,0,P|318:108|436:80,1,191.999994140625,0|0,1:0|1:0,0:0:0:0:
498,167,231038,1,4,1:3:0:0:
489,239,231177,1,0,1:0:0:0:
163,241,231316,1,8,1:0:0:0:
166,165,231455,2,0,L|51:171,1,95.9999970703126,0|4,1:0|0:3,0:0:0:0:
217,52,231733,1,0,1:0:0:0:
284,17,231872,1,0,1:0:0:0:
340,69,232011,1,0,0:0:0:0:
256,200,232150,6,0,B|244:250|244:250|258:301,1,95.9999970703126,4|0,1:3|0:0,0:0:0:0:
256,372,232427,1,0,1:0:0:0:
488,185,232566,2,0,L|371:188,1,95.9999970703126,0|4,1:0|0:3,0:0:0:0:
256,116,232844,1,0,1:0:0:0:
0,190,232983,2,0,B|96:162|76:257|190:236,1,191.999994140625,8|12,1:0|1:3,0:0:0:0:
336,325,233400,5,10,1:3:0:0:
450,349,233538,1,8,1:3:0:0:
353,319,233677,1,8,1:0:0:0:
259,196,233816,6,0,P|261:139|257:88,1,106.666666666667,4|2,1:0|0:0,0:0:0:0:
191,52,234233,1,2,1:3:0:0:
191,52,234372,2,0,P|152:51|126:47,1,53.3333333333333,2|2,0:0|1:3,0:0:0:0:
259,14,234650,2,0,B|320:15|300:36|365:36,1,106.666666666667,8|2,1:0|0:0,0:0:0:0:
439,25,235066,1,2,1:3:0:0:
439,25,235205,2,0,P|438:64|434:90,1,53.3333333333333,2|2,0:0|1:3,0:0:0:0:
382,128,235483,6,0,P|381:187|418:241,1,106.666666666667,8|2,1:2|1:0,0:0:0:0:
477,256,235900,1,2,1:0:0:0:
477,256,236038,2,0,L|456:320,1,53.3333333333333,2|2,1:0|0:1,0:0:0:0:
495,373,236316,1,10,1:0:0:0:
495,373,236594,5,0,0:0:0:0:
421,332,236733,1,2,0:0:0:0:
338,331,236872,1,0,1:0:0:0:
261,384,237011,1,0,1:0:0:0:
114,335,237150,6,0,P|115:281|111:215,1,106.666666666667,4|2,1:0|0:0,0:0:0:0:
49,191,237566,1,2,1:3:0:0:
49,191,237705,2,0,P|48:152|49:128,1,53.3333333333333,2|2,0:0|1:3,0:0:0:0:
106,85,237983,2,0,P|156:82|195:34,1,106.666666666667,8|2,1:0|0:0,0:0:0:0:
261,6,238400,1,2,1:3:0:0:
261,6,238538,1,2,0:0:0:0:
261,6,238677,1,2,1:3:0:0:
313,70,238816,6,0,P|306:124|304:184,1,106.666666666667,8|2,1:2|0:0,0:0:0:0:
373,226,239233,1,2,1:3:0:0:
373,226,239372,2,0,P|403:224|440:223,1,53.3333333333333,2|2,0:0|1:3,0:0:0:0:
295,253,239650,2,0,P|307:314|309:370,1,106.666666666667,8|2,1:0|0:0,0:0:0:0:
179,342,240066,1,8,1:2:0:0:
129,283,240205,1,10,1:3:0:0:
200,267,240344,1,14,1:2:0:0:
101,350,240483,6,0,P|104:283|99:238,1,106.666666666667,4|2,1:0|0:0,0:0:0:0:
35,191,240900,2,0,P|34:154|33:123,1,53.3333333333333,0|0,1:0|0:0,0:0:0:0:
65,69,241177,1,0,1:0:0:0:
79,79,241316,1,8,1:0:0:0:
118,99,241455,1,10,1:3:0:0:
202,116,241594,5,8,1:2:0:0:
287,91,241733,5,8,1:0:0:0:
380,79,241872,5,8,1:2:0:0:
481,118,242011,5,8,1:0:0:0:
329,305,242150,6,0,P|321:222|324:166,1,128,4|2,1:0|0:0,0:0:0:0:
16,193,243816,6,0,P|10:247|8:305,1,95.9999970703126,2|0,0:0|3:0,0:0:0:0:
8,288,244556,1,2,0:0:0:0:
186,363,244927,2,0,P|188:336|190:306,1,47.9999985351563,2|0,0:0|3:0,0:0:0:0:
189,315,245343,1,2,0:0:0:0:
189,315,245621,1,2,0:0:0:0:
164,145,246038,6,0,P|166:99|165:81,1,47.9999985351563,2|0,0:0|3:0,0:0:0:0:
165,97,246454,2,0,P|211:99|229:98,1,47.9999985351563,2|0,0:0|3:0,0:0:0:0:
377,196,247149,1,2,0:0:0:0:
377,196,247704,5,2,0:0:0:0:
377,196,248260,6,0,P|366:233|360:275,1,71.9999978027344,4|0,0:0|3:0,0:0:0:0:
360,265,248954,1,2,0:0:0:0:
159,240,249371,2,0,P|184:243|219:249,1,47.9999985351563,2|0,0:0|3:0,0:0:0:0:
206,246,249788,2,0,P|209:220|215:186,1,47.9999985351563,2|0,0:0|3:0,0:0:0:0:
337,28,250482,6,0,L|333:52,3,15.9999995117188,2|2|2|2,0:0|0:0|0:0|0:0,0:0:0:0:
