osu file format v14

[General]
AudioFilename: audio.mp3
AudioLeadIn: 0
PreviewTime: 140319
Countdown: 0
SampleSet: Soft
StackLeniency: 0.7
Mode: 0
LetterboxInBreaks: 0
WidescreenStoryboard: 0

[Editor]
Bookmarks: 205492
DistanceSpacing: 1
BeatDivisor: 6
GridSize: 4
TimelineZoom: 0.9

[Metadata]
Title:Here
TitleUnicode:Here
Artist:JUNNA
ArtistUnicode:JUNNA
Creator:Mirash
Version:Easy
Source:魔法使いの嫁
Tags:PandaHero Testo the ancient magus' bride mahoutsukai no yome opening op
BeatmapID:1572025
BeatmapSetID:737103

[Difficulty]
HPDrainRate:3
CircleSize:3
OverallDifficulty:3
ApproachRate:3
SliderMultiplier:0.999999999999998
SliderTickRate:1

[Events]
//Background and Video events
0,0,"sinii.jpg",0,0
//Break Periods
2,8833,11519
2,100458,103463
2,197359,202386
2,213826,218210
//Storyboard Layer 0 (Background)
//Storyboard Layer 1 (Fail)
//Storyboard Layer 2 (Pass)
//Storyboard Layer 3 (Foreground)
//Storyboard Sound Samples

[TimingPoints]
1323,555.555555555556,3,2,1,50,1,0
1582,555.555555555556,3,2,1,50,1,0
2156,555.555555555556,3,2,1,50,1,0
2415,555.555555555556,3,2,1,50,1,0
2989,576.923076923077,3,2,1,50,1,0
2989,-100,3,2,1,50,0,0
4625,555.555555555556,3,2,1,50,1,0
6291,-100,3,2,1,50,0,0
7958,875.912408759124,3,2,1,10,1,0
8833,833.333333333333,3,2,1,40,1,0
8833,-100,3,2,1,40,0,0
12959,555.555555555556,3,2,1,40,1,0
12959,-100,3,2,1,40,0,0
13516,555.555555555556,4,2,1,60,1,0
19256,-100,4,2,1,60,0,0
19627,-100,4,2,1,60,0,0
19997,-100,4,2,1,60,0,0
22404,-100,4,2,1,50,0,0
30460,-100,4,2,1,50,0,0
31293,-100,4,2,1,50,0,0
37404,-100,4,2,1,40,0,0
37543,-100,4,2,1,30,0,0
37682,-100,4,2,1,20,0,0
37821,-100,4,2,1,10,0,0
37960,-100,4,2,1,15,0,0
39071,-100,4,2,1,40,0,0
39210,-100,4,2,1,70,0,0
40113,-100,4,2,1,20,0,0
40182,-100,4,2,1,60,0,0
53377,-100,4,2,1,50,0,0
53516,-100,4,2,1,60,0,0
57682,-100,4,2,1,50,0,0
57891,-100,4,2,1,20,0,0
57960,833.333333333333,2,2,1,70,1,0
58098,-66.6666666666667,4,2,1,70,0,0
61015,-66.6666666666667,4,2,2,70,0,0
61293,-66.6666666666667,4,2,1,70,0,0
67682,-66.6666666666667,4,2,2,70,0,0
67960,-66.6666666666667,4,2,1,70,0,0
71015,-66.6666666666667,4,2,2,70,0,0
71293,-66.6666666666667,4,2,1,70,0,0
77960,-66.6666666666667,4,2,1,60,0,0
81015,-66.6666666666667,4,2,2,60,0,0
81293,-66.6666666666667,4,2,1,60,0,0
86293,-66.6666666666667,4,2,1,40,0,0
87960,555.555555555556,4,2,1,50,1,0
88098,-100,4,2,1,40,0,0
89904,555.555555555556,4,2,1,50,1,0
90042,-100,4,2,1,40,0,0
91848,555.555555555556,4,2,1,50,1,0
91986,-100,4,2,1,40,0,0
93792,555.555555555556,4,2,1,50,1,0
96014,-100,4,2,1,50,0,0
105736,-100,4,2,1,40,0,0
113236,-100,4,2,1,10,0,0
113375,-100,4,2,1,40,0,0
113792,-100,4,2,1,50,0,0
120458,-100,4,2,1,50,0,0
121708,-100,4,2,1,70,0,0
122611,-100,4,2,1,20,0,0
122680,-100,4,2,1,60,0,0
140180,-100,4,2,1,50,0,0
140389,-100,4,2,1,20,0,0
140459,833.333333333333,2,2,1,70,1,0
140597,-66.6666666666667,4,2,1,70,0,0
150320,-66.6666666666667,4,2,2,70,0,0
150459,-66.6666666666667,4,2,1,70,0,0
153514,-66.6666666666667,4,2,2,70,0,0
153792,-66.6666666666667,4,2,1,70,0,0
156986,-66.6666666666667,4,2,2,70,0,0
157125,-66.6666666666667,4,2,1,70,0,0
160459,-66.6666666666667,4,2,1,60,0,0
163514,-66.6666666666667,4,2,2,60,0,0
163792,-66.6666666666667,4,2,1,60,0,0
168792,-66.6666666666667,4,2,1,50,0,0
169347,-66.6666666666667,4,2,1,30,0,0
169625,-66.6666666666667,4,2,1,70,0,0
170771,833.333333333333,2,2,1,80,1,0
170771,-66.6666666666667,2,2,1,80,0,0
171326,833.333333333333,2,2,1,80,1,0
171326,-66.6666666666667,2,2,1,80,0,0
177159,833.333333333333,2,2,1,80,1,0
177159,-66.6666666666667,2,2,1,80,0,0
183826,833.333333333333,2,2,1,70,1,0
183826,-66.6666666666667,4,2,1,70,0,0
190353,-66.6666666666667,4,2,2,70,0,0
190492,-66.6666666666667,4,2,1,70,0,0
197159,-66.6666666666667,4,2,1,40,0,0
204659,-66.6666666666667,4,2,1,30,0,0
205492,-66.6666666666667,4,2,1,40,0,0
206326,-66.6666666666667,4,2,1,30,0,0
207159,-66.6666666666667,4,2,1,50,0,0
209659,-66.6666666666667,4,2,1,50,0,0
210770,-66.6666666666667,4,2,1,60,0,0
211326,-66.6666666666667,4,2,1,60,0,0
213826,1153.84615384615,4,2,1,35,1,0
214018,1071.42857142857,4,2,1,35,1,0
214419,1132.07547169811,4,2,1,35,1,0
214702,1153.84615384615,4,2,1,35,1,0
214894,1016.94915254237,4,2,1,35,1,0
215402,895.522388059701,4,2,1,35,1,0
216409,1481.48148148148,4,2,1,35,1,0
217149,1071.42857142857,4,2,1,35,1,0
217327,1052.63157894737,4,2,1,35,1,0
217984,1153.84615384615,4,2,1,35,1,0
218176,895.522388059701,4,2,1,35,1,0
218399,1052.63157894737,4,2,1,35,1,0
218662,923.076923076923,4,2,1,35,1,0
219123,895.522388059701,4,2,1,35,1,0
219650,833.333333333333,2,2,1,70,1,0
219650,-66.6666666666667,2,2,1,70,0,0
220483,833.333333333333,2,2,1,70,1,0
220483,-66.6666666666667,2,2,1,70,0,0
227150,833.333333333333,2,2,1,70,1,0
227150,-66.6666666666667,4,2,1,70,0,0
230344,-66.6666666666667,4,2,2,70,0,0
230483,-66.6666666666667,4,2,1,70,0,0
233816,-66.6666666666667,4,2,1,60,0,0
242150,-66.6666666666667,4,2,1,50,0,0
243816,1111.11111111111,4,2,3,30,1,0
243816,-50,4,2,3,30,0,0
248260,-50,4,2,3,30,0,0
248677,-50,4,2,3,40,0,0
249371,-50,4,2,3,30,0,0
250482,-50,4,2,3,20,0,0

[Colours]
Combo1 : 61,91,182
Combo2 : 43,202,194
Combo3 : 35,126,237
Combo4 : 94,149,172

[HitObjects]
23,193,1323,5,2,0:0:0:0:
166,150,2156,1,2,0:0:0:0:
210,287,2989,1,2,0:0:0:0:
489,193,4625,6,0,P|421:181|269:267,1,249.999999999999,2|0,0:0|0:0,0:0:0:0:
256,192,6291,12,0,7958,0:0:0:0:
256,375,12959,5,2,0:0:0:0:
260,285,13516,2,0,P|258:217|246:78,1,200,4|2,1:0|1:2,0:0:0:0:
181,23,15182,1,2,1:3:0:0:
114,83,15738,2,0,P|50:94|11:235,1,200,4|2,1:0|1:2,0:0:0:0:
50,282,17404,1,2,1:3:0:0:
136,256,17960,6,0,P|196:247|268:261,1,99.9999999999998,4|2,1:0|1:3,0:0:0:0:
300,313,19071,1,0,1:0:0:0:
389,306,19627,2,0,P|412:256|401:177,1,99.9999999999998,2|4,1:3|1:2,0:0:0:0:
362,137,20738,2,0,P|384:79|412:36,2,99.9999999999998,2|0|2,1:3|1:0|1:3,0:0:0:0:
289,190,22404,6,0,P|234:180|206:40,1,200,4|0,1:0|1:0,0:0:0:0:
122,3,24071,1,2,1:3:0:0:
42,44,24627,2,0,P|30:103|21:176,1,99.9999999999998,4|2,1:2|1:3,0:0:0:0:
66,222,25738,2,0,P|62:293|54:334,1,99.9999999999998,0|2,1:0|1:3,0:0:0:0:
139,356,26849,6,0,P|203:352|239:212,1,200,6|2,1:0|1:0,0:0:0:0:
188,177,28516,1,0,1:0:0:0:
239,103,29071,2,0,P|295:105|349:124,1,99.9999999999998,6|0,1:0|1:0,0:0:0:0:
372,200,30182,1,2,1:0:0:0:
459,178,30738,1,0,1:0:0:0:
497,259,31293,5,6,1:0:0:0:
352,366,32404,2,0,L|221:343,1,99.9999999999998,0|2,1:0|1:3,0:0:0:0:
179,297,33516,2,0,P|194:234|175:85,1,200,4|0,1:2|1:0,0:0:0:0:
144,18,35182,1,2,1:3:0:0:
232,3,35738,2,0,L|469:41,1,200,6|2,1:0|1:0,0:0:0:0:
489,101,37404,2,0,L|473:182,1,49.9999999999999,6|6,1:2|1:2,0:0:0:0:
126,350,40182,6,0,P|127:286|103:217,1,99.9999999999998,4|2,1:0|1:2,0:0:0:0:
64,179,41293,2,0,P|86:130|247:136,1,200,10|4,1:2|1:2,0:0:0:0:
270,181,42960,2,0,P|337:190|390:184,2,99.9999999999998,2|10|2,1:2|1:2|1:0,0:0:0:0:
214,252,44627,5,4,1:0:0:0:
270,321,45182,2,0,L|400:314,1,99.9999999999998,2|10,1:2|1:2,0:0:0:0:
459,304,46293,1,2,1:2:0:0:
490,219,46849,2,0,P|488:153|362:64,1,200,4|10,1:2|1:2,0:0:0:0:
316,112,48516,1,10,1:2:0:0:
236,69,49071,6,0,P|163:75|90:150,1,150,4|4,1:0|1:2,0:0:0:0:
18,148,50460,2,0,L|7:204,1,49.9999999999999,0|4,1:0|1:2,0:0:0:0:
36,232,51016,2,0,P|79:267|180:251,1,150,4|2,1:0|1:2,0:0:0:0:
241,206,52404,1,10,1:2:0:0:
320,249,52960,1,10,1:2:0:0:
408,232,53516,6,0,P|409:165|422:47,1,150,4|4,1:0|1:2,0:0:0:0:
347,25,54904,2,0,P|290:22|258:18,2,49.9999999999999,4|4|6,1:2|1:2|1:0,0:0:0:0:
256,192,55738,12,4,57960,1:0:0:0:
2,192,59626,6,0,P|63:181|160:193,1,150.000005722046,2|8,1:3|1:0,0:0:0:0:
273,300,61293,5,4,1:0:0:0:
273,300,61710,2,0,P|273:339|280:382,2,75.0000028610229,0|8|0,0:0|1:0|0:0,0:0:0:0:
319,231,62960,2,0,P|364:231|448:145,1,150.000005722046,2|8,1:3|1:0,0:0:0:0:
302,77,64626,6,0,P|229:75|145:77,1,150.000005722046,4|8,1:0|1:0,0:0:0:0:
69,69,65876,1,4,1:2:0:0:
15,131,66293,2,0,P|11:194|26:299,1,150.000005722046,4|8,1:0|1:0,0:0:0:0:
82,335,67543,1,4,1:2:0:0:
160,309,67960,6,0,P|230:296|337:332,2,150.000005722046,4|8|8,1:0|1:0|1:2,0:0:0:0:
158,143,70460,1,8,1:2:0:0:
322,126,71293,6,0,L|483:153,1,150.000005722046,4|8,1:0|1:0,0:0:0:0:
440,289,72960,2,0,P|367:298|322:372,1,150.000005722046,2|8,1:3|1:0,0:0:0:0:
159,353,74626,5,4,1:0:0:0:
159,353,75043,2,0,P|105:344|61:344,2,75.0000028610229,0|8|0,1:0|1:0|1:0,0:0:0:0:
225,303,76293,2,0,P|232:241|223:128,1,150.000005722046,4|8,1:0|1:0,0:0:0:0:
161,103,77543,1,8,1:0:0:0:
208,35,77960,6,0,P|268:23|368:52,1,150.000005722046,4|8,1:0|1:0,0:0:0:0:
488,137,79626,2,2,P|480:184|470:299,1,150.000005722046,8|10,1:2|1:0,0:0:0:0:
318,349,81293,5,4,1:0:0:0:
318,349,81710,2,0,P|256:366|214:366,2,75.0000028610229,2|8|2,1:3|1:0|1:3,0:0:0:0:
359,277,82960,2,0,P|336:219|232:199,1,150.000005722046,8|8,1:2|1:0,0:0:0:0:
179,214,84209,1,8,1:2:0:0:
104,179,84626,6,0,P|113:111|193:51,1,150.000005722046,8|8,1:2|1:0,0:0:0:0:
249,85,85876,1,2,3:3:0:0:
249,85,86293,2,0,L|413:75,1,150.000005722046,4|2,1:0|0:0,0:0:0:0:
506,157,87960,6,0,P|480:225|470:304,1,150,2|0,3:0|3:0,0:0:0:0:
429,320,89071,2,0,P|434:354|442:382,2,49.9999999999999,8|0|8,3:0|3:0|3:0,0:0:0:0:
394,290,89904,5,2,3:0:0:0:
304,288,90459,1,8,3:0:0:0:
215,304,91015,2,0,P|221:340|221:366,2,49.9999999999999,8|0|8,3:0|3:0|3:0,0:0:0:0:
188,267,91848,6,0,P|172:220|193:116,1,150,2|0,3:0|3:0,0:0:0:0:
232,111,92959,2,0,L|285:122,1,49.9999999999999,8|0,3:0|3:0,0:0:0:0:
370,107,93792,6,0,P|369:154|371:228,1,99.9999999999998,2|0,0:0|0:0,0:0:0:0:
389,247,94625,2,0,P|403:277|421:305,1,49.9999999999999,2|2,0:0|0:0,0:0:0:0:
388,329,95180,2,0,P|358:343|330:361,1,49.9999999999999,2|2,0:0|0:0,0:0:0:0:
299,340,95736,1,2,0:0:0:0:
254,331,96014,5,4,0:0:0:0:
165,347,96569,2,0,P|141:304|129:247,1,99.9999999999998,2|2,0:1|0:1,0:0:0:0:
192,190,97680,2,0,P|203:142|197:77,1,99.9999999999998,2|2,0:1|0:3,0:0:0:0:
5,194,104903,5,2,3:3:0:0:
130,243,105736,2,0,P|183:231|230:237,1,99.9999999999998,2|2,0:0|0:0,0:0:0:0:
262,265,106569,2,0,P|306:262|330:259,1,49.9999999999999
348,235,107125,2,0,P|365:183|354:118,1,99.9999999999998,2|0,0:3|0:0,0:0:0:0:
290,82,108236,2,0,L|186:73,1,99.9999999999998,8|0,0:3|0:0,0:0:0:0:
116,125,109347,6,0,P|101:185|100:283,1,150,2|2,0:3|0:0,0:0:0:0:
121,311,110458,1,8,0:3:0:0:
205,278,111014,2,0,L|278:290,1,49.9999999999999,2|8,0:0|0:3,0:0:0:0:
285,318,111569,2,0,P|340:328|394:239,1,150,2|2,0:3|0:0,0:0:0:0:
378,220,112680,1,8,0:3:0:0:
438,153,113236,1,4,3:0:0:0:
411,66,113792,5,4,1:0:0:0:
327,32,114347,2,0,L|216:40,1,99.9999999999998,2|0,1:3|1:0,0:0:0:0:
152,89,115458,1,2,1:3:0:0:
63,105,116014,2,0,P|26:162|44:303,1,200,4|0,1:2|1:0,0:0:0:0:
110,338,117680,1,2,1:3:0:0:
188,293,118236,6,0,P|247:303|285:327,1,99.9999999999998,2|2,1:0|1:3,0:0:0:0:
361,362,119347,2,0,P|434:352|468:332,1,99.9999999999998,2|2,1:0|1:3,0:0:0:0:
477,252,120458,2,0,L|466:192,1,49.9999999999999,2|0,0:0|0:0,0:0:0:0:
182,69,122680,6,0,P|158:129|181:278,1,200,4|10,1:0|1:2,0:0:0:0:
255,294,124347,1,2,1:2:0:0:
340,264,124903,2,0,P|334:207|322:161,1,99.9999999999998,4|2,1:2|1:2,0:0:0:0:
274,90,126014,2,0,P|325:62|459:132,1,200,2|6,1:0|1:0,0:0:0:0:
483,193,127680,6,0,P|461:248|454:296,1,99.9999999999998,2|10,1:2|1:2,0:0:0:0:
375,331,128792,1,2,1:2:0:0:
291,363,129347,2,0,L|181:349,1,99.9999999999998,4|2,1:2|1:2,0:0:0:0:
119,296,130458,1,8,1:2:0:0:
28,297,131014,1,8,1:2:0:0:
4,210,131569,6,0,P|15:139|23:50,1,150,4|4,1:0|1:2,0:0:0:0:
102,21,132958,2,0,P|140:25|185:36,1,49.9999999999999,0|4,1:0|1:2,0:0:0:0:
188,55,133514,2,0,P|262:61|371:54,1,150,4|8,1:0|1:2,0:0:0:0:
424,36,134903,2,0,P|448:95|447:164,1,99.9999999999998,2|10,1:2|1:2,0:0:0:0:
409,210,136014,6,0,P|407:298|436:378,1,150,4|4,1:0|1:2,0:0:0:0:
334,357,137403,2,0,P|303:355|258:350,1,49.9999999999999,0|4,1:0|1:2,0:0:0:0:
243,334,137958,1,4,1:0:0:0:
256,192,138236,12,4,140459,1:0:0:0:
5,197,142125,6,0,P|63:195|120:125,1,150.000005722046,2|8,1:3|1:0,0:0:0:0:
254,34,143792,5,4,1:0:0:0:
254,34,144209,2,0,P|259:90|260:121,2,75.0000028610229,0|8|0,1:0|1:0|1:0,0:0:0:0:
335,18,145459,2,0,P|385:30|490:8,1,150.000005722046,2|8,1:3|1:0,0:0:0:0:
487,177,147125,6,0,P|469:224|465:327,1,150.000005722046,4|8,1:0|1:0,0:0:0:0:
389,357,148375,1,4,1:2:0:0:
309,335,148792,2,0,P|240:335|147:357,1,150.000005722046,4|8,1:0|1:0,0:0:0:0:
81,330,150042,1,4,1:2:0:0:
90,247,150459,6,0,P|74:180|39:97,2,150.000005722046,4|8|8,1:0|1:0|1:2,0:0:0:0:
246,192,152959,2,0,P|296:185|341:181,1,75.0000028610229,8|8,1:2|1:0,0:0:0:0:
387,231,153792,6,0,P|399:285|382:385,1,150.000005722046,4|8,1:0|1:0,0:0:0:0:
222,348,155459,2,0,P|162:350|94:275,1,150.000005722046,2|8,1:3|1:0,0:0:0:0:
81,127,157125,5,4,1:0:0:0:
81,127,157542,2,0,P|69:93|44:49,2,75.0000028610229,0|8|2,1:0|1:0|0:1,0:0:0:0:
144,179,158792,2,0,P|217:182|261:111,1,150.000005722046,4|8,1:0|1:0,0:0:0:0:
291,48,160042,1,8,1:0:0:0:
373,54,160459,6,0,P|440:63|473:148,1,150.000005722046,4|8,1:0|1:0,0:0:0:0:
360,249,162125,2,2,P|312:276|283:367,1,150.000005722046,8|10,1:2|1:0,0:0:0:0:
117,356,163792,5,4,1:0:0:0:
117,356,164209,2,0,P|55:353|32:354,2,75.0000028610229,0|8|2,1:3|1:0|1:3,0:0:0:0:
173,296,165459,2,0,P|180:235|144:128,1,150.000005722046,8|8,1:2|1:0,0:0:0:0:
90,101,166709,1,8,1:2:0:0:
147,42,167125,6,0,P|198:31|307:56,1,150.000005722046,8|8,1:2|1:0,0:0:0:0:
359,104,168375,1,2,3:0:0:0:
359,104,168792,2,0,L|349:270,1,150.000005722046,4|8,1:0|1:0,0:0:0:0:
347,336,170042,1,2,1:3:0:0:
265,323,170459,5,8,1:2:0:0:
265,323,170771,2,2,L|157:312,1,100.000003814697,2|6,1:0|1:0,1:1:0:0:
89,343,171742,1,2,1:0:0:0:
27,287,172159,2,0,P|35:212|15:124,1,150.000005722046,10|6,1:0|1:0,0:0:0:0:
43,59,173409,2,0,L|136:77,1,75.0000028610229,2|8,1:2|1:0,0:0:0:0:
180,125,174242,1,0,1:0:0:0:
256,94,174659,6,2,P|307:91|394:172,2,150.000005722046,6|8|8,1:0|1:0|1:2,1:1:0:0:
257,181,176742,1,10,1:0:0:0:
257,181,177159,6,0,L|248:335,1,150.000005722046,6|10,1:0|1:0,0:0:0:0:
170,356,178409,1,2,1:0:0:0:
91,335,178825,2,0,P|36:292|36:214,1,150.000005722046,4|10,1:0|1:0,0:0:0:0:
102,170,180075,1,2,1:0:0:0:
145,99,180492,6,0,P|124:62|14:37,1,150.000005722046,6|10,1:0|1:0,0:0:0:0:
12,114,181742,1,10,1:0:0:0:
21,196,182159,2,2,L|39:305,2,75.0000028610229,6|8|10,1:0|1:0|1:0,1:1:0:0:
91,153,183409,1,8,1:0:0:0:
166,186,183826,6,0,P|251:209|337:180,1,150.000005722046,4|8,1:0|1:0,0:0:0:0:
380,152,185076,1,0,1:0:0:0:
457,180,185492,2,0,P|479:237|470:343,1,150.000005722046,4|8,1:2|1:0,0:0:0:0:
399,354,186742,1,0,1:0:0:0:
316,353,187159,6,0,B|228:352|262:306|151:305,2,150.000005722046,4|8|4,1:0|1:0|1:2,0:0:0:0:
399,354,189242,1,0,1:0:0:0:
384,272,189659,2,0,P|379:218|371:187,1,75.0000028610229,8|8,1:0|1:3,0:0:0:0:
314,140,190492,6,0,P|314:94|425:51,1,150.000005722046,4|8,1:0|1:0,0:0:0:0:
453,97,191742,1,0,1:0:0:0:
481,174,192159,2,0,P|471:215|465:272,1,75.0000028610229,4|0,1:2|1:0,0:0:0:0:
411,309,192992,1,8,1:0:0:0:
257,369,193826,6,0,P|252:306|256:215,1,150.000005722046,4|8,1:2|1:0,0:0:0:0:
252,136,195076,1,0,1:0:0:0:
247,53,195492,2,0,P|200:62|144:62,1,75.0000028610229,4|2,1:0|0:0,0:0:0:0:
93,39,196326,2,0,P|42:69|29:174,1,150.000005722046,4|4,1:0|1:0,0:0:0:0:
3,196,203826,6,2,P|79:187|166:207,1,150.000005722046,2|4,0:0|0:0,0:0:0:0:
249,333,205492,2,2,P|305:326|368:251,1,150.000005722046,2|4,0:0|0:0,0:0:0:0:
400,98,207159,5,4,1:2:0:0:
257,15,207992,1,0,1:0:0:0:
210,173,208826,2,0,P|178:208|172:322,1,150.000005722046,0|4,1:0|0:0,0:0:0:0:
256,192,210492,12,12,212159,1:0:0:0:
6,193,219650,5,12,1:0:0:0:
133,298,220483,2,0,P|193:289|227:208,1,150.000005722046,12|4,1:0|1:0,0:0:0:0:
185,142,221733,1,8,1:0:0:0:
244,84,222150,2,0,P|296:78|398:128,1,150.000005722046,12|4,1:0|1:0,0:0:0:0:
501,230,223816,6,0,P|467:260|436:358,1,150.000005722046,4|4,1:0|1:0,0:0:0:0:
271,369,225483,2,0,P|176:350|111:369,1,150.000005722046,8|8,1:2|1:2,0:0:0:0:
48,333,226733,1,8,1:0:0:0:
17,256,227150,6,0,P|21:209|13:159,1,75.0000028610229,12|0,1:0|1:0,0:0:0:0:
3,100,227983,2,0,P|59:97|106:81,1,75.0000028610229,8|0,1:0|1:0,0:0:0:0:
147,48,228816,2,0,P|215:54|288:128,1,150.000005722046,4|8,1:3|1:0,0:0:0:0:
320,263,230483,5,4,1:3:0:0:
320,263,230900,2,0,P|314:316|307:361,2,75.0000028610229,0|8|0,1:0|1:0|1:0,0:0:0:0:
369,197,232150,2,0,P|422:205|472:301,1,150.000005722046,4|8,1:3|1:0,0:0:0:0:
420,344,233400,1,10,1:3:0:0:
344,376,233816,6,0,P|294:366|186:358,1,150.000005722046,4|8,1:0|1:0,0:0:0:0:
114,376,235066,1,2,1:3:0:0:
52,320,235483,2,0,P|46:263|89:167,1,150.000005722046,8|10,1:2|1:0,0:0:0:0:
242,202,237150,6,0,P|312:212|391:215,1,150.000005722046,4|8,1:0|1:0,0:0:0:0:
457,165,238400,1,2,1:3:0:0:
422,90,238816,2,0,P|403:51|287:37,1,150.000005722046,8|8,1:2|1:0,0:0:0:0:
245,82,240066,1,8,1:2:0:0:
162,77,240483,6,0,P|170:133|165:229,1,150.000005722046,4|8,1:0|1:0,0:0:0:0:
96,271,241733,1,8,1:0:0:0:
93,353,242150,1,4,1:0:0:0:
256,373,242983,1,2,0:0:0:0:
269,208,243816,6,0,L|276:67,1,133.333333333333,2|0,0:0|3:0,0:0:0:0:
352,48,244927,2,0,P|415:51|453:106,1,125,2|2,0:0|0:0,0:0:0:0:
429,175,246038,2,0,P|413:235|411:300,1,125,2|0,0:0|3:0,0:0:0:0:
351,354,247149,1,2,0:0:0:0:
244,326,247704,1,2,0:0:0:0:
138,358,248260,6,0,P|125:321|129:232,1,125,4|2,0:0|0:0,0:0:0:0:
198,193,249371,2,0,P|211:156|207:67,1,125,2|0,0:0|3:0,0:0:0:0:
137,28,250482,1,2,0:0:0:0:
