osu file format v14

[General]
AudioFilename: audio.mp3
AudioLeadIn: 0
PreviewTime: 213826
Countdown: 0
SampleSet: Soft
StackLeniency: 0.2
Mode: 0
LetterboxInBreaks: 0
WidescreenStoryboard: 0

[Editor]
Bookmarks: 12446,22404,39071,40182,57960,77960,87959,96014,104902,120458,122695,140459,160459,170459,183825,197159,210492,213826,219650,233816,243816
DistanceSpacing: 0.4
BeatDivisor: 12
GridSize: 4
TimelineZoom: 2

[Metadata]
Title:Here
TitleUnicode:Here
Artist:JUNNA
ArtistUnicode:JUNNA
Creator:Melwoine
Version:Broken Shackles
Source:
Tags:
BeatmapID:2040545
BeatmapSetID:974866

[Difficulty]
HPDrainRate:6
CircleSize:4.6
OverallDifficulty:9
ApproachRate:9.3
SliderMultiplier:2.1
SliderTickRate:1

[Events]
//Background and Video events
0,0,"thumb-1920-880728.jpg",0,0
//Break Periods
//Storyboard Layer 0 (Background)
//Storyboard Layer 1 (Fail)
//Storyboard Layer 2 (Pass)
//Storyboard Layer 3 (Foreground)
//Storyboard Sound Samples

[TimingPoints]
1323,545.454545454546,3,2,1,50,1,0
2686,571.428571428571,3,2,1,50,1,0
2971,545.454545454546,3,2,1,50,1,0
4607,566.037735849057,3,2,1,50,1,0
5314,588.235294117647,3,2,1,50,1,0
5461,550.45871559633,3,2,1,50,1,0
6286,582.52427184466,3,2,1,50,1,0
6286,-166.666666666667,3,2,1,50,0,0
8033,810.810810810811,3,2,1,50,1,0
8843,810.810810810811,3,2,1,50,1,0
9383,1111.11111111111,3,2,1,50,1,0
9753,750,3,2,1,50,1,0
10503,789.473684210526,3,2,1,50,1,0
11029,857.142857142857,3,2,1,50,1,0
11314,1132.07547169811,3,2,1,50,1,0
12446,517.241379310345,3,2,1,50,1,0
12446,-71.4285714285714,3,2,1,50,0,0
12963,553.50553505535,3,2,1,50,1,0
13516,555.555555555556,4,2,1,50,1,0
13516,-50,4,2,1,50,0,0
14071,-125,4,2,1,50,0,0
14627,-76.9230769230769,4,2,1,50,0,0
15182,-52.6315789473684,4,2,1,50,0,0
15738,-50,4,2,1,50,0,0
16571,-125,4,2,1,50,0,0
17960,-50,4,2,1,50,0,0
18793,-125,4,2,1,50,0,0
22404,-50,4,2,1,50,0,0
22960,-142.857142857143,4,2,1,50,0,0
24627,-62.5,4,2,1,50,0,0
25738,-166.666666666667,4,2,1,50,0,0
26849,-47.6190476190476,4,2,1,50,0,0
27404,-125,4,2,1,50,0,0
27960,-100,4,2,1,50,0,0
28793,-166.666666666667,4,2,1,50,0,0
29071,-47.6190476190476,4,2,1,50,0,0
29627,-125,4,2,1,50,0,0
31293,-100,4,2,1,50,0,0
32127,-166.666666666667,4,2,1,50,0,0
32404,-55.5555555555556,4,2,1,50,0,0
32960,-125,4,2,1,50,0,0
33516,-55.5555555555556,4,2,1,50,0,0
34071,-142.857142857143,4,2,1,50,0,0
34627,-52.6315789473684,4,2,1,50,0,0
35182,-125,4,2,1,50,0,0
35738,-52.6315789473684,4,2,1,50,0,0
36293,-142.857142857143,4,2,1,50,0,0
36849,-52.6315789473684,4,2,1,50,0,0
37404,-142.857142857143,4,2,1,50,0,0
40182,-47.6190476190476,4,2,1,50,0,0
40738,-100,4,2,1,50,0,0
41016,-166.666666666667,4,2,1,50,0,0
41293,-50,4,2,1,50,0,0
41849,-100,4,2,1,50,0,0
42127,-66.6666666666667,4,2,1,50,0,0
42404,-47.6190476190476,4,2,1,50,0,0
42960,-58.8235294117647,4,2,1,50,0,0
43238,-76.9230769230769,4,2,1,50,0,0
44071,-55.5555555555556,4,2,1,50,0,0
44627,-47.6190476190476,4,2,1,50,0,0
45182,-100,4,2,1,50,0,0
45460,-55.5555555555556,4,2,1,50,0,0
46571,-125,4,2,1,50,0,0
46849,-66.6666666666667,4,2,1,50,0,0
47127,-62.5,4,2,1,50,0,0
47404,-58.8235294117647,4,2,1,50,0,0
47682,-55.5555555555556,4,2,1,50,0,0
47960,-142.857142857143,4,2,1,50,0,0
48516,-45.4545454545455,4,2,1,50,0,0
49071,-66.6666666666667,4,2,1,50,0,0
49627,-100,4,2,1,50,0,0
49904,-76.9230769230769,4,2,1,50,0,0
51016,-58.8235294117647,4,2,1,50,0,0
54071,-83.3333333333333,4,2,1,50,0,0
54349,-58.8235294117647,4,2,1,50,0,0
54904,-100,4,2,1,50,0,0
55182,-55.5555555555556,4,2,1,50,0,0
56293,-50,4,2,1,50,0,0
57960,833.333333333333,2,2,1,50,1,1
58098,-50,2,2,1,50,0,1
59348,-100,2,2,1,50,0,1
59626,-37.037037037037,2,2,1,50,0,1
60460,-34.4827586206897,2,2,1,50,0,1
61293,-47.6190476190476,2,2,1,50,0,1
62265,-40,2,2,1,50,0,1
62960,-55.5555555555556,2,2,1,50,0,1
63237,-41.6666666666667,2,2,1,50,0,1
64626,-35.7142857142857,2,2,1,50,0,1
67960,-45.4545454545455,2,2,1,50,0,1
69626,-35.7142857142857,2,2,1,50,0,1
72265,-43.4782608695652,2,2,1,50,0,1
72960,-58.8235294117647,2,2,1,50,0,1
73793,-37.037037037037,2,2,1,50,0,1
76293,-43.4782608695652,2,2,1,50,0,1
77126,-55.5555555555556,2,2,1,50,0,1
77960,-76.9230769230769,2,2,1,50,0,0
78793,-58.8235294117647,2,2,1,50,0,0
79626,-100,2,2,1,50,0,0
80459,-71.4285714285714,2,2,1,50,0,0
81293,-100,2,2,1,50,0,0
82126,-66.6666666666667,2,2,1,50,0,0
82959,-76.9230769230769,2,2,1,50,0,0
84626,-100,2,2,1,50,0,0
85459,-58.8235294117647,2,2,1,50,0,0
86293,-76.9230769230769,2,2,1,50,0,0
87126,-100,2,2,1,50,0,0
87960,555.555555555556,4,2,1,50,1,0
89904,555.555555555556,4,2,1,50,1,0
91848,555.555555555556,4,2,1,50,1,0
93792,555.555555555556,4,2,1,50,1,0
96014,555.555555555556,4,2,1,50,1,0
106569,-142.857142857143,4,2,1,50,0,0
113791,-58.8235294117647,4,2,1,50,0,0
115597,-100,4,2,1,50,0,0
120458,559.440559440559,4,2,1,50,1,0
122695,555.555555555556,4,2,1,50,1,0
122695,-52.6315789473684,4,2,1,50,0,0
123250,-71.4285714285714,4,2,1,50,0,0
123528,-90.9090909090909,4,2,1,50,0,0
123806,-62.5,4,2,1,50,0,0
124917,-83.3333333333333,4,2,1,50,0,0
126028,-58.8235294117647,4,2,1,50,0,0
126306,-100,4,2,1,50,0,0
126583,-58.8235294117647,4,2,1,50,0,0
126861,-100,4,2,1,50,0,0
127139,-55.5555555555556,4,2,1,50,0,0
127695,-66.6666666666667,4,2,1,50,0,0
127972,-111.111111111111,4,2,1,50,0,0
128389,-83.3333333333333,4,2,1,50,0,0
128806,-55.5555555555556,4,2,1,50,0,0
129083,-100,4,2,1,50,0,0
129361,-58.8235294117647,4,2,1,50,0,0
130195,-52.6315789473684,4,2,1,50,0,0
130611,-111.111111111111,4,2,1,50,0,0
131028,-55.5555555555555,4,2,1,50,0,0
132139,-66.6666666666667,4,2,1,50,0,0
132417,-55.5555555555556,4,2,1,50,0,0
132972,-47.6190476190476,4,2,1,50,0,0
133528,-100,4,2,1,50,0,0
136028,-55.5555555555556,4,2,1,50,0,0
140459,833.333333333333,2,2,1,50,1,1
140597,-50,2,2,1,50,0,1
142959,-40,2,2,1,50,0,1
143931,-47.6190476190476,2,2,1,50,0,1
144625,-38.4615384615385,2,2,1,50,0,1
145181,-47.6190476190476,2,2,1,50,0,1
145459,-41.6666666666667,2,2,1,50,0,1
146292,-47.6190476190476,2,2,1,50,0,1
147959,-41.6666666666667,2,2,1,50,0,1
148792,-33.3333333333333,2,2,1,50,0,1
149625,-38.4615384615385,2,2,1,50,0,1
152125,-32.258064516129,2,2,1,50,0,1
153792,-35.7142857142857,2,2,1,50,0,1
156292,-31.25,2,2,1,50,0,1
157264,-34.4827586206897,2,2,1,50,0,1
157681,-38.4615384615385,2,2,1,50,0,1
158792,-47.6190476190476,2,2,1,50,0,1
160459,-100,2,2,1,50,0,0
162959,-76.9230769230769,2,2,1,50,0,0
170459,-50,2,2,1,50,0,0
170771,833.333333333333,2,2,1,50,1,0
171326,833.333333333333,2,2,1,50,1,0
171326,-58.8235294117647,2,2,1,50,0,0
172159,833.333333333333,2,2,1,50,1,0
173825,-43.4782608695652,2,2,1,50,0,0
183825,-71.4285714285714,2,2,1,50,0,0
197159,-111.111111111111,2,2,1,50,0,0
213826,1153.84615384615,2,2,1,50,1,0
214018,810.810810810811,2,2,1,50,1,0
214693,1153.84615384615,2,2,1,50,1,0
214885,750,2,2,1,50,1,0
215260,882.352941176471,2,2,1,50,1,0
215848,810.810810810811,2,2,1,50,1,0
216185,810.810810810811,2,2,1,50,1,0
216387,759.493670886076,2,2,1,50,1,0
217146,937.5,2,2,1,50,1,0
217302,810.810810810811,2,2,1,50,1,0
217572,857.142857142857,2,2,1,50,1,0
217714,833.333333333333,2,2,1,50,1,0
217991,1034.48275862069,2,2,1,50,1,0
218163,714.285714285714,2,2,1,50,1,0
218401,1000,2,2,1,50,1,0
218567,750,2,2,1,50,1,0
218817,937.5,2,2,1,50,1,0
219129,810.810810810811,2,2,1,50,1,0
219129,-125,2,2,1,50,0,0
219466,736.196319018405,2,2,1,50,1,0
219650,833.333333333333,2,2,1,50,1,0
220483,833.333333333333,2,2,1,50,1,1
220483,-32.258064516129,2,2,1,50,0,1
222149,-30.3030303030303,2,2,1,50,0,1
227288,-34.4827586206897,2,2,1,50,0,1
228538,-38.4615384615385,2,2,1,50,0,1
228816,-28.5714285714286,2,2,1,50,0,1
230621,-37.037037037037,2,2,1,50,0,1
232149,-41.6666666666667,2,2,1,50,0,1
233816,-76.9230769230769,2,2,1,50,0,0
242149,-333.333333333333,2,2,1,50,0,0
243816,1111.11111111111,4,2,1,50,1,0
243816,-83.3333333333333,4,2,1,50,0,0
256593,-100,4,2,1,5,0,0

[Colours]
Combo1 : 100,86,70
Combo2 : 131,21,18
Combo3 : 201,194,182
Combo4 : 102,106,21

[HitObjects]
0,204,1323,5,0,0:0:0:0:
79,312,1595,1,0,0:0:0:0:
104,247,1732,1,0,0:0:0:0:
79,326,1868,1,0,0:0:0:0:
209,83,2141,1,0,0:0:0:0:
183,183,2413,1,0,0:0:0:0:
144,128,2550,1,0,0:0:0:0:
180,194,2686,1,0,0:0:0:0:
24,78,2971,6,0,B|165:-44|255:94|255:98|267:96|368:269|502:129,1,525
416,41,4607,1,0,0:0:0:0:
425,56,4890,1,0,0:0:0:0:
445,178,5173,1,0,0:0:0:0:
460,249,5314,1,0,0:0:0:0:
438,326,5461,1,0,0:0:0:0:
459,321,5736,1,0,0:0:0:0:
330,290,6011,1,0,0:0:0:0:
304,276,6149,1,0,0:0:0:0:
268,308,6286,6,0,P|126:337|151:154,1,377.999988464356
256,159,8843,5,0,0:0:0:0:
339,55,9383,1,0,0:0:0:0:
421,87,9753,1,0,0:0:0:0:
315,231,10503,1,0,0:0:0:0:
332,131,11029,1,0,0:0:0:0:
427,89,11314,1,0,0:0:0:0:
435,102,12446,6,0,B|465:136|339:159|339:70|227:162|254:198,1,220.499993270874
316,269,12963,1,0,0:0:0:0:
325,279,13055,1,0,0:0:0:0:
312,280,13147,1,0,0:0:0:0:
327,298,13239,1,0,0:0:0:0:
310,301,13332,1,0,0:0:0:0:
330,312,13424,1,0,0:0:0:0:
305,324,13516,6,0,L|96:367,1,210
57,254,13932,1,0,0:0:0:0:
114,288,14071,2,0,L|54:276,1,42
193,265,14349,1,0,0:0:0:0:
117,175,14488,1,0,0:0:0:0:
183,110,14627,2,0,P|165:36|105:17,1,136.499993751526
84,35,15043,1,0,0:0:0:0:
255,137,15182,2,0,L|366:111,1,99.7499973363877
328,10,15460,1,0,0:0:0:0:
270,59,15599,1,0,0:0:0:0:
434,40,15738,6,0,P|487:115|404:212,1,210
343,174,16154,1,0,0:0:0:0:
502,142,16293,2,0,P|497:86|445:37,1,105
488,266,16571,2,0,L|429:278,1,42
235,206,16849,5,0,0:0:0:0:
296,253,16988,1,0,0:0:0:0:
345,199,17127,1,0,0:0:0:0:
218,214,17266,1,0,0:0:0:0:
161,277,17404,1,0,0:0:0:0:
193,343,17543,1,0,0:0:0:0:
166,362,17682,1,0,0:0:0:0:
168,378,17821,1,0,0:0:0:0:
83,229,17960,6,0,P|113:124|160:17,1,210
239,120,18377,1,0,0:0:0:0:
5,80,18516,2,0,P|61:67|151:66,1,105
263,110,18793,2,0,P|241:109|211:102,1,42
372,37,19071,6,0,L|380:3,1,28
392,144,19256,2,0,L|408:173,1,28
280,94,19441,2,0,L|238:88,1,28
429,78,19627,2,0,L|474:58,1,28
240,107,19812,2,0,L|199:108,1,28
407,210,19997,2,0,L|447:212,1,28
255,258,20182,5,0,0:0:0:0:
229,241,20321,1,0,0:0:0:0:
162,284,20460,1,0,0:0:0:0:
163,323,20599,1,0,0:0:0:0:
331,265,20738,5,0,0:0:0:0:
371,330,20877,1,0,0:0:0:0:
308,384,21016,1,0,0:0:0:0:
243,346,21154,1,0,0:0:0:0:
388,337,21293,5,0,0:0:0:0:
451,369,21432,1,0,0:0:0:0:
494,252,21571,2,0,P|501:231|494:185,1,42
412,115,21849,5,0,0:0:0:0:
397,244,21988,1,0,0:0:0:0:
398,103,22127,1,0,0:0:0:0:
380,234,22266,1,0,0:0:0:0:
345,53,22404,6,0,B|300:-9|205:4|187:107|190:110|195:114|167:222|28:180,1,315
75,111,22960,2,0,L|33:101,1,36.749998878479
181,252,23238,2,0,L|226:248,1,36.749998878479
83,288,23516,2,0,P|71:270|68:250,1,36.749998878479
30,349,23793,1,0,0:0:0:0:
30,359,23932,1,0,0:0:0:0:
167,323,24071,1,0,0:0:0:0:
182,356,24210,1,0,0:0:0:0:
199,342,24349,1,0,0:0:0:0:
309,363,24488,5,0,0:0:0:0:
339,374,24627,2,0,P|378:338|401:282,1,112
352,205,24904,1,0,0:0:0:0:
386,268,25043,1,0,0:0:0:0:
255,263,25182,6,0,P|239:211|223:144,1,112
308,90,25460,1,0,0:0:0:0:
298,160,25599,1,0,0:0:0:0:
423,82,25738,6,0,L|474:88,1,31.4999990386963
365,21,26016,1,0,0:0:0:0:
319,85,26154,1,0,0:0:0:0:
259,29,26293,2,0,L|203:36,1,31.4999990386963
374,7,26571,2,0,L|430:14,1,31.4999990386963
227,137,26849,6,0,P|136:147|78:34,1,220.499993270874
95,21,27266,1,0,0:0:0:0:
40,160,27404,2,0,L|-5:172,1,42
77,235,27682,1,0,0:0:0:0:
21,277,27821,1,0,0:0:0:0:
126,321,27960,1,0,0:0:0:0:
156,297,28099,1,0,0:0:0:0:
169,270,28238,1,0,0:0:0:0:
246,350,28377,1,0,0:0:0:0:
263,313,28516,2,0,L|253:255,1,52.5
89,224,28793,2,0,L|55:217,1,31.4999990386963
337,347,29071,6,0,P|402:342|451:177,1,220.499993270874
439,213,29488,1,0,0:0:0:0:
266,242,29627,2,0,L|208:238,1,42
322,150,29904,1,0,0:0:0:0:
341,182,30043,1,0,0:0:0:0:
434,124,30182,5,0,0:0:0:0:
348,68,30321,1,0,0:0:0:0:
328,64,30460,1,0,0:0:0:0:
292,83,30599,1,0,0:0:0:0:
395,5,30738,1,0,0:0:0:0:
431,91,30877,1,0,0:0:0:0:
484,31,31016,1,0,0:0:0:0:
504,54,31154,1,0,0:0:0:0:
271,8,31293,6,0,P|234:27|219:69,1,52.5
278,189,31571,1,0,0:0:0:0:
348,149,31710,1,0,0:0:0:0:
420,257,31849,2,0,L|338:253,1,52.5
252,198,32127,2,0,P|250:182|252:166,1,31.4999990386963
186,266,32404,6,0,P|186:356|104:341,1,188.999994232178
262,378,32821,1,0,0:0:0:0:
290,252,32960,2,0,P|276:220|275:188,1,42
136,167,33238,1,0,0:0:0:0:
131,191,33377,1,0,0:0:0:0:
11,275,33516,6,0,P|103:228|73:157,1,188.999994232178
205,173,33932,1,0,0:0:0:0:
165,64,34071,2,0,P|170:37|183:6,1,36.749998878479
254,70,34349,1,0,0:0:0:0:
256,98,34488,1,0,0:0:0:0:
67,171,34627,6,0,P|24:76|114:35,1,199.499994672775
174,84,35043,1,0,0:0:0:0:
292,0,35182,2,0,P|317:0|346:4,1,42
386,68,35460,1,0,0:0:0:0:
309,96,35599,1,0,0:0:0:0:
300,238,35738,6,0,P|408:220|396:125,1,199.499994672775
302,110,36154,1,0,0:0:0:0:
219,173,36293,2,0,L|158:159,1,36.749998878479
121,292,36571,1,0,0:0:0:0:
137,261,36710,1,0,0:0:0:0:
140,372,36849,6,0,P|244:332|231:253,1,199.499994672775
123,236,37266,1,0,0:0:0:0:
56,324,37404,2,0,L|8:314,1,36.749998878479
142,143,37682,1,0,0:0:0:0:
170,160,37821,1,0,0:0:0:0:
256,192,37960,12,0,39071,0:0:0:0:
127,213,39210,5,0,0:0:0:0:
100,285,39349,1,0,0:0:0:0:
170,334,39488,2,0,L|199:345,2,18.3749994392395
44,356,39766,1,0,0:0:0:0:
19,243,39904,1,0,0:0:0:0:
9,226,40182,6,0,L|46:98,1,110.249996635437
201,190,40460,1,0,0:0:0:0:
218,179,40599,1,0,0:0:0:0:
126,113,40738,2,0,L|107:51,1,52.5
236,57,41016,2,0,L|247:16,1,31.4999990386963
387,125,41293,6,0,P|414:230|420:348,1,210
299,318,41710,1,0,0:0:0:0:
272,299,41849,2,0,L|220:308,1,52.5
317,213,42127,2,0,L|394:198,1,78.7500030040742
111,142,42404,6,0,L|2:162,1,110.249996635437
120,24,42682,1,0,0:0:0:0:
150,43,42821,1,0,0:0:0:0:
255,36,42960,2,0,L|387:-24,1,89.2500017023087
284,129,43238,2,0,L|195:110,1,68.2499968757631
423,115,43516,1,0,0:0:0:0:
351,177,43654,1,0,0:0:0:0:
396,251,43793,1,0,0:0:0:0:
368,313,43932,1,0,0:0:0:0:
226,264,44071,6,0,P|121:268|109:362,1,188.999994232178
178,380,44488,1,0,0:0:0:0:
277,175,44627,6,0,P|391:179|404:283,1,220.499993270874
326,285,45043,1,0,0:0:0:0:
367,382,45182,2,0,L|419:376,1,52.5
303,272,45460,2,0,P|252:259|227:202,1,94.499997116089
84,281,45738,2,0,L|144:85,1,188.999994232178
238,52,46154,1,0,0:0:0:0:
169,140,46293,2,0,L|149:31,1,94.499997116089
264,83,46571,2,0,L|321:89,1,42
95,169,46849,6,0,P|56:162|29:95,1,78.7500030040742
227,233,47127,2,0,P|269:231|313:203,1,84
60,178,47404,2,0,P|17:197|2:258,1,89.2500017023087
304,240,47682,2,0,P|358:242|395:288,1,94.499997116089
231,108,47960,6,0,P|184:127|173:193,1,110.249996635437
379,287,48516,6,0,P|399:141|249:17,1,346.500010574341
352,301,49071,6,0,P|327:228|256:204,1,157.500006008148
168,274,49488,1,0,0:0:0:0:
211,340,49627,2,0,L|272:329,1,52.5
107,223,49904,2,0,L|38:211,1,68.2499968757631
70,311,50182,1,0,0:0:0:0:
191,99,50460,1,0,0:0:0:0:
182,262,50738,2,0,B|201:267|201:267|226:263,1,45.4999979171754
84,142,51016,6,0,P|62:41|-41:31,1,178.500003404617
206,114,51571,1,0,0:0:0:0:
188,155,51710,1,0,0:0:0:0:
221,126,51849,1,0,0:0:0:0:
210,156,51988,1,0,0:0:0:0:
238,148,52127,1,0,0:0:0:0:
230,162,52266,1,0,0:0:0:0:
312,92,52404,5,0,0:0:0:0:
342,108,52543,1,0,0:0:0:0:
304,117,52682,1,0,0:0:0:0:
321,126,52821,1,0,0:0:0:0:
252,23,52960,5,0,0:0:0:0:
234,56,53099,1,0,0:0:0:0:
231,21,53238,1,0,0:0:0:0:
222,40,53377,1,0,0:0:0:0:
367,34,53516,6,0,P|488:96|464:185,1,178.500003404617
367,199,53932,1,0,0:0:0:0:
404,200,54071,2,0,P|427:224|426:253,1,62.9999980773926
498,113,54349,6,0,P|458:36|373:25,1,178.500003404617
296,113,54904,2,0,L|379:108,1,52.5
207,145,55182,2,0,L|314:138,1,94.499997116089
21,109,55460,6,0,P|125:177|67:224,1,188.999994232178
24,238,55877,1,0,0:0:0:0:
5,310,56016,1,0,0:0:0:0:
24,352,56154,1,0,0:0:0:0:
260,361,56293,6,0,P|237:270|196:152,1,210
177,174,56710,1,0,0:0:0:0:
121,270,56849,6,0,B|113:298|133:296|126:339,8,52.5
107,244,57543,1,0,0:0:0:0:
23,214,57682,1,0,0:0:0:0:
153,72,57960,5,0,0:0:0:0:
246,154,58098,2,0,L|341:138,1,70
97,8,58376,1,0,0:0:0:0:
107,179,58515,2,0,L|86:291,1,70
256,36,58793,1,0,0:0:0:0:
93,32,58932,2,0,P|58:39|25:49,1,70
258,173,59210,1,0,0:0:0:0:
224,192,59348,2,0,P|201:188|173:180,1,35
335,31,59626,6,0,B|364:47|355:24|371:130,1,94.5000003604889
311,243,59904,1,0,0:0:0:0:
469,117,60043,1,0,0:0:0:0:
406,248,60182,1,0,0:0:0:0:
371,188,60321,1,0,0:0:0:0:
512,357,60460,2,0,B|447:367|447:367|389:328|389:328|277:341,1,203.000006195069
213,275,60876,1,0,0:0:0:0:
166,369,61015,1,0,0:0:0:0:
194,352,61085,1,0,0:0:0:0:
203,321,61154,1,0,0:0:0:0:
190,291,61223,1,0,0:0:0:0:
112,242,61293,6,0,P|59:297|11:359,1,146.999995513916
40,152,61710,1,0,0:0:0:0:
76,346,61848,1,0,0:0:0:0:
0,240,61987,1,0,0:0:0:0:
188,130,62126,1,0,0:0:0:0:
28,153,62265,2,0,P|20:119|24:43,1,87.5
206,98,62543,1,0,0:0:0:0:
292,277,62682,1,0,0:0:0:0:
194,334,62821,1,0,0:0:0:0:
116,236,62960,6,0,L|104:138,1,62.9999980773926
60,370,63237,2,0,L|28:238,1,83.9999974365235
15,271,63515,1,0,0:0:0:0:
173,347,63654,1,0,0:0:0:0:
284,137,63793,2,0,L|286:25,1,83.9999974365235
484,163,64071,1,0,0:0:0:0:
338,231,64210,1,0,0:0:0:0:
401,79,64348,1,0,0:0:0:0:
413,104,64418,1,0,0:0:0:0:
420,132,64487,1,0,0:0:0:0:
416,157,64557,1,0,0:0:0:0:
354,250,64626,6,0,B|322:297|230:237|280:120|345:88,1,195.999994018555
416,63,65043,1,0,0:0:0:0:
322,112,65182,1,0,0:0:0:0:
227,3,65321,1,0,0:0:0:0:
188,187,65460,6,0,L|70:178,1,97.9999970092774
41,244,65737,1,0,0:0:0:0:
121,264,65876,1,0,0:0:0:0:
3,262,66015,1,0,0:0:0:0:
206,173,66154,1,0,0:0:0:0:
97,3,66293,6,0,L|-2:11,1,97.9999970092774
12,135,66571,1,0,0:0:0:0:
76,19,66710,1,0,0:0:0:0:
136,155,66848,1,0,0:0:0:0:
80,102,66987,1,0,0:0:0:0:
106,317,67126,6,0,L|336:331,1,195.999994018555
365,211,67543,1,0,0:0:0:0:
209,98,67682,1,0,0:0:0:0:
173,97,67751,1,0,0:0:0:0:
149,117,67821,1,0,0:0:0:0:
143,148,67890,1,0,0:0:0:0:
182,231,67960,6,0,P|181:317|173:390,1,154.000004699707
102,339,68376,1,0,0:0:0:0:
275,257,68515,1,0,0:0:0:0:
164,210,68654,1,0,0:0:0:0:
328,116,68793,2,0,P|368:120|408:142,1,77.0000023498536
301,54,69071,2,0,P|335:74|350:114,1,77.0000023498536
341,2,69348,2,0,P|363:35|331:69,1,77.0000023498536
512,362,69626,6,0,L|477:169,1,195.999994018555
357,305,70043,1,0,0:0:0:0:
452,233,70182,1,0,0:0:0:0:
320,105,70321,1,0,0:0:0:0:
231,310,70460,5,0,0:0:0:0:
324,232,70598,1,0,0:0:0:0:
310,134,70737,1,0,0:0:0:0:
241,92,70876,1,0,0:0:0:0:
209,206,71015,5,0,0:0:0:0:
210,228,71085,1,0,0:0:0:0:
198,252,71154,1,0,0:0:0:0:
179,263,71223,1,0,0:0:0:0:
89,259,71293,5,0,0:0:0:0:
202,105,71432,2,0,L|211:-4,1,97.9999970092774
105,81,71710,1,0,0:0:0:0:
327,244,71848,2,0,L|422:220,1,97.9999970092774
389,59,72126,1,0,0:0:0:0:
343,363,72265,2,0,L|416:293,1,80.5000015354157
340,154,72543,1,0,0:0:0:0:
331,139,72682,1,0,0:0:0:0:
298,209,72821,1,0,0:0:0:0:
239,287,72960,6,0,L|157:261,1,59.5000011348725
130,174,73237,1,0,0:0:0:0:
93,290,73376,1,0,0:0:0:0:
32,157,73515,1,0,0:0:0:0:
52,366,73654,1,0,0:0:0:0:
142,106,73793,6,0,P|100:15|13:44,1,189.000000720978
16,176,74210,1,0,0:0:0:0:
166,93,74348,1,0,0:0:0:0:
196,93,74418,1,0,0:0:0:0:
223,110,74487,1,0,0:0:0:0:
235,137,74557,1,0,0:0:0:0:
225,233,74626,5,0,0:0:0:0:
311,42,74765,2,0,L|426:8,1,94.5000003604889
413,166,75043,1,0,0:0:0:0:
164,62,75182,2,0,L|61:56,1,94.5000003604889
57,241,75460,1,0,0:0:0:0:
226,162,75598,2,0,L|347:146,1,94.5000003604889
346,249,75876,1,0,0:0:0:0:
242,305,76015,1,0,0:0:0:0:
204,286,76154,1,0,0:0:0:0:
421,313,76293,6,0,L|510:289,1,80.5000015354157
426,347,76571,1,0,0:0:0:0:
341,269,76710,1,0,0:0:0:0:
382,248,76848,1,0,0:0:0:0:
327,347,76987,1,0,0:0:0:0:
227,201,77126,6,0,L|81:187,1,125.999996154785
241,237,77543,1,0,0:0:0:0:
273,113,77682,1,0,0:0:0:0:
268,101,77751,1,0,0:0:0:0:
259,90,77821,1,0,0:0:0:0:
246,79,77890,1,0,0:0:0:0:
204,65,77960,6,0,L|145:81,1,45.4999979171754
204,47,78237,1,0,0:0:0:0:
191,141,78376,1,0,0:0:0:0:
121,170,78515,1,0,0:0:0:0:
48,112,78654,1,0,0:0:0:0:
55,33,78793,6,0,L|121:42,1,59.5000011348725
41,24,79071,2,0,L|107:21,1,59.5000011348725
34,117,79348,1,0,0:0:0:0:
40,156,79487,1,0,0:0:0:0:
131,194,79626,6,0,L|218:208,1,70
131,275,80043,1,0,0:0:0:0:
105,282,80182,1,0,0:0:0:0:
140,298,80321,1,0,0:0:0:0:
52,366,80459,2,0,L|-4:358,1,48.9999985046387
147,322,80737,1,0,0:0:0:0:
204,372,80876,1,0,0:0:0:0:
280,274,81015,1,0,0:0:0:0:
292,264,81084,1,0,0:0:0:0:
306,259,81154,1,0,0:0:0:0:
323,256,81223,1,0,0:0:0:0:
355,271,81293,6,0,L|398:271,1,35
423,173,81571,1,0,0:0:0:0:
414,193,81709,2,0,L|363:188,1,35
242,78,81987,1,0,0:0:0:0:
354,100,82126,2,0,L|405:90,1,52.5000020027161
426,100,82404,2,0,L|483:100,1,52.5000020027161
294,159,82682,1,0,0:0:0:0:
230,106,82821,1,0,0:0:0:0:
307,20,82959,6,0,L|431:33,1,90.9999958343508
429,92,83376,1,0,0:0:0:0:
356,103,83515,1,0,0:0:0:0:
368,128,83654,1,0,0:0:0:0:
508,136,83793,1,0,0:0:0:0:
441,170,83932,1,0,0:0:0:0:
469,191,84071,1,0,0:0:0:0:
502,188,84209,1,0,0:0:0:0:
411,293,84348,1,0,0:0:0:0:
412,311,84418,1,0,0:0:0:0:
421,327,84487,1,0,0:0:0:0:
431,339,84557,1,0,0:0:0:0:
466,358,84626,6,0,B|487:358|487:358|502:347,1,35
301,313,84904,2,0,B|311:331|311:331|328:339,2,35
359,248,85321,1,0,0:0:0:0:
254,159,85459,2,0,L|274:22,1,119.000002269745
397,46,85876,1,0,0:0:0:0:
371,58,86015,1,0,0:0:0:0:
404,64,86154,1,0,0:0:0:0:
364,158,86293,6,0,B|271:114|270:231|181:236,1,181.999991668702
119,264,87126,2,0,L|248:249,1,105
193,329,87682,1,0,0:0:0:0:
204,359,87959,5,0,0:0:0:0:
241,368,88098,1,0,0:0:0:0:
279,358,88237,1,0,0:0:0:0:
308,333,88376,1,0,0:0:0:0:
377,369,88515,5,0,0:0:0:0:
403,352,88654,1,0,0:0:0:0:
412,317,88793,1,0,0:0:0:0:
400,287,88932,1,0,0:0:0:0:
309,235,89071,5,0,0:0:0:0:
340,207,89210,1,0,0:0:0:0:
381,191,89348,1,0,0:0:0:0:
429,194,89487,1,0,0:0:0:0:
496,276,89626,5,0,0:0:0:0:
506,245,89765,1,0,0:0:0:0:
442,89,89904,5,0,0:0:0:0:
404,67,90042,1,0,0:0:0:0:
361,72,90181,1,0,0:0:0:0:
331,101,90320,1,0,0:0:0:0:
239,147,90459,5,0,0:0:0:0:
255,111,90598,1,0,0:0:0:0:
246,72,90737,1,0,0:0:0:0:
219,44,90876,1,0,0:0:0:0:
103,114,91015,5,0,0:0:0:0:
137,115,91154,1,0,0:0:0:0:
166,134,91292,1,0,0:0:0:0:
180,163,91431,1,0,0:0:0:0:
43,263,91570,5,0,0:0:0:0:
136,241,91709,1,0,0:0:0:0:
101,384,91848,6,0,L|-24:352,1,105
134,334,92264,2,0,L|7:357,1,105
150,276,92681,2,0,L|45:351,1,105
139,220,93098,2,0,L|75:332,1,105
127,139,93514,1,0,0:0:0:0:
159,233,93653,1,0,0:0:0:0:
219,122,93792,5,0,0:0:0:0:
277,190,93930,1,0,0:0:0:0:
260,261,94069,1,0,0:0:0:0:
270,291,94208,1,0,0:0:0:0:
362,190,94347,5,0,0:0:0:0:
360,165,94486,1,0,0:0:0:0:
266,114,94625,1,0,0:0:0:0:
348,54,94764,5,0,0:0:0:0:
427,86,94903,1,0,0:0:0:0:
438,150,95042,1,0,0:0:0:0:
512,192,95180,5,0,0:0:0:0:
480,229,95319,1,0,0:0:0:0:
402,150,95458,5,0,0:0:0:0:
321,180,95597,1,0,0:0:0:0:
304,261,95736,1,0,0:0:0:0:
309,294,95875,1,0,0:0:0:0:
410,346,96014,6,0,L|519:322,1,105
440,259,96430,1,0,0:0:0:0:
429,223,96569,2,0,L|431:162,1,52.5
286,360,96847,2,0,L|284:299,1,52.5
187,161,97125,1,0,0:0:0:0:
213,192,97264,1,0,0:0:0:0:
208,228,97402,1,0,0:0:0:0:
182,255,97541,1,0,0:0:0:0:
187,296,97680,1,0,0:0:0:0:
241,354,97819,1,0,0:0:0:0:
316,339,97958,1,0,0:0:0:0:
321,246,98097,1,0,0:0:0:0:
282,150,98236,6,0,L|259:22,1,105
133,119,98791,6,0,P|163:107|196:106,3,52.5
79,187,99347,2,0,P|99:203|142:200,3,52.5
22,62,99902,2,0,B|48:51|48:51|85:49,3,52.5
0,268,100458,6,0,L|170:303,1,157.5
163,319,101014,1,0,0:0:0:0:
280,298,101569,1,0,0:0:0:0:
306,285,101847,1,0,0:0:0:0:
185,160,102125,1,0,0:0:0:0:
256,117,102402,1,0,0:0:0:0:
301,131,102495,5,0,0:0:0:0:
325,123,102588,5,0,0:0:0:0:
339,113,102680,6,0,B|338:92|359:78|359:78|386:82|406:64,1,70
418,61,102958,1,0,0:0:0:0:
426,35,103097,1,0,0:0:0:0:
341,13,103236,1,0,0:0:0:0:
314,21,103375,1,0,0:0:0:0:
224,61,103514,1,0,0:0:0:0:
252,64,103652,1,0,0:0:0:0:
149,34,103791,5,0,0:0:0:0:
119,57,103930,1,0,0:0:0:0:
215,133,104069,5,0,0:0:0:0:
296,146,104208,1,0,0:0:0:0:
139,150,104347,5,0,0:0:0:0:
73,192,104486,1,0,0:0:0:0:
219,205,104625,5,0,0:0:0:0:
254,228,104717,5,0,0:0:0:0:
304,215,104810,5,0,0:0:0:0:
355,245,104902,6,0,P|379:243|429:179,1,105
303,301,105319,2,0,P|319:283|401:286,1,105
180,286,105736,2,0,P|219:280|259:258,1,52.5
276,224,106014,1,0,0:0:0:0:
154,151,106291,1,0,0:0:0:0:
155,165,106430,1,0,0:0:0:0:
151,202,106569,1,0,0:0:0:0:
95,252,106708,2,0,L|87:306,1,36.749998878479
43,172,106986,1,0,0:0:0:0:
91,96,107125,6,0,B|81:66|81:66|91:45|91:45|77:7,1,73.4999977569581
175,41,107541,2,0,P|212:28|246:42,1,73.4999977569581
169,29,107958,2,0,P|188:17|219:8,1,36.749998878479
283,123,108236,6,0,L|346:126,1,36.749998878479
381,162,108514,1,0,0:0:0:0:
455,86,108652,2,0,B|462:65|462:65|454:33,1,36.749998878479
467,169,108930,1,0,0:0:0:0:
490,192,109069,1,0,0:0:0:0:
421,250,109208,1,0,0:0:0:0:
431,276,109347,6,0,L|424:365,1,73.4999977569581
293,313,109764,2,0,B|317:349|317:349|305:385,1,73.4999977569581
242,232,110180,2,0,B|230:250|230:250|236:268,1,36.749998878479
341,217,110458,2,0,P|352:176|322:130,1,73.4999977569581
180,137,110875,2,0,P|212:152|234:114,1,73.4999977569581
154,148,111291,2,0,P|144:171|107:162,1,36.749998878479
36,22,111569,6,0,B|99:85|-3:120|-22:194|50:231,1,220.499993270874
110,277,112680,2,0,B|130:262|97:253|119:231,1,36.749998878479
211,341,112958,5,0,0:0:0:0:
220,302,113051,5,0,0:0:0:0:
264,277,113143,5,0,0:0:0:0:
279,213,113236,6,0,B|288:195|288:195|280:170,1,36.749998878479
414,25,113514,1,0,0:0:0:0:
450,107,113652,1,0,0:0:0:0:
462,236,113791,6,0,B|454:315|352:291|304:240|385:101|485:149|436:29,1,357.000006809235
249,85,114625,1,0,0:0:0:0:
452,213,114902,1,0,0:0:0:0:
202,205,115180,1,0,0:0:0:0:
275,172,115319,1,0,0:0:0:0:
240,61,115458,1,0,0:0:0:0:
174,118,115597,2,0,L|110:138,1,52.5
306,171,115875,1,0,0:0:0:0:
230,50,116014,6,0,L|104:18,1,105
35,145,116430,1,0,0:0:0:0:
14,221,116569,2,0,L|138:204,1,105
141,278,116986,1,0,0:0:0:0:
0,199,117125,2,0,L|12:130,1,52.5
159,292,117402,1,0,0:0:0:0:
185,300,117541,1,0,0:0:0:0:
261,167,117680,1,0,0:0:0:0:
324,209,117819,2,0,L|393:199,1,52.5
306,43,118097,1,0,0:0:0:0:
248,153,118236,6,0,L|255:293,1,105
280,277,118652,1,0,0:0:0:0:
418,342,118791,2,0,L|490:327,1,52.5
441,215,119069,1,0,0:0:0:0:
424,139,119208,1,0,0:0:0:0:
401,357,119347,2,0,L|325:367,1,52.5
338,232,119625,2,0,B|331:202|331:202|338:161,1,52.5
225,338,119902,6,0,P|198:370|154:352,1,52.5
109,180,120180,1,0,0:0:0:0:
217,248,120319,1,0,0:0:0:0:
215,116,120458,6,0,L|181:125,1,35
147,119,120644,2,0,L|120:141,1,35
232,121,120830,6,0,P|252:114|282:123,1,35
139,104,121017,2,0,P|115:106|96:92,1,35
200,33,121203,6,0,P|225:40|225:15,1,35
70,108,121437,1,0,0:0:0:0:
335,95,121576,5,0,0:0:0:0:
239,224,121716,1,0,0:0:0:0:
379,183,121856,1,0,0:0:0:0:
334,46,121996,2,0,L|327:79,2,26.25
386,211,122276,1,0,0:0:0:0:
242,208,122416,2,0,P|213:195|185:210,1,52.5
334,345,122695,6,0,L|465:318,1,99.7499973363877
305,234,122972,1,0,0:0:0:0:
222,360,123111,1,0,0:0:0:0:
97,301,123250,2,0,L|-14:284,1,73.4999977569581
264,260,123528,2,0,L|375:243,1,57.7500017623902
81,208,123806,6,0,P|17:142|55:46,1,168
155,107,124222,1,0,0:0:0:0:
212,153,124361,2,0,L|311:138,1,84
368,53,124639,1,0,0:0:0:0:
291,161,124778,1,0,0:0:0:0:
396,296,124917,6,0,P|412:265|431:204,1,62.9999980773926
482,349,125195,1,0,0:0:0:0:
385,276,125333,1,0,0:0:0:0:
512,222,125472,2,0,P|505:162|495:119,1,62.9999980773926
377,76,125750,1,0,0:0:0:0:
466,144,125889,5,0,0:0:0:0:
484,133,125958,1,0,0:0:0:0:
490,105,126028,6,0,P|481:58|477:8,1,89.2500017023087
351,113,126306,2,0,L|292:123,1,52.5
126,21,126583,2,0,P|171:36|220:48,1,89.2500017023087
141,155,126861,2,0,P|113:148|85:151,1,52.5
301,229,127139,6,0,P|309:341|218:346,1,188.999994232178
160,283,127556,1,0,0:0:0:0:
146,255,127695,2,0,P|150:207|153:148,1,78.7500030040742
300,216,127972,2,0,P|326:239|335:273,1,47.2499985580445
424,109,128250,1,0,0:0:0:0:
339,147,128389,2,0,P|327:180|328:229,1,62.9999980773926
434,269,128667,1,0,0:0:0:0:
239,145,128806,2,0,P|234:100|267:25,1,94.499997116089
423,37,129083,2,0,P|395:18|366:20,1,52.5
198,83,129361,6,0,P|154:106|86:112,1,89.2500017023087
25,27,129639,1,0,0:0:0:0:
102,85,129778,1,0,0:0:0:0:
28,226,129917,1,0,0:0:0:0:
130,199,130056,5,0,0:0:0:0:
140,198,130125,1,0,0:0:0:0:
155,208,130195,2,0,B|191:229|227:207|267:224,1,99.7499973363877
185,329,130472,1,0,0:0:0:0:
251,122,130611,2,0,P|210:62|150:53,1,94.499997116089
27,131,131028,2,0,P|87:90|96:30,1,94.499997116089
130,180,131306,1,0,0:0:0:0:
41,316,131445,1,0,0:0:0:0:
264,296,131583,6,0,B|269:314|243:364|163:351|189:232|121:263|92:259,1,188.999994232178
261,165,132000,1,0,0:0:0:0:
313,228,132139,2,0,L|428:240,1,78.7500030040742
434,118,132417,2,0,L|381:352,1,188.999994232178
297,85,132972,2,0,L|264:-1,1,73.4999977569581
429,204,133250,2,0,L|462:118,1,73.4999977569581
239,182,133528,6,0,L|168:192,1,52.5
272,86,133806,1,0,0:0:0:0:
326,182,133945,1,0,0:0:0:0:
196,175,134083,2,0,L|136:148,1,52.5
63,31,134361,2,0,L|140:7,1,52.5
65,108,134639,1,0,0:0:0:0:
130,158,134778,1,0,0:0:0:0:
254,70,134917,2,0,L|185:62,1,52.5
130,182,135195,2,0,L|64:207,1,52.5
339,181,135472,1,0,0:0:0:0:
201,254,135611,1,0,0:0:0:0:
314,321,135750,1,0,0:0:0:0:
251,378,135889,1,0,0:0:0:0:
159,87,136028,6,0,L|362:41,1,188.999994232178
426,176,136445,1,0,0:0:0:0:
377,257,136583,2,0,L|391:364,1,94.499997116089
173,229,136861,2,0,L|203:28,1,188.999994232178
104,148,137278,1,0,0:0:0:0:
93,173,137417,2,0,L|-22:195,1,94.499997116089
42,1,137695,2,0,P|57:51|55:110,1,94.499997116089
292,300,137972,6,0,P|220:217|254:100,1,188.999994232178
387,147,138528,1,0,0:0:0:0:
316,232,138667,1,0,0:0:0:0:
210,121,138806,2,0,L|113:104,1,94.499997116089
334,260,139083,1,0,0:0:0:0:
464,158,139222,1,0,0:0:0:0:
361,66,139361,6,0,B|345:55|345:55|327:63|290:54,4,47.2499985580445
463,83,139778,1,0,0:0:0:0:
296,39,139917,1,0,0:0:0:0:
241,127,140056,1,0,0:0:0:0:
258,146,140195,1,0,0:0:0:0:
191,16,140459,5,0,0:0:0:0:
119,166,140597,2,0,L|124:281,1,70
284,161,140875,1,0,0:0:0:0:
84,229,141014,2,0,L|-7:211,1,70
99,73,141292,1,0,0:0:0:0:
20,311,141431,2,0,B|47:380|119:280|174:352,1,140
320,259,141847,1,0,0:0:0:0:
231,364,141986,1,0,0:0:0:0:
154,177,142125,6,0,L|179:76,1,70
341,178,142403,1,0,0:0:0:0:
221,257,142542,1,0,0:0:0:0:
322,143,142681,1,0,0:0:0:0:
361,312,142820,1,0,0:0:0:0:
201,256,142959,2,0,P|185:221|153:52,1,175
253,107,143375,1,0,0:0:0:0:
172,248,143514,1,0,0:0:0:0:
136,258,143584,1,0,0:0:0:0:
95,246,143653,1,0,0:0:0:0:
72,213,143722,1,0,0:0:0:0:
87,125,143792,5,0,0:0:0:0:
0,284,143931,2,0,L|16:384,1,73.4999977569581
163,175,144209,1,0,0:0:0:0:
14,90,144347,1,0,0:0:0:0:
108,24,144486,1,0,0:0:0:0:
27,192,144625,6,0,B|20:232|33:267|33:267|14:299|14:299|30:335|20:370,1,181.999991668702
158,277,145042,1,0,0:0:0:0:
142,130,145181,1,0,0:0:0:0:
45,209,145320,1,0,0:0:0:0:
179,289,145459,6,0,L|296:259,1,83.9999974365235
297,153,145736,1,0,0:0:0:0:
364,255,145875,1,0,0:0:0:0:
336,358,146014,1,0,0:0:0:0:
362,234,146153,1,0,0:0:0:0:
263,83,146292,2,0,L|295:-36,1,73.4999977569581
424,136,146570,1,0,0:0:0:0:
340,212,146709,1,0,0:0:0:0:
430,89,146847,1,0,0:0:0:0:
460,132,146917,1,0,0:0:0:0:
464,169,146986,1,0,0:0:0:0:
457,195,147056,1,0,0:0:0:0:
363,286,147125,6,0,P|291:303|184:318,1,146.999995513916
82,213,147542,1,0,0:0:0:0:
221,329,147681,1,0,0:0:0:0:
333,200,147820,1,0,0:0:0:0:
221,95,147959,2,0,P|125:83|26:77,1,167.999994873047
144,47,148375,1,0,0:0:0:0:
163,272,148514,1,0,0:0:0:0:
162,292,148584,1,0,0:0:0:0:
142,316,148653,1,0,0:0:0:0:
96,329,148722,1,0,0:0:0:0:
18,321,148792,6,0,B|-15:326|-15:268|60:258|91:199|44:111,1,210.000008010865
236,108,149209,1,0,0:0:0:0:
135,192,149347,1,0,0:0:0:0:
32,129,149486,1,0,0:0:0:0:
245,140,149625,2,0,L|366:151,1,90.9999958343508
512,364,149903,2,0,L|391:375,1,90.9999958343508
211,300,150181,1,0,0:0:0:0:
203,277,150250,1,0,0:0:0:0:
218,246,150320,1,0,0:0:0:0:
257,237,150389,1,0,0:0:0:0:
336,276,150459,6,0,P|420:292|503:203,1,181.999991668702
389,48,150875,1,0,0:0:0:0:
276,156,151014,1,0,0:0:0:0:
386,118,151153,1,0,0:0:0:0:
257,174,151292,2,0,L|87:133,1,136.499993751526
89,166,151570,2,0,L|196:148,1,90.9999958343508
248,69,151847,1,0,0:0:0:0:
116,21,151986,1,0,0:0:0:0:
0,330,152125,6,0,B|83:319|83:319|125:288|125:288|233:272,1,217.000001655579
277,338,152542,1,0,0:0:0:0:
195,255,152681,1,0,0:0:0:0:
319,217,152820,1,0,0:0:0:0:
186,368,152959,5,0,0:0:0:0:
279,307,153097,1,0,0:0:0:0:
356,325,153236,1,0,0:0:0:0:
381,357,153375,1,0,0:0:0:0:
482,311,153514,1,0,0:0:0:0:
491,291,153584,1,0,0:0:0:0:
491,263,153653,1,0,0:0:0:0:
484,234,153722,1,0,0:0:0:0:
409,184,153792,5,0,0:0:0:0:
224,240,153931,2,0,L|80:224,1,97.9999970092774
341,9,154209,1,0,0:0:0:0:
396,178,154347,2,0,L|385:286,1,97.9999970092774
253,64,154625,1,0,0:0:0:0:
111,200,154764,2,0,L|12:245,1,97.9999970092774
116,62,155042,1,0,0:0:0:0:
226,158,155181,1,0,0:0:0:0:
321,120,155320,1,0,0:0:0:0:
163,8,155459,6,0,B|74:-8|82:102|-20:111,1,195.999994018555
136,213,155875,1,0,0:0:0:0:
232,58,156014,1,0,0:0:0:0:
325,198,156153,1,0,0:0:0:0:
63,161,156292,2,0,B|112:87|174:126|176:134|179:141|253:178|334:152|339:58|306:19,1,336
410,135,156847,1,0,0:0:0:0:
386,157,156917,1,0,0:0:0:0:
385,191,156986,1,0,0:0:0:0:
402,226,157056,1,0,0:0:0:0:
383,303,157125,5,0,0:0:0:0:
252,348,157264,2,0,L|125:332,1,101.500003097534
292,142,157542,1,0,0:0:0:0:
402,294,157681,2,0,L|408:386,1,90.9999958343508
285,122,157959,1,0,0:0:0:0:
137,259,158097,2,0,L|126:373,1,90.9999958343508
323,238,158375,1,0,0:0:0:0:
136,163,158514,1,0,0:0:0:0:
262,44,158653,1,0,0:0:0:0:
258,208,158792,6,0,L|234:361,1,146.999995513916
217,314,159209,1,0,0:0:0:0:
339,260,159347,1,0,0:0:0:0:
186,157,159486,1,0,0:0:0:0:
375,46,159625,5,0,0:0:0:0:
401,64,159764,2,0,L|405:214,1,146.999995513916
262,135,160181,1,0,0:0:0:0:
251,105,160250,1,0,0:0:0:0:
259,74,160320,1,0,0:0:0:0:
286,52,160389,1,0,0:0:0:0:
331,72,160459,6,0,L|408:63,1,70
428,83,160875,1,0,0:0:0:0:
454,171,161014,1,0,0:0:0:0:
414,258,161153,1,0,0:0:0:0:
311,277,161292,2,0,L|246:268,1,35
244,285,161570,2,0,L|179:294,1,35
163,180,161847,1,0,0:0:0:0:
175,216,161986,1,0,0:0:0:0:
123,280,162125,6,0,P|105:314|99:367,1,70
174,333,162542,1,0,0:0:0:0:
96,284,162681,1,0,0:0:0:0:
192,317,162820,1,0,0:0:0:0:
264,244,162959,2,0,L|258:188,1,45.4999979171754
277,260,163236,2,0,L|271:204,1,45.4999979171754
368,220,163514,1,0,0:0:0:0:
383,247,163584,1,0,0:0:0:0:
383,269,163653,1,0,0:0:0:0:
377,281,163722,1,0,0:0:0:0:
355,300,163792,6,0,L|351:355,1,45.4999979171754
426,336,164070,1,0,0:0:0:0:
471,257,164209,1,0,0:0:0:0:
484,294,164347,1,0,0:0:0:0:
430,199,164486,1,0,0:0:0:0:
479,93,164625,2,0,L|463:21,1,45.4999979171754
445,120,164903,2,0,L|460:47,1,45.4999979171754
347,145,165181,1,0,0:0:0:0:
311,115,165320,1,0,0:0:0:0:
304,10,165459,6,0,L|402:21,1,90.9999958343508
301,87,165875,1,0,0:0:0:0:
220,55,166014,1,0,0:0:0:0:
161,106,166153,1,0,0:0:0:0:
59,58,166292,1,0,0:0:0:0:
83,127,166431,1,0,0:0:0:0:
73,169,166570,1,0,0:0:0:0:
78,191,166709,1,0,0:0:0:0:
143,272,166847,1,0,0:0:0:0:
156,258,166917,1,0,0:0:0:0:
163,241,166986,1,0,0:0:0:0:
162,222,167056,1,0,0:0:0:0:
151,209,167125,6,0,L|151:150,1,45.4999979171754
246,190,167403,1,0,0:0:0:0:
263,233,167542,2,0,L|258:289,1,45.4999979171754
361,261,167820,1,0,0:0:0:0:
323,151,167959,2,0,L|337:55,1,90.9999958343508
439,92,168375,1,0,0:0:0:0:
480,186,168514,1,0,0:0:0:0:
478,241,168653,1,0,0:0:0:0:
435,324,168792,6,0,L|252:347,1,181.999991668702
253,151,169625,1,0,0:0:0:0:
366,255,169764,1,0,0:0:0:0:
205,283,169903,1,0,0:0:0:0:
356,143,170042,1,0,0:0:0:0:
251,48,170181,1,0,0:0:0:0:
268,25,170320,1,0,0:0:0:0:
229,177,170459,6,0,L|140:193,1,70
57,68,170771,1,0,0:0:0:0:
137,162,170909,1,0,0:0:0:0:
64,213,171048,1,0,0:0:0:0:
40,197,171187,1,0,0:0:0:0:
71,52,171326,6,0,B|157:47|180:79|265:73,1,178.500003404617
265,42,171881,2,0,P|234:58|190:70,1,59.5000011348725
321,122,172159,2,0,L|397:142,1,70
346,230,172575,1,0,0:0:0:0:
271,189,172714,1,0,0:0:0:0:
212,234,172853,1,0,0:0:0:0:
351,258,172992,6,0,L|420:261,1,70
239,327,173409,1,0,0:0:0:0:
117,369,173547,1,0,0:0:0:0:
140,350,173617,1,0,0:0:0:0:
131,325,173686,1,0,0:0:0:0:
141,305,173756,1,0,0:0:0:0:
167,293,173825,6,0,B|184:242|111:191|163:139,1,161.000003070831
252,168,174242,1,0,0:0:0:0:
132,198,174381,1,0,0:0:0:0:
130,73,174520,1,0,0:0:0:0:
268,37,174659,6,0,L|343:99,1,80.5000015354157
383,200,174936,1,0,0:0:0:0:
382,214,175006,1,0,0:0:0:0:
382,230,175075,1,0,0:0:0:0:
481,180,175214,1,0,0:0:0:0:
482,166,175284,1,0,0:0:0:0:
482,150,175353,1,0,0:0:0:0:
381,243,175492,2,0,L|381:340,1,80.5000015354157
278,271,175770,5,0,0:0:0:0:
412,219,175909,1,0,0:0:0:0:
302,133,176047,1,0,0:0:0:0:
378,95,176186,1,0,0:0:0:0:
333,13,176325,1,0,0:0:0:0:
321,138,176464,1,0,0:0:0:0:
268,199,176603,1,0,0:0:0:0:
219,203,176742,1,0,0:0:0:0:
153,140,176881,1,0,0:0:0:0:
162,120,176950,1,0,0:0:0:0:
154,81,177020,1,0,0:0:0:0:
163,52,177089,1,0,0:0:0:0:
191,35,177159,6,0,P|271:28|359:34,1,161.000003070831
276,127,177575,1,0,0:0:0:0:
389,89,177714,1,0,0:0:0:0:
254,107,177853,1,0,0:0:0:0:
432,163,177992,2,0,L|532:173,1,80.5000015354157
512,186,178270,1,0,0:0:0:0:
412,269,178409,1,0,0:0:0:0:
346,162,178547,1,0,0:0:0:0:
422,288,178686,1,0,0:0:0:0:
221,230,178825,5,0,0:0:0:0:
202,330,178964,1,0,0:0:0:0:
302,332,179103,1,0,0:0:0:0:
187,302,179242,2,0,L|98:269,1,80.5000015354157
233,118,179520,1,0,0:0:0:0:
348,261,179659,2,0,B|396:259|396:259|446:221,1,80.5000015354157
349,117,179936,1,0,0:0:0:0:
402,214,180075,1,0,0:0:0:0:
489,147,180214,1,0,0:0:0:0:
475,118,180284,1,0,0:0:0:0:
480,91,180353,1,0,0:0:0:0:
473,64,180422,1,0,0:0:0:0:
453,42,180492,6,0,P|394:28|336:34,1,80.5000015354157
257,109,180770,1,0,0:0:0:0:
354,44,180909,1,0,0:0:0:0:
277,134,181047,1,0,0:0:0:0:
332,21,181186,1,0,0:0:0:0:
103,68,181325,6,0,L|4:51,1,80.5000015354157
40,141,181603,1,0,0:0:0:0:
208,80,181742,1,0,0:0:0:0:
100,29,181881,1,0,0:0:0:0:
277,78,182020,1,0,0:0:0:0:
133,227,182159,5,0,0:0:0:0:
66,153,182297,1,0,0:0:0:0:
229,184,182436,1,0,0:0:0:0:
122,246,182575,1,0,0:0:0:0:
296,213,182714,1,0,0:0:0:0:
200,167,182853,1,0,0:0:0:0:
316,319,182992,5,0,0:0:0:0:
365,314,183131,1,0,0:0:0:0:
413,310,183270,1,0,0:0:0:0:
493,301,183409,1,0,0:0:0:0:
418,231,183547,1,0,0:0:0:0:
416,198,183617,1,0,0:0:0:0:
418,180,183686,1,0,0:0:0:0:
424,166,183756,1,0,0:0:0:0:
437,154,183825,6,0,B|457:102|423:63|434:5,1,146.999995513916
458,8,184381,1,0,0:0:0:0:
411,83,184520,1,0,0:0:0:0:
274,66,184659,6,0,L|126:101,1,146.999995513916
231,159,185214,1,0,0:0:0:0:
130,73,185353,1,0,0:0:0:0:
4,227,185492,6,0,P|16:270|19:335,1,97.9999970092774
1,338,185909,1,0,0:0:0:0:
91,295,186047,1,0,0:0:0:0:
114,201,186186,1,0,0:0:0:0:
57,103,186325,6,0,P|59:63|98:-5,1,97.9999970092774
163,89,186742,1,0,0:0:0:0:
251,31,186881,1,0,0:0:0:0:
268,32,186950,1,0,0:0:0:0:
286,40,187020,1,0,0:0:0:0:
298,49,187089,1,0,0:0:0:0:
300,66,187159,6,0,P|292:115|287:169,1,97.9999970092774
380,115,187575,1,0,0:0:0:0:
254,181,187714,1,0,0:0:0:0:
285,284,187853,1,0,0:0:0:0:
401,173,187992,6,0,P|395:124|388:75,1,97.9999970092774
428,201,188547,1,0,0:0:0:0:
271,276,188825,6,0,P|196:272|112:257,1,146.999995513916
185,197,189381,1,0,0:0:0:0:
90,269,189520,1,0,0:0:0:0:
3,144,189659,6,0,P|11:95|68:8,1,146.999995513916
138,84,190214,1,0,0:0:0:0:
173,100,190284,1,0,0:0:0:0:
188,123,190353,1,0,0:0:0:0:
220,138,190422,1,0,0:0:0:0:
255,137,190492,6,0,B|294:146|325:120|361:122,1,97.9999970092774
357,202,190909,1,0,0:0:0:0:
350,223,191047,1,0,0:0:0:0:
461,122,191186,1,0,0:0:0:0:
344,41,191325,6,0,P|276:35|195:18,1,146.999995513916
168,38,191881,1,0,0:0:0:0:
249,65,192159,6,0,P|303:37|395:17,1,146.999995513916
433,74,192714,1,0,0:0:0:0:
350,141,192853,1,0,0:0:0:0:
453,259,192992,6,0,L|448:360,1,97.9999970092774
305,308,193409,1,0,0:0:0:0:
196,355,193547,1,0,0:0:0:0:
169,377,193617,1,0,0:0:0:0:
134,377,193686,1,0,0:0:0:0:
118,354,193756,1,0,0:0:0:0:
122,332,193825,6,0,L|72:180,1,146.999995513916
52,188,194381,1,0,0:0:0:0:
170,208,194520,1,0,0:0:0:0:
225,308,194659,6,0,L|326:313,1,97.9999970092774
337,159,195214,1,0,0:0:0:0:
283,220,195353,1,0,0:0:0:0:
374,323,195492,6,0,L|312:332,1,48.9999985046387
235,384,195770,1,0,0:0:0:0:
307,346,195909,1,0,0:0:0:0:
326,261,196047,1,0,0:0:0:0:
297,182,196186,1,0,0:0:0:0:
177,163,196325,2,0,L|68:193,1,97.9999970092774
71,115,196742,1,0,0:0:0:0:
194,169,196881,1,0,0:0:0:0:
205,189,197159,6,0,B|307:278|391:108|480:161,1,283.499991348267
479,179,198547,1,0,0:0:0:0:
326,101,198825,1,0,0:0:0:0:
322,126,199381,2,0,P|246:102|117:141,1,188.999994232178
376,312,200492,6,0,B|416:356|506:294|463:217|433:227|403:239|387:142|414:95,1,283.499991348267
422,107,201881,1,0,0:0:0:0:
269,227,202159,2,0,L|163:218,1,94.499997116089
140,244,202714,2,0,L|175:235,1,31.4999990386963
201,124,202992,2,0,B|157:160|96:134|76:75|34:114,1,157.499995193482
46,339,203825,6,0,P|126:263|200:301,1,188.999994232178
414,246,205492,6,0,P|326:265|271:194,1,188.999994232178
193,144,206603,1,0,0:0:0:0:
250,87,206742,1,0,0:0:0:0:
390,72,206881,1,0,0:0:0:0:
390,89,206950,1,0,0:0:0:0:
386,97,207020,1,0,0:0:0:0:
377,106,207089,1,0,0:0:0:0:
361,104,207159,6,0,P|342:57|378:31,1,94.499997116089
462,76,207714,1,0,0:0:0:0:
414,264,207992,1,0,0:0:0:0:
243,334,208270,1,0,0:0:0:0:
90,228,208547,1,0,0:0:0:0:
148,50,208825,6,0,B|228:6|237:109|301:114,1,173.24999471283
321,80,209659,2,0,P|268:92|223:197,1,173.24999471283
241,207,210492,5,0,0:0:0:0:
346,171,210770,1,0,0:0:0:0:
331,191,210909,1,0,0:0:0:0:
338,83,211047,1,0,0:0:0:0:
453,157,211186,1,0,0:0:0:0:
365,269,211325,5,0,0:0:0:0:
278,293,211464,1,0,0:0:0:0:
203,286,211603,2,0,L|141:265,1,62.9999980773926
56,348,212020,1,0,0:0:0:0:
132,173,212159,2,0,L|177:153,1,31.4999990386963
52,233,212436,2,0,L|7:213,1,31.4999990386963
186,124,212714,1,0,0:0:0:0:
246,186,212853,1,0,0:0:0:0:
140,283,212992,5,0,0:0:0:0:
51,215,213131,1,0,0:0:0:0:
72,153,213270,1,0,0:0:0:0:
66,116,213409,1,0,0:0:0:0:
80,93,213547,2,0,P|90:71|92:44,1,31.4999990386963
195,133,213826,5,0,0:0:0:0:
273,200,214018,2,0,L|329:191,1,35
382,143,214288,1,0,2:0:0:0:
293,219,214423,2,0,P|290:237|302:293,1,70
396,232,214885,1,0,0:0:0:0:
455,306,215135,1,0,0:0:0:0:
483,162,215260,2,0,P|480:124|476:107,1,35
286,104,215554,2,0,P|311:95|330:64,1,35
162,150,215848,2,0,P|207:170|244:168,1,87.5
197,51,216387,2,0,B|151:43|151:43|112:58|112:58|57:49,1,140
82,132,217146,5,0,0:0:0:0:
139,218,217302,2,0,L|151:263,1,35
276,169,217572,1,0,0:0:0:0:
219,255,217710,2,0,L|209:288,1,35
340,243,217991,1,0,0:0:0:0:
257,152,218163,2,0,L|251:111,1,35
357,147,218401,1,0,0:0:0:0:
182,96,218567,2,0,L|169:57,1,35
272,12,218817,2,0,L|305:25,1,35
448,62,219129,2,0,L|380:81,1,70
254,192,219650,5,0,0:0:0:0:
327,259,219788,1,0,0:0:0:0:
417,177,219927,1,0,0:0:0:0:
280,61,220066,1,0,0:0:0:0:
115,205,220205,1,0,0:0:0:0:
315,384,220344,1,0,0:0:0:0:
512,157,220483,6,0,P|464:90|420:46,1,108.500000827789
283,299,220760,2,0,P|317:223|333:163,1,108.500000827789
254,18,221038,1,0,0:0:0:0:
179,179,221177,1,0,0:0:0:0:
468,261,221316,6,0,B|458:171|458:171|422:136|422:136|413:52,1,217.000001655579
512,85,221733,1,0,0:0:0:0:
334,306,221871,1,0,0:0:0:0:
296,313,221941,1,0,0:0:0:0:
233,304,222010,1,0,0:0:0:0:
171,264,222080,1,0,0:0:0:0:
134,155,222149,6,0,P|139:99|156:24,1,115.500001101494
268,192,222427,1,0,0:0:0:0:
152,296,222566,1,0,0:0:0:0:
247,97,222705,1,0,0:0:0:0:
452,194,222844,1,0,0:0:0:0:
257,298,222983,6,0,L|243:167,1,115.500001101494
147,105,223260,1,0,0:0:0:0:
266,240,223399,1,0,0:0:0:0:
332,40,223538,1,0,0:0:0:0:
357,104,223608,1,0,0:0:0:0:
397,120,223677,1,0,0:0:0:0:
420,112,223746,1,0,0:0:0:0:
491,62,223816,6,0,P|433:17|241:20,1,231.000002202988
164,144,224233,1,0,0:0:0:0:
349,208,224371,1,0,0:0:0:0:
412,37,224510,1,0,0:0:0:0:
393,301,224649,6,0,P|381:234|340:139,1,115.500001101494
478,32,224927,2,0,P|413:8|311:-3,1,115.500001101494
214,67,225205,1,0,0:0:0:0:
372,189,225344,1,0,0:0:0:0:
111,339,225483,2,0,B|31:263|176:200|117:102,1,231.000002202988
227,230,225899,1,0,0:0:0:0:
38,167,226038,1,0,0:0:0:0:
101,29,226177,1,0,0:0:0:0:
65,267,226316,6,0,P|68:328|76:393,1,115.500001101494
343,199,226594,2,0,P|291:232|239:271,1,115.500001101494
450,322,226871,1,0,0:0:0:0:
469,307,226941,1,0,0:0:0:0:
482,266,227010,1,0,0:0:0:0:
473,207,227080,1,0,0:0:0:0:
395,137,227150,5,0,0:0:0:0:
264,284,227288,2,0,L|138:262,1,101.500003097534
406,380,227566,1,0,0:0:0:0:
245,139,227705,2,0,L|235:24,1,101.500003097534
447,201,227983,1,0,0:0:0:0:
304,352,228121,2,0,L|203:381,1,101.500003097534
357,192,228399,1,0,0:0:0:0:
118,229,228538,2,0,L|17:215,1,90.9999958343508
370,61,228816,6,0,P|366:170|246:167,1,245.000002336502
257,52,229233,1,0,0:0:0:0:
357,192,229371,1,0,0:0:0:0:
227,275,229510,1,0,0:0:0:0:
88,188,229649,2,0,L|56:55,1,122.500001168251
208,135,229927,1,0,0:0:0:0:
86,75,230066,1,0,0:0:0:0:
195,8,230205,1,0,0:0:0:0:
229,0,230274,1,0,0:0:0:0:
263,10,230344,1,0,0:0:0:0:
287,39,230413,1,0,0:0:0:0:
284,161,230483,5,0,0:0:0:0:
419,42,230621,2,0,L|516:27,1,94.5000003604889
430,266,230899,1,0,0:0:0:0:
369,138,231038,1,0,0:0:0:0:
494,93,231177,1,0,0:0:0:0:
421,353,231316,5,0,0:0:0:0:
275,186,231455,2,0,L|172:179,1,94.5000003604889
33,262,231733,1,0,0:0:0:0:
140,108,231871,1,0,0:0:0:0:
236,259,232010,1,0,0:0:0:0:
117,358,232149,6,0,B|101:283|101:283|111:253|111:253|99:156,1,167.999994873047
210,291,232566,1,0,0:0:0:0:
33,241,232705,1,0,0:0:0:0:
129,106,232844,1,0,0:0:0:0:
263,201,232983,2,0,L|381:211,1,83.9999974365235
386,276,233260,1,0,0:0:0:0:
421,155,233399,1,0,0:0:0:0:
493,308,233538,1,0,0:0:0:0:
491,323,233608,1,0,0:0:0:0:
485,338,233677,1,0,0:0:0:0:
479,349,233746,1,0,0:0:0:0:
452,368,233816,6,0,L|390:360,1,45.4999979171754
425,349,234094,2,0,L|364:353,1,45.4999979171754
264,308,234371,1,0,0:0:0:0:
298,289,234510,1,0,0:0:0:0:
376,232,234649,6,0,P|406:240|434:258,1,45.4999979171754
342,219,234927,2,0,P|381:213|395:206,1,45.4999979171754
387,105,235205,1,0,0:0:0:0:
378,94,235274,1,0,0:0:0:0:
364,87,235344,1,0,0:0:0:0:
349,84,235413,1,0,0:0:0:0:
334,85,235483,2,0,L|285:95,1,45.4999979171754
181,139,235760,1,0,0:0:0:0:
223,157,235899,1,0,0:0:0:0:
246,111,236038,1,0,0:0:0:0:
198,90,236177,1,0,0:0:0:0:
142,233,236316,6,0,B|92:253|79:220|45:236,1,90.9999958343508
26,318,236733,1,0,0:0:0:0:
34,209,236871,1,0,0:0:0:0:
37,183,236941,1,0,0:0:0:0:
40,158,237010,1,0,0:0:0:0:
42,132,237080,1,0,0:0:0:0:
51,60,237149,6,0,P|51:35|45:10,1,45.4999979171754
71,76,237427,1,0,0:0:0:0:
147,22,237566,1,0,0:0:0:0:
176,86,237705,1,0,0:0:0:0:
163,162,237844,1,0,0:0:0:0:
268,120,237983,6,0,L|264:53,1,45.4999979171754
277,175,238260,2,0,L|301:112,1,45.4999979171754
385,82,238538,1,0,0:0:0:0:
416,170,238677,1,0,0:0:0:0:
381,283,238816,2,0,L|274:306,1,90.9999958343508
183,283,239233,1,0,0:0:0:0:
279,298,239371,1,0,0:0:0:0:
178,311,239510,1,0,0:0:0:0:
352,366,239649,2,0,L|416:373,1,45.4999979171754
502,309,239927,2,0,L|438:316,1,45.4999979171754
335,203,240205,1,0,0:0:0:0:
372,229,240274,1,0,0:0:0:0:
420,234,240344,1,0,0:0:0:0:
461,220,240413,1,0,0:0:0:0:
511,150,240483,6,0,L|504:96,1,45.4999979171754
396,99,240760,1,0,0:0:0:0:
483,69,240899,1,0,0:0:0:0:
441,5,241038,1,0,0:0:0:0:
425,5,241177,1,0,0:0:0:0:
327,61,241316,2,0,L|264:54,1,45.4999979171754
188,129,241594,2,0,L|239:120,1,45.4999979171754
265,35,241871,1,0,0:0:0:0:
173,154,242149,6,0,L|121:149,1,52.4999983978272
39,239,242983,6,0,L|70:236,1,31.4999990386963
133,262,243538,1,0,0:0:0:0:
183,340,243816,6,0,L|306:352,1,94.499997116089
382,237,244556,1,0,0:0:0:0:
392,254,244927,2,0,L|283:269,1,62.9999980773926
264,233,245343,1,0,0:0:0:0:
246,156,245621,1,0,0:0:0:0:
359,269,246038,2,0,L|446:275,1,62.9999980773926
474,318,246454,1,0,0:0:0:0:
490,299,246732,1,0,0:0:0:0:
396,103,247149,6,0,L|301:122,1,94.499997116089
248,95,247704,2,0,L|343:114,1,94.499997116089
393,222,248260,6,0,P|362:221|303:229,1,62.9999980773926
250,253,248677,1,0,0:0:0:0:
207,177,248954,1,0,0:0:0:0:
53,271,249371,2,0,P|92:263|134:265,1,62.9999980773926
184,304,249788,1,0,0:0:0:0:
219,362,250066,1,0,0:0:0:0:
179,134,250482,5,0,0:0:0:0:
169,113,250575,1,0,0:0:0:0:
161,86,250667,1,0,0:0:0:0:
161,57,250760,1,0,0:0:0:0:
256,192,250853,12,0,256593,0:0:0:0:
