osu file format v14

[General]
AudioFilename: audio.mp3
AudioLeadIn: 0
PreviewTime: 12775
Countdown: 0
SampleSet: Soft
StackLeniency: 0.7
Mode: 0
LetterboxInBreaks: 0
WidescreenStoryboard: 0

[Editor]
DistanceSpacing: 1
BeatDivisor: 4
GridSize: 16
TimelineZoom: 1.1

[Metadata]
Title:Here
TitleUnicode:Here
Artist:JUNNA
ArtistUnicode:JUNNA
Creator:Hakura
Version:Sandwich Silky
Source:魔法使いの嫁
Tags:The Ancient Magus' Bride Mahoutsukai no Yome opening tv size
BeatmapID:1508554
BeatmapSetID:713756

[Difficulty]
HPDrainRate:6
CircleSize:4
OverallDifficulty:8.5
ApproachRate:9.5
SliderMultiplier:3.59999990463257
SliderTickRate:1

[Events]
//Background and Video events
0,0,"thumb-1920-880798.png",0,0
//Break Periods
//Storyboard Layer 0 (Background)
//Storyboard Layer 1 (Fail)
//Storyboard Layer 2 (Pass)
//Storyboard Layer 3 (Foreground)
//Storyboard Sound Samples

[TimingPoints]
1109,555.555555555556,3,2,0,30,1,0
12775,-133.333333333333,3,2,0,70,0,0
13332,555.555555555556,4,3,0,70,1,0
13332,-100,4,3,0,70,0,0
18980,-100,4,3,0,5,0,0
19072,-100,4,3,0,70,0,0
19165,-100,4,3,0,5,0,0
19257,-100,4,3,0,70,0,0
19350,-100,4,3,0,5,0,0
19443,-100,4,3,0,70,0,0
19535,-100,4,3,0,5,0,0
19628,-100,4,3,0,70,0,0
19720,-100,4,3,0,5,0,0
19813,-100,4,3,0,70,0,0
19906,-100,4,3,0,5,0,0
19998,-100,4,3,0,70,0,0
22776,-100,4,3,0,50,0,0
38887,-133.333333333333,4,3,0,70,0,0
39720,-200,4,3,0,70,0,0
39998,-100,4,3,0,70,0,0
57776,416.666666666667,4,3,0,70,1,1
57776,-100,4,3,0,70,0,1
59651,-100,4,3,0,5,0,1
59755,-100,4,3,0,70,0,1
59963,-100,4,3,0,5,0,1
60067,-100,4,3,0,70,0,1
60171,-100,4,3,0,5,0,1
60276,-100,4,3,0,70,0,1
62984,-100,4,3,0,5,0,1
63088,-100,4,3,0,70,0,1
63296,-100,4,3,0,5,0,1
63401,-100,4,3,0,70,0,1
63505,-100,4,3,0,5,0,1
63609,-100,4,3,0,70,0,1
64442,-100,4,3,0,70,0,0
71109,-100,4,3,0,70,0,1
72463,-100,4,3,0,5,0,1
72567,-100,4,3,0,70,0,1
72984,-100,4,3,0,5,0,1
73088,-100,4,3,0,70,0,1
73296,-100,4,3,0,5,0,1
73401,-100,4,3,0,70,0,1
73505,-100,4,3,0,5,0,1
73609,-100,4,3,0,70,0,1
76317,-100,4,3,0,5,0,1
76421,-100,4,3,0,70,0,1
76630,-100,4,3,0,5,0,1
76734,-100,4,3,0,70,0,1
76838,-100,4,3,0,5,0,1
76942,-100,4,3,0,70,0,1
77776,-100,4,3,0,70,0,0

[Colours]
Combo1 : 244,74,100
Combo2 : 170,255,170

[HitObjects]
418,187,12775,6,0,L|420:119,2,45.0000005245209,0|0|0,3:0|3:0|3:0,0:0:0:0:
494,170,13053,2,0,L|492:214,2,45.0000005245209,0|0|0,3:0|3:0|3:0,0:0:0:0:
431,281,13332,6,0,B|366:238|303:281|303:281|241:322|178:281,1,269.999992847443,4|2,1:2|0:2,0:0:0:0:
240,125,13887,2,0,P|251:166|236:233,1,89.9999976158143,10|0,0:2|0:0,0:0:0:0:
90,333,14165,1,0,0:0:0:0:
90,333,14304,2,0,P|79:292|94:225,1,89.9999976158143,2|0,0:2|1:2,0:0:0:0:
122,88,14582,2,0,P|133:129|118:196,1,89.9999976158143,0|2,0:0|0:2,0:0:0:0:
41,138,14859,1,0,0:0:0:0:
202,36,14998,5,8,0:2:0:0:
209,226,15137,1,0,0:0:0:0:
212,48,15276,1,0,0:0:0:0:
310,191,15415,1,0,0:0:0:0:
225,63,15554,6,0,B|290:20|353:63|353:63|415:104|478:63,1,269.999992847443,4|2,1:2|0:2,0:0:0:0:
416,160,16109,2,0,P|405:201|420:268,1,89.9999976158143,8|0,0:2|0:0,0:0:0:0:
494,384,16387,2,0,P|505:343|490:276,1,89.9999976158143,0|0,0:0|0:0,0:0:0:0:
418,332,16665,2,0,L|303:341,1,89.9999976158143,2|2,1:2|0:2,0:0:0:0:
299,240,16943,2,0,L|184:231,1,89.9999976158143,2|0,0:2|0:0,0:0:0:0:
410,247,17220,5,8,0:2:0:0:
216,332,17359,1,0,0:0:0:0:
391,227,17498,1,2,0:3:0:0:
209,232,17637,1,0,0:0:0:0:
372,207,17776,6,0,P|306:97|402:0,1,269.999992847443,6|0,1:3|0:0,0:0:0:0:
468,159,18332,2,0,P|479:200|464:267,1,89.9999976158143,8|0,0:2|0:0,0:0:0:0:
343,366,18609,2,0,P|332:325|347:258,1,89.9999976158143,0|0,0:0|0:0,0:0:0:0:
362,150,18887,6,0,B|376:180|376:180|368:224,1,59.9999984105428,2|0,1:2|0:0,0:0:0:0:
325,82,19072,2,0,B|343:54|343:54|386:39,1,59.9999984105428,2|0,0:2|0:0,0:0:0:0:
285,149,19257,2,0,B|252:146|252:146|217:117,1,59.9999984105428,2|0,0:2|0:0,0:0:0:0:
336,83,19443,6,0,B|361:62|361:62|406:58,1,59.9999984105428,10|0,0:2|0:0,0:0:0:0:
280,137,19628,2,0,B|249:125|249:125|224:88,1,59.9999984105428,2|0,0:2|0:0,0:0:0:0:
355,158,19813,2,0,B|361:190|361:190|342:231,1,59.9999984105428,2|0,0:2|0:0,0:0:0:0:
188,234,19998,6,0,P|229:223|296:238,1,89.9999976158143,0|0,1:2|0:0,0:0:0:0:
176,340,20276,1,2,0:2:0:0:
143,118,20415,1,2,0:2:0:0:
89,366,20554,5,10,0:2:0:0:
134,144,20693,1,2,0:2:0:0:
109,277,20832,1,2,0:2:0:0:
150,90,20970,1,2,0:2:0:0:
263,314,21109,5,2,1:2:0:0:
143,118,21248,1,2,0:2:0:0:
196,251,21387,1,2,0:2:0:0:
150,90,21526,1,2,1:2:0:0:
284,224,21665,5,8,0:2:0:0:
263,314,21804,1,2,1:2:0:0:
196,251,21943,1,2,0:3:0:0:
176,340,22082,1,2,1:2:0:0:
109,277,22220,6,0,B|80:233|109:192|109:192|136:150|109:109,1,179.999995231629,4|0,1:2|0:0,0:0:0:0:
66,23,22637,1,0,0:0:0:0:
66,23,22776,2,0,P|107:34|174:19,1,89.9999976158143,8|0,0:2|0:0,0:0:0:0:
287,113,23054,2,0,P|244:102|200:108,1,89.9999976158143,2|0,0:2|0:0,0:0:0:0:
361,142,23332,6,0,P|404:153|448:147,1,89.9999976158143,2|0,1:2|0:0,0:0:0:0:
299,191,23609,1,2,0:2:0:0:
299,191,23748,2,0,P|287:234|293:278,1,89.9999976158143,2|8,0:2|0:2,0:0:0:0:
342,87,24026,2,0,P|353:43|347:0,1,89.9999976158143,2|0,0:2|0:0,0:0:0:0:
442,132,24304,6,0,B|485:197|442:260|442:260|401:322|442:385,1,269.999992847443,2|0,0:2|0:0,0:0:0:0:
371,196,24859,1,0,0:0:0:0:
371,196,24998,2,0,L|256:205,1,89.9999976158143,8|0,0:2|0:0,0:0:0:0:
133,301,25276,2,0,L|248:292,1,89.9999976158143,0|0,0:0|0:0,0:0:0:0:
208,124,25554,6,0,P|196:167|202:211,1,89.9999976158143,2|0,1:2|0:0,0:0:0:0:
301,370,25832,1,2,0:2:0:0:
301,370,25970,2,0,P|313:327|307:283,1,89.9999976158143,2|8,0:2|0:2,0:0:0:0:
135,288,26248,2,0,P|178:300|222:294,1,89.9999976158143,2|0,0:2|0:0,0:0:0:0:
281,203,26526,1,0,0:0:0:0:
281,203,26665,6,0,P|324:191|368:197,1,89.9999976158143,6|0,1:2|0:0,0:0:0:0:
465,382,26943,2,0,B|508:317|465:254|465:254|424:192|465:129,1,269.999992847443,2|0,0:2|0:0,0:0:0:0:
512,53,27498,2,0,P|469:41|425:47,1,89.9999976158143,0|0,0:0|0:0,0:0:0:0:
335,96,27776,5,0,1:2:0:0:
335,96,27915,2,0,P|323:53|329:9,1,89.9999976158143,0|0,0:0|0:0,0:0:0:0:
377,184,28193,1,0,0:0:0:0:
377,184,28332,2,0,P|389:227|383:271,1,89.9999976158143,8|0,0:2|0:0,0:0:0:0:
211,233,28609,2,0,P|254:221|298:227,1,89.9999976158143,0|0,0:0|0:0,0:0:0:0:
129,286,28887,6,0,L|121:196,2,89.9999976158143,0|0|0,1:2|0:0|0:0,0:0:0:0:
0,111,29304,2,0,B|65:68|128:111|128:111|190:152|253:111,1,269.999992847443,0|0,0:0|0:0,0:0:0:0:
340,62,29859,1,0,0:0:0:0:
340,62,29999,6,0,P|353:106|346:150,1,89.9999976158143,0|0,1:2|0:0,0:0:0:0:
309,311,30276,2,0,P|296:267|303:223,1,89.9999976158143,0|0,0:0|0:0,0:0:0:0:
391,223,30554,1,8,0:2:0:0:
346,148,30693,1,0,0:0:0:0:
391,223,30832,2,0,P|403:266|396:310,1,89.9999976158143,0|0,0:0|0:0,0:0:0:0:
203,347,31109,6,0,B|160:282|203:219|203:219|244:157|203:94,1,269.999992847443,0|0,1:2|0:0,0:0:0:0:
253,7,31665,2,0,P|210:-5|166:1,1,89.9999976158143,8|0,0:2|0:0,0:0:0:0:
303,92,31943,2,0,L|418:83,1,89.9999976158143,2|0,0:2|0:0,0:0:0:0:
512,185,32220,6,0,L|397:176,1,89.9999976158143,0|0,1:2|0:0,0:0:0:0:
477,7,32498,1,2,0:2:0:0:
477,7,32637,2,0,L|486:122,1,89.9999976158143,2|8,0:2|0:2,0:0:0:0:
326,257,32915,2,0,L|335:142,1,89.9999976158143,2|0,0:2|0:0,0:0:0:0:
391,330,33193,6,0,B|326:373|263:330|263:330|201:289|138:330,1,269.999992847443,2|0,0:2|0:0,0:0:0:0:
52,383,33748,1,0,0:0:0:0:
52,383,33887,2,0,P|39:339|46:295,1,89.9999976158143,8|0,0:2|0:0,0:0:0:0:
116,149,34165,2,0,P|129:193|122:237,1,89.9999976158143,0|0,0:0|0:0,0:0:0:0:
40,73,34443,6,0,L|155:64,1,89.9999976158143,2|0,1:2|0:0,0:0:0:0:
295,132,34720,1,2,0:2:0:0:
295,132,34859,2,0,L|205:124,1,89.9999976158143,2|8,0:2|0:2,0:0:0:0:
382,92,35137,2,0,L|374:181,1,89.9999976158143,2|0,0:2|0:0,0:0:0:0:
155,276,35415,6,0,B|220:319|283:276|283:276|345:235|408:276,1,269.999992847443,2|0,0:2|0:0,0:0:0:0:
496,326,35970,1,0,0:0:0:0:
496,326,36109,2,0,P|509:282|502:238,1,89.9999976158143,8|0,0:2|0:0,0:0:0:0:
427,95,36387,2,0,P|414:139|421:183,1,89.9999976158143,0|0,0:0|0:0,0:0:0:0:
506,145,36665,5,0,1:2:0:0:
502,239,36804,1,0,0:0:0:0:
504,145,36943,2,0,P|517:101|510:57,1,89.9999976158143,0|0,0:0|0:0,0:0:0:0:
333,174,37220,2,0,P|375:187|420:181,1,89.9999976158143,8|0,0:2|0:0,0:0:0:0:
254,141,37498,1,0,0:0:0:0:
383,83,37637,1,0,0:0:0:0:
260,225,37776,5,4,0:2:0:0:
172,291,39026,5,8,0:2:0:0:
172,291,39165,2,0,L|262:285,1,67.5000007867814,8|8,0:2|0:2,0:0:0:0:
273,283,39373,1,8,0:2:0:0:
306,281,39443,1,8,0:2:0:0:
229,164,39582,1,8,0:2:0:0:
96,259,39720,2,0,P|87:300|104:342,1,67.4999982118607,8|0,0:3|0:0,0:0:0:0:
163,214,39998,6,0,P|150:170|157:126,1,89.9999976158143,6|0,1:2|0:0,0:0:0:0:
322,1,40276,2,0,L|331:116,1,89.9999976158143,0|0,0:0|0:0,0:0:0:0:
321,262,40554,2,0,L|313:172,1,89.9999976158143,0|0,1:0|0:0,0:0:0:0:
482,152,40832,2,0,L|392:144,1,89.9999976158143,0|0,0:0|0:0,0:0:0:0:
246,120,41109,6,0,B|162:142|162:142|58:110,1,179.999995231629,0|0,1:0|0:0,0:0:0:0:
0,231,41526,2,0,B|84:209|84:209|188:241,1,179.999995231629,0|0,0:0|0:0,0:0:0:0:
85,384,41943,2,0,P|72:340|79:296,1,89.9999976158143,0|0,0:0|0:0,0:0:0:0:
267,272,42220,6,0,P|273:227|260:185,1,89.9999976158143,2|0,1:2|0:0,0:0:0:0:
215,6,42498,2,0,P|208:50|221:92,1,89.9999976158143,0|0,0:0|0:0,0:0:0:0:
393,102,42776,2,0,P|348:95|306:108,1,89.9999976158143,0|0,1:0|0:0,0:0:0:0:
92,176,43054,2,0,P|136:182|178:169,1,89.9999976158143,0|0,0:0|0:0,0:0:0:0:
6,141,43332,6,0,P|0:185|12:227,1,89.9999976158143,0|0,1:0|0:0,0:0:0:0:
45,384,43609,2,0,P|51:339|38:297,1,89.9999976158143,0|0,0:0|0:0,0:0:0:0:
129,338,43887,2,0,B|194:381|257:338|257:338|319:297|382:338,1,269.999992847443,0|0,1:0|0:0,0:0:0:0:
463,384,44443,6,0,L|471:294,1,89.9999976158143,2|0,1:2|0:0,0:0:0:0:
386,207,44720,2,0,B|321:250|258:207|258:207|196:166|133:207,1,269.999992847443,0|0,0:0|0:0,0:0:0:0:
46,256,45276,2,0,P|33:212|40:168,1,89.9999976158143,0|0,0:0|0:0,0:0:0:0:
81,58,45554,6,0,B|165:80|165:80|269:48,1,179.999995231629,0|0,1:0|0:0,0:0:0:0:
327,169,45970,2,0,B|243:147|243:147|139:179,1,179.999995231629,0|0,0:0|0:0,0:0:0:0:
256,321,46387,2,0,L|248:231,1,89.9999976158143,0|0,0:0|0:0,0:0:0:0:
69,137,46665,6,0,P|75:181|63:223,1,89.9999976158143,2|0,1:2|0:0,0:0:0:0:
30,384,46943,2,0,P|24:340|36:298,1,89.9999976158143,0|0,0:0|0:0,0:0:0:0:
117,347,47220,2,0,L|232:356,1,89.9999976158143,0|0,1:0|0:0,0:0:0:0:
248,231,47498,2,0,L|363:222,1,89.9999976158143,0|0,0:0|0:0,0:0:0:0:
441,371,47776,6,0,B|484:306|441:243|441:243|400:181|441:118,1,269.999992847443,2|0,1:2|0:0,0:0:0:0:
370,308,48332,1,2,1:2:0:0:
512,182,48470,1,0,0:0:0:0:
370,325,48609,1,0,0:0:0:0:
512,199,48747,1,0,0:0:0:0:
370,342,48887,6,0,B|305:299|242:342|242:342|180:383|117:342,1,269.999992847443,2|0,1:2|0:0,0:0:0:0:
33,220,49443,2,0,L|41:310,1,89.9999976158143,0|0,1:0|0:0,0:0:0:0:
120,207,49720,2,0,B|185:164|248:207|248:207|310:248|373:207,1,269.999992847443,2|0,0:2|0:0,0:0:0:0:
457,85,50276,6,0,L|449:175,1,89.9999976158143,2|0,0:2|0:0,0:0:0:0:
431,347,50554,2,0,L|439:257,1,89.9999976158143,2|0,1:2|0:0,0:0:0:0:
372,207,50832,2,0,B|307:164|244:207|244:207|182:248|119:207,1,269.999992847443,6|0,0:2|0:0,0:0:0:0:
188,45,51387,6,0,P|194:90|182:133,1,89.9999976158143,0|0,0:0|0:0,0:0:0:0:
9,117,51665,2,0,P|53:111|96:123,1,89.9999976158143,0|0,1:0|0:0,0:0:0:0:
38,289,51943,2,0,P|32:244|44:201,1,89.9999976158143,0|0,0:0|0:0,0:0:0:0:
217,217,52220,2,0,P|172:222|129:210,1,89.9999976158143,0|0,1:0|0:0,0:0:0:0:
182,133,52498,5,0,0:0:0:0:
96,123,52637,1,0,0:0:0:0:
182,133,52776,1,0,1:0:0:0:
9,117,52915,2,0,B|31:201|31:201|-1:305,1,179.999995231629
127,326,53332,6,0,B|192:283|255:326|255:326|317:367|380:326,1,269.999992847443,2|0,1:2|0:0,0:0:0:0:
464,204,53888,2,0,L|456:294,1,89.9999976158143,0|0,1:0|0:0,0:0:0:0:
377,191,54165,2,0,B|312:148|249:191|249:191|187:232|124:191,1,269.999992847443,2|0,0:2|0:0,0:0:0:0:
40,69,54721,6,0,L|48:159,1,89.9999976158143,2|0,0:2|0:0,0:0:0:0:
66,331,54999,2,0,L|58:241,1,89.9999976158143,2|0,1:2|0:0,0:0:0:0:
124,191,55276,2,0,L|214:183,1,89.9999976158143,6|0,0:2|0:0,0:0:0:0:
170,92,55554,5,0,1:0:0:0:
171,278,55693,1,8,0:3:0:0:
204,103,55832,1,8,0:3:0:0:
205,289,55971,1,4,0:3:0:0:
238,114,56109,6,0,B|322:136|322:136|426:104,1,179.999995231629,12|8,0:2|0:3,0:0:0:0:
478,72,56526,5,4,0:3:0:0:
391,328,56665,1,4,0:2:0:0:
411,108,56804,1,8,0:3:0:0:
461,288,56943,1,8,0:2:0:0:
448,179,57082,6,0,L|358:187,1,89.9999976158143,8|0,0:3|0:0,0:0:0:0:
214,264,57359,1,8,0:3:0:0:
214,264,57498,2,0,L|304:256,1,89.9999976158143,8|0,0:3|0:0,0:0:0:0:
127,354,57776,5,6,1:2:0:0:
78,294,57914,2,0,B|40:238|40:238|54:167,1,119.999996821086,0|0,0:0|0:0,0:0:0:0:
127,354,58192,1,0,0:0:0:0:
176,294,58331,2,0,B|214:238|214:238|200:167,1,119.999996821086
127,19,58609,5,10,0:2:0:0:
78,79,58748,2,0,B|40:135|40:135|54:206,1,119.999996821086,0|0,0:0|0:0,0:0:0:0:
127,19,59025,1,0,0:0:0:0:
176,79,59164,2,0,B|214:135|214:135|200:206,1,119.999996821086,0|0,0:0|0:0,0:0:0:0:
57,326,59442,6,0,P|140:296|246:317,1,179.999995231629,2|0,1:2|0:0,0:0:0:0:
229,308,59755,2,0,P|312:338|418:317,1,179.999995231629
424,241,60067,2,0,P|402:281|411:352,1,89.9999976158143
476,160,60276,6,0,B|405:154|405:154|319:211|319:211|216:203,1,239.999993642171,10|0,0:2|0:0,0:0:0:0:
176,193,60692,1,0,0:0:0:0:
229,133,60831,1,0,0:0:0:0:
203,270,60970,1,0,0:0:0:0:
8,269,61109,5,2,1:2:0:0:
68,220,61248,2,0,B|124:182|124:182|195:196,1,119.999996821086
8,269,61525,1,0,1:0:0:0:
68,318,61664,2,0,B|124:356|124:356|195:342,1,119.999996821086,0|0,0:0|1:0,0:0:0:0:
343,269,61942,5,8,0:2:0:0:
283,220,62081,2,0,B|227:182|227:182|156:196,1,119.999996821086,0|0,0:0|0:0,0:0:0:0:
343,269,62358,1,0,0:0:0:0:
283,318,62498,2,0,B|227:356|227:356|156:342,1,119.999996821086
7,268,62776,6,0,P|-17:214|24:79,1,179.999995231629,0|0,1:0|0:0,0:0:0:0:
7,100,63088,2,0,P|61:124|196:83,1,179.999995231629,0|0,0:0|0:0,0:0:0:0:
170,188,63401,2,0,P|166:132|189:75,1,89.9999976158143,0|0,0:0|0:0,0:0:0:0:
170,273,63609,6,0,B|241:267|241:267|327:324|327:324|430:316,1,239.999993642171,8|2,0:2|0:2,0:0:0:0:
470,306,64025,1,0,0:0:0:0:
443,383,64164,1,2,0:2:0:0:
417,246,64303,1,2,0:3:0:0:
222,348,64442,6,0,B|175:373|139:339|139:339|127:359|127:359|68:322|-14:368,1,239.999993642171,4|0,1:2|0:0,0:0:0:0:
5,357,64859,1,0,1:0:0:0:
7,241,64998,2,0,B|61:218|61:218|126:238,1,119.999996821086,0|0,0:0|1:0,0:0:0:0:
335,245,65276,6,0,B|288:220|252:254|252:254|240:234|240:234|181:271|99:225,1,239.999993642171,2|0,1:2|0:0,0:0:0:0:
180,328,65692,1,0,0:0:0:0:
69,336,65831,1,0,0:0:0:0:
118,235,65970,1,0,0:0:0:0:
219,150,66109,6,0,B|266:125|302:159|302:159|314:139|314:139|373:176|455:130,1,239.999993642171,2|0,1:2|0:0,0:0:0:0:
435,140,66525,1,0,1:0:0:0:
494,54,66664,2,0,B|440:31|440:31|375:51,1,119.999996821086,0|0,0:0|1:0,0:0:0:0:
165,39,66942,6,0,B|212:64|248:30|248:30|260:50|260:50|319:13|401:59,1,239.999993642171,10|0,0:2|0:0,0:0:0:0:
320,141,67358,1,0,0:0:0:0:
431,149,67497,1,0,0:0:0:0:
381,48,67636,1,0,0:0:0:0:
368,229,67776,6,0,B|297:223|297:223|211:280|211:280|108:272,1,239.999993642171,0|0,1:0|0:0,0:0:0:0:
49,265,68192,1,0,1:0:0:0:
105,90,68331,2,0,B|128:144|128:144|108:209,1,119.999996821086,0|0,0:0|1:0,0:0:0:0:
43,22,68609,6,0,B|97:-1|97:-1|162:19,1,119.999996821086,10|0,0:2|0:0,0:0:0:0:
197,87,68887,1,0,0:0:0:0:
40,148,69026,1,0,0:0:0:0:
198,115,69164,1,0,0:0:0:0:
41,176,69303,1,0,0:0:0:0:
199,143,69442,6,0,B|270:137|270:137|356:194|356:194|459:186,1,239.999993642171,4|0,1:2|0:0,0:0:0:0:
512,178,69859,1,0,1:0:0:0:
457,104,69998,1,0,0:0:0:0:
512,178,70137,1,0,1:0:0:0:
385,272,70276,5,8,0:2:0:0:
184,279,70414,2,0,B|238:256|238:256|303:276,1,119.999996821086,8|8,0:2|0:3,0:0:0:0:
241,354,70692,1,4,0:3:0:0:
148,366,70831,1,4,0:3:0:0:
91,291,70970,1,4,0:3:0:0:
127,204,71109,5,6,1:2:0:0:
184,279,71248,2,0,B|240:241|240:241|311:255,1,119.999996821086,0|0,0:0|0:0,0:0:0:0:
127,204,71526,1,0,0:0:0:0:
184,129,71665,2,0,B|240:167|240:167|311:153,1,119.999996821086,0|0,0:0|0:0,0:0:0:0:
455,204,71942,5,10,0:2:0:0:
398,129,72081,2,0,B|342:167|342:167|271:153,1,119.999996821086
459,208,72359,6,0,P|481:248|472:319,1,89.9999976158143
482,291,72567,2,0,B|396:233|313:291|313:291|230:345|147:291,1,359.999990463257
150,294,73088,2,0,P|123:210|150:126,1,179.999995231629
127,41,73401,2,0,P|149:81|140:152,1,89.9999976158143,0|0,0:0|0:0,0:0:0:0:
260,21,73609,6,0,B|266:92|266:92|209:178|209:178|217:281,1,239.999993642171,10|0,0:2|0:0,0:0:0:0:
227,321,74025,1,0,0:0:0:0:
287,268,74164,1,0,0:0:0:0:
150,294,74303,1,0,0:0:0:0:
362,328,74442,5,2,1:2:0:0:
437,271,74581,2,0,B|399:215|399:215|413:144,1,119.999996821086,0|0,0:0|0:0,0:0:0:0:
362,328,74859,1,0,1:0:0:0:
287,271,74998,2,0,B|325:215|325:215|311:144,1,119.999996821086,0|0,0:0|1:0,0:0:0:0:
362,0,75276,5,8,0:2:0:0:
287,57,75415,2,0,B|325:113|325:113|311:184,1,119.999996821086,0|0,0:0|0:0,0:0:0:0:
362,0,75693,1,0,0:0:0:0:
437,57,75832,2,0,B|399:113|399:113|413:184,1,119.999996821086,0|0,0:0|0:0,0:0:0:0:
420,329,76109,6,0,P|337:299|231:320,1,179.999995231629,0|0,1:0|0:0,0:0:0:0:
248,311,76422,2,0,P|165:341|59:320,1,179.999995231629,0|0,0:0|0:0,0:0:0:0:
53,244,76734,2,0,P|75:284|66:355,1,89.9999976158143,0|0,0:0|0:0,0:0:0:0:
1,163,76943,6,0,B|72:157|72:157|158:214|158:214|261:206,1,239.999993642171,8|2,0:2|0:2,0:0:0:0:
301,196,77359,1,0,0:0:0:0:
248,136,77498,1,2,0:2:0:0:
274,273,77637,1,2,0:3:0:0:
379,188,77776,6,0,B|433:165|433:165|498:185,1,119.999996821086,0|0,1:0|0:0,0:0:0:0:
248,136,78053,2,0,B|201:100|201:100|185:34,1,119.999996821086,0|0,0:0|1:0,0:0:0:0:
274,273,78331,2,0,B|266:331|266:331|217:377,1,119.999996821086,0|0,0:0|1:0,0:0:0:0:
379,201,78609,6,0,B|436:188|436:188|497:219,1,119.999996821086,10|0,0:2|0:0,0:0:0:0:
261,267,78887,2,0,B|244:323|244:323|187:360,1,119.999996821086,0|0,0:0|0:0,0:0:0:0:
259,127,79164,2,0,B|219:84|219:84|216:17,1,119.999996821086,0|0,0:0|0:0,0:0:0:0:
398,92,79442,6,0,B|404:163|404:163|347:249|347:249|355:352,1,239.999993642171,0|0,1:0|0:0,0:0:0:0:
432,272,79859,1,0,0:0:0:0:
261,267,79998,2,0,B|207:244|207:244|142:264,1,119.999996821086,0|0,0:0|0:0,0:0:0:0:
153,374,80276,6,0,B|171:315|171:315|148:261,1,119.999996821086,8|0,0:2|0:0,0:0:0:0:
143,148,80553,2,0,B|125:207|125:207|148:261,1,119.999996821086
35,265,80831,1,0,0:0:0:0:
147,260,80969,1,0,0:0:0:0:
254,165,81109,6,0,B|202:136|202:136|135:149,1,119.999996821086,2|0,1:2|0:0,0:0:0:0:
390,127,81387,2,0,B|440:96|440:96|462:32,1,119.999996821086,0|0,0:0|1:0,0:0:0:0:
350,260,81664,1,0,0:0:0:0:
391,365,81802,1,0,1:0:0:0:
252,177,81942,6,0,B|196:157|196:157|133:182,1,119.999996821086,8|0,0:2|0:0,0:0:0:0:
362,255,82220,2,0,B|373:312|373:312|426:355,1,119.999996821086,0|0,0:0|0:0,0:0:0:0:
379,116,82497,1,0,0:0:0:0:
433,17,82637,1,0,0:0:0:0:
252,177,82776,6,0,B|181:171|181:171|95:228|95:228|-8:220,1,239.999993642171,2|0,1:2|0:0,0:0:0:0:
70,145,83192,1,0,1:0:0:0:
209,250,83331,2,0,B|232:304|232:304|213:362,1,119.999996821086,0|0,0:0|1:0,0:0:0:0:
91,116,83609,5,8,0:2:0:0:
188,279,83748,1,8,0:2:0:0:
57,245,83887,5,8,0:3:0:0:
220,148,84026,1,4,0:3:0:0:
78,216,84164,1,4,0:3:0:0:
199,177,84303,1,4,0:3:0:0:
36,274,84442,6,0,B|107:268|107:268|193:325|193:325|296:317,1,239.999993642171,0|0,1:0|0:0,0:0:0:0:
331,298,84859,1,0,1:0:0:0:
511,321,84998,2,0,B|457:344|457:344|392:324,1,119.999996821086,0|0,0:0|1:0,0:0:0:0:
444,35,85276,6,0,B|469:82|435:118|435:118|455:130|455:130|418:189|464:271,1,239.999993642171,8|0,0:2|0:0,0:0:0:0:
453,251,85692,1,8,0:3:0:0:
367,152,85831,2,0,B|308:133|308:133|254:156,1,119.999996821086,4|4,0:3|0:3,0:0:0:0:
315,228,86109,5,4,1:2:0:0:
314,257,86942,1,0,0:0:0:0:
313,286,87463,1,0,0:0:0:0:
312,315,87776,1,0,0:0:0:0:
