osu file format v14

[General]
AudioFilename: audio.mp3
AudioLeadIn: 0
PreviewTime: 12775
Countdown: 0
SampleSet: Soft
StackLeniency: 0.7
Mode: 0
LetterboxInBreaks: 0
WidescreenStoryboard: 1

[Editor]
DistanceSpacing: 0.7
BeatDivisor: 4
GridSize: 16
TimelineZoom: 1

[Metadata]
Title:Here
TitleUnicode:Here
Artist:JUNNA
ArtistUnicode:JUNNA
Creator:Hakura
Version:Insane
Source:魔法使いの嫁
Tags:The Ancient Magus' Bride Mahoutsukai no Yome opening tv size
BeatmapID:1514216
BeatmapSetID:713756

[Difficulty]
HPDrainRate:5
CircleSize:4
OverallDifficulty:7.5
ApproachRate:9
SliderMultiplier:2.99999990463257
SliderTickRate:1

[Events]
//Background and Video events
0,0,"thumb-1920-880798.png",0,0
//Break Periods
//Storyboard Layer 0 (Background)
//Storyboard Layer 1 (Fail)
//Storyboard Layer 2 (Pass)
//Storyboard Layer 3 (Foreground)
//Storyboard Sound Samples

[TimingPoints]
1109,555.555555555556,3,2,0,30,1,0
12775,-100,3,2,0,70,0,0
13332,555.555555555556,4,3,0,70,1,0
22776,-100,4,3,0,50,0,0
39998,-100,4,3,0,70,0,0
57776,416.666666666667,4,3,0,70,1,1
57776,-100,4,3,0,70,0,1
64442,-100,4,3,0,70,0,0
71109,-100,4,3,0,70,0,1
77776,-100,4,3,0,70,0,0

[Colours]
Combo1 : 244,74,100
Combo2 : 170,255,170

[HitObjects]
448,294,13332,6,0,B|387:263|341:294|341:294|295:324|234:294,1,224.999992847443,4|2,1:2|0:2,0:0:0:0:
187,202,13887,2,0,P|143:252|155:348,1,149.999995231628,10|0,0:2|0:0,0:0:0:0:
288,204,14304,2,0,P|266:140|177:103,1,149.999995231628,2|0,0:2|0:0,0:0:0:0:
234,293,14720,2,0,L|342:314,1,74.9999976158142,2|0,0:2|0:0,0:0:0:0:
434,275,14998,2,0,L|455:383,1,74.9999976158142,8|0,0:2|0:0,0:0:0:0:
362,234,15276,2,0,L|377:161,1,74.9999976158142,0|0,0:0|0:0,0:0:0:0:
482,77,15554,6,0,B|421:46|375:77|375:77|329:107|268:77,1,224.999992847443,4|2,1:2|0:2,0:0:0:0:
217,164,16109,2,0,P|173:114|185:18,1,149.999995231628,8|0,0:2|0:0,0:0:0:0:
318,165,16526,2,0,P|296:228|207:265,1,149.999995231628,0|2,0:0|0:2,0:0:0:0:
268,76,16943,2,0,L|376:55,1,74.9999976158142,2|0,0:2|0:0,0:0:0:0:
469,124,17220,2,0,L|490:232,1,74.9999976158142,8|0,0:2|0:0,0:0:0:0:
382,233,17498,2,0,L|361:341,1,74.9999976158142,2|0,0:3|0:0,0:0:0:0:
318,170,17776,6,0,B|257:139|211:170|211:170|165:200|104:170,1,224.999992847443,6|0,1:3|0:0,0:0:0:0:
55,81,18331,2,0,P|11:131|23:227,1,149.999995231628,8|0,0:2|0:0,0:0:0:0:
13,210,18748,1,0,0:0:0:0:
94,268,18887,2,0,B|107:312|107:312|85:366,2,99.9999968210856,2|2|2,1:2|0:2|0:2,0:0:0:0:
177,215,19443,2,0,B|190:171|190:171|168:117,2,99.9999968210856,10|2|2,0:2|0:2|0:2,0:0:0:0:
264,293,19998,6,0,L|191:308,1,74.9999976158142,0|0,1:2|0:0,0:0:0:0:
209,327,20276,1,2,0:2:0:0:
282,312,20414,1,2,0:2:0:0:
359,219,20554,2,0,L|433:234,1,74.9999976158143,10|2,0:2|0:2,0:0:0:0:
415,253,20832,1,2,0:2:0:0:
341,238,20970,1,2,0:2:0:0:
233,182,21109,6,0,L|159:196,1,74.9999976158143,2|2,1:2|0:2,0:0:0:0:
177,215,21387,1,2,0:2:0:0:
251,200,21525,1,2,1:2:0:0:
359,219,21665,2,0,L|433:234,1,74.9999976158143,8|2,0:2|1:2,0:0:0:0:
415,253,21943,1,2,0:3:0:0:
341,238,22081,1,2,1:2:0:0:
362,338,22220,6,0,B|301:307|255:338|255:338|209:368|148:338,1,224.999992847443,4|0,1:2|0:0,0:0:0:0:
57,380,22776,2,0,P|49:319|73:265,1,74.9999976158143,8|0,0:2|0:0,0:0:0:0:
124,167,23054,2,0,P|132:228|108:282,1,74.9999976158143,2|0,0:2|0:0,0:0:0:0:
82,87,23332,6,0,P|143:79|197:103,1,74.9999976158143,2|0,1:2|0:0,0:0:0:0:
213,150,23609,1,2,0:2:0:0:
213,150,23748,2,0,P|274:158|328:134,1,74.9999976158143,2|8,0:2|0:2,0:0:0:0:
352,88,24026,2,0,P|413:80|467:104,1,74.9999976158143,2|0,0:2|0:0,0:0:0:0:
430,238,24304,6,0,B|391:265|344:224|344:224|306:260|306:260|237:216|153:243,1,299.999990463257,2|0,0:2|0:0,0:0:0:0:
67,194,24998,2,0,P|59:255|83:309,1,74.9999976158143,8|0,0:2|0:0,0:0:0:0:
122,384,25276,2,0,P|130:323|106:269,1,74.9999976158143,0|0,0:0|0:0,0:0:0:0:
159,241,25554,6,0,L|267:220,1,74.9999976158143,2|0,1:2|0:0,0:0:0:0:
382,264,25832,1,2,0:2:0:0:
382,264,25970,2,0,L|274:285,1,74.9999976158143,2|8,0:2|0:2,0:0:0:0:
295,119,26248,2,0,L|316:227,1,74.9999976158143,2|0,0:2|0:0,0:0:0:0:
243,384,26526,1,0,0:0:0:0:
243,384,26665,6,0,L|222:276,1,74.9999976158143,6|0,1:2|0:0,0:0:0:0:
112,197,26943,2,0,B|151:224|198:183|198:183|236:219|236:219|305:175|389:202,1,299.999990463257,2|0,0:2|0:0,0:0:0:0:
382,200,27637,1,0,0:0:0:0:
475,245,27776,6,0,P|483:184|459:130,1,74.9999976158143,0|0,1:2|0:0,0:0:0:0:
462,21,28054,2,0,P|454:82|478:136,1,74.9999976158143,0|0,0:0|0:0,0:0:0:0:
366,119,28332,2,0,L|258:140,1,74.9999976158142,8|0,0:2|0:0,0:0:0:0:
257,32,28610,2,0,L|149:11,1,74.9999976158142,0|0,0:0|0:0,0:0:0:0:
189,155,28887,6,0,L|115:169,2,74.9999976158142,0|0|0,1:2|0:0|0:0,0:0:0:0:
292,133,29304,2,0,B|323:194|292:240|292:240|262:286|292:347,1,224.999992847443
291,346,29859,1,0,0:0:0:0:
181,381,29998,6,0,P|173:320|197:266,1,74.9999976158143,0|0,1:2|0:0,0:0:0:0:
189,155,30276,2,0,P|197:216|173:270,1,74.9999976158143,0|0,0:0|0:0,0:0:0:0:
46,255,30554,2,0,P|107:247|161:271,1,74.9999976158143,8|0,0:2|0:0,0:0:0:0:
325,277,30832,2,0,P|264:285|210:261,1,74.9999976158143,0|0,0:0|0:0,0:0:0:0:
407,331,31109,6,0,B|438:270|407:224|407:224|377:178|407:117,1,224.999992847443,0|0,1:2|0:0,0:0:0:0:
451,35,31665,2,0,P|390:27|336:51,1,74.9999976158143,8|0,0:2|0:0,0:0:0:0:
320,150,31943,2,0,P|282:153|246:144,1,74.9999976158143,2|0,0:2|0:0,0:0:0:0:
88,79,32220,6,0,P|125:75|161:84,1,74.9999976158143,0|0,1:2|0:0,0:0:0:0:
240,0,32498,1,2,0:2:0:0:
240,0,32637,2,0,P|243:37|234:73,1,74.9999976158143,2|8,0:2|0:2,0:0:0:0:
164,235,32915,2,0,P|160:197|169:161,1,74.9999976158143,2|0,0:2|0:0,0:0:0:0:
137,305,33193,6,0,B|176:332|223:291|223:291|261:327|261:327|330:283|414:310,1,299.999990463257,2|0,0:2|0:0,0:0:0:0:
505,342,33887,2,0,P|509:304|500:268,1,74.9999976158143,8|0,0:2|0:0,0:0:0:0:
473,126,34165,2,0,P|469:164|478:200,1,74.9999976158143,0|0,0:0|0:0,0:0:0:0:
398,231,34443,6,0,L|290:210,1,74.9999976158142,2|0,1:2|0:0,0:0:0:0:
270,295,34720,1,2,0:2:0:0:
270,295,34859,2,0,L|162:316,1,74.9999976158142,2|8,0:2|0:2,0:0:0:0:
212,193,35137,2,0,L|104:172,1,74.9999976158142,2|0,0:2|0:0,0:0:0:0:
84,79,35415,6,0,B|145:48|191:79|191:79|237:109|298:79,1,224.999992847443,2|0,0:2|0:0,0:0:0:0:
297,79,35970,1,0,0:0:0:0:
394,51,36109,2,0,P|398:89|389:125,1,74.9999976158143,8|0,0:2|0:0,0:0:0:0:
313,236,36387,2,0,P|309:198|318:162,1,74.9999976158143,0|0,0:0|0:0,0:0:0:0:
471,210,36665,6,0,P|434:214|398:206,1,74.9999976158143,0|0,1:2|0:0,0:0:0:0:
223,74,36943,2,0,P|260:70|297:79,1,74.9999976158143,0|0,0:0|0:0,0:0:0:0:
389,124,37220,2,0,P|426:128|462:119,1,74.9999976158143,8|0,0:2|0:0,0:0:0:0:
369,41,37498,1,0,0:0:0:0:
317,162,37637,1,0,0:0:0:0:
297,79,37776,5,4,0:2:0:0:
116,28,39998,6,0,L|137:136,1,74.9999976158142,6|0,1:2|0:0,0:0:0:0:
158,245,40276,2,0,P|162:208|154:172,1,74.9999976158143,0|0,0:0|0:0,0:0:0:0:
7,163,40554,2,0,P|44:167|80:159,1,74.9999976158143,0|0,1:0|0:0,0:0:0:0:
278,109,40832,2,0,P|241:105|205:113,1,74.9999976158143,0|0,0:0|0:0,0:0:0:0:
342,188,41109,6,0,B|368:123|368:123|346:33,1,149.999995231629,0|0,1:0|0:0,0:0:0:0:
439,160,41526,2,0,B|413:225|413:225|435:315,1,149.999995231629,0|0,0:0|0:0,0:0:0:0:
343,266,41943,2,0,L|235:245,1,74.9999976158142,0|0,0:0|0:0,0:0:0:0:
181,292,42220,6,0,P|185:255|177:219,1,74.9999976158143,2|0,1:2|0:0,0:0:0:0:
150,76,42498,2,0,P|146:113|154:149,1,74.9999976158143,0|0,0:0|0:0,0:0:0:0:
299,159,42776,2,0,P|262:155|226:163,1,74.9999976158143,0|0,1:0|0:0,0:0:0:0:
30,212,43054,2,0,P|67:216|103:208,1,74.9999976158143,0|0,0:0|0:0,0:0:0:0:
137,358,43332,6,0,L|116:250,1,74.9999976158142,0|0,1:0|0:0,0:0:0:0:
211,236,43609,2,0,L|232:128,1,74.9999976158142,0|0,0:0|0:0,0:0:0:0:
150,76,43887,2,0,B|211:45|257:76|257:76|303:106|364:76,1,224.999992847443,0|0,1:0|0:0,0:0:0:0:
459,56,44443,6,0,L|438:164,1,74.9999976158142,2|0,1:2|0:0,0:0:0:0:
370,209,44720,2,0,B|435:235|435:235|525:213,1,149.999995231629,0|0,0:0|1:0,0:0:0:0:
512,216,45137,1,0,0:0:0:0:
459,328,45276,2,0,P|422:332|386:324,1,74.9999976158143,0|0,0:0|0:0,0:0:0:0:
255,298,45554,6,0,B|190:272|190:272|100:294,1,149.999995231629,0|0,1:0|0:0,0:0:0:0:
227,201,45971,2,0,B|292:227|292:227|382:205,1,149.999995231629,0|0,0:0|0:0,0:0:0:0:
317,69,46388,2,0,L|296:177,1,74.9999976158143,0|0,0:0|0:0,0:0:0:0:
400,0,46665,6,0,L|415:73,1,74.9999976158143,2|0,1:2|0:0,0:0:0:0:
221,129,46943,2,0,L|242:21,1,74.9999976158143,0|0,0:0|0:0,0:0:0:0:
415,73,47220,2,0,L|430:147,1,74.9999976158143,0|0,1:0|0:0,0:0:0:0:
207,202,47498,2,0,L|221:128,1,74.9999976158143,0|0,0:0|0:0,0:0:0:0:
365,266,47776,6,0,B|304:235|258:266|258:266|212:296|151:266,1,224.999992847443,2|0,1:2|0:0,0:0:0:0:
149,370,48332,2,0,B|210:339|256:370|256:370|302:400|363:370,1,224.999992847443,2|0,1:2|0:0,0:0:0:0:
458,311,48887,6,0,B|489:250|458:204|458:204|428:158|458:97,1,224.999992847443,2|0,1:2|0:0,0:0:0:0:
339,35,49443,2,0,L|413:21,1,74.9999976158143,0|0,1:0|0:0,0:0:0:0:
281,94,49720,2,0,B|311:155|281:201|281:201|250:247|281:308,1,224.999992847443,2|0,0:2|0:0,0:0:0:0:
213,369,50276,2,0,L|139:355,1,74.9999976158143,2|0,0:2|0:0,0:0:0:0:
31,298,50554,2,0,L|105:284,1,74.9999976158143,2|0,1:2|0:0,0:0:0:0:
282,308,50832,6,0,B|312:247|282:201|282:201|251:155|282:94,1,224.999992847443,6|0,0:2|0:0,0:0:0:0:
379,216,51387,2,0,L|365:142,2,74.9999976158143,0|0|0,0:0|0:0|1:0,0:0:0:0:
164,221,51943,2,0,L|178:147,2,74.9999976158143,0|0|0,0:0|0:0|1:0,0:0:0:0:
97,55,52498,1,0,0:0:0:0:
97,55,52637,1,0,0:0:0:0:
97,55,52776,2,0,P|134:59|170:51,1,74.9999976158143,0|0,1:0|0:0,0:0:0:0:
319,18,53054,2,0,P|282:14|246:22,1,74.9999976158143
215,171,53332,6,0,B|276:140|322:171|322:171|368:201|429:171,1,224.999992847443,2|0,1:2|0:0,0:0:0:0:
491,290,53888,2,0,L|505:216,1,74.9999976158143,0|0,1:0|0:0,0:0:0:0:
432,348,54165,2,0,B|371:318|325:348|325:348|279:379|218:348,1,224.999992847443,2|0,0:2|0:0,0:0:0:0:
155,235,54720,2,0,L|141:309,1,74.9999976158143,2|0,0:2|0:0,0:0:0:0:
215,171,54998,2,0,L|229:97,1,74.9999976158143,2|0,1:2|0:0,0:0:0:0:
234,251,55276,2,0,L|308:237,1,74.9999976158143,6|0,0:2|0:0,0:0:0:0:
473,204,55554,5,0,1:0:0:0:
400,218,55692,1,8,0:3:0:0:
414,291,55832,1,8,0:3:0:0:
487,277,55970,1,4,0:3:0:0:
422,143,56109,6,0,B|357:117|357:117|267:139,1,149.999995231629,12|8,0:2|0:3,0:0:0:0:
130,176,56526,1,4,0:3:0:0:
203,162,56664,1,4,0:2:0:0:
189,89,56804,1,8,0:3:0:0:
116,103,56942,5,8,0:2:0:0:
116,103,57082,1,8,0:3:0:0:
187,240,57359,1,8,0:3:0:0:
187,240,57499,1,8,0:3:0:0:
401,39,57776,5,6,1:2:0:0:
401,39,57914,2,0,B|420:86|420:86|398:160,1,99.9999968210857,0|0,0:0|0:0,0:0:0:0:
384,299,58192,1,0,0:0:0:0:
384,299,58330,2,0,B|365:252|365:252|387:178,1,99.9999968210857,0|0,0:0|0:0,0:0:0:0:
308,51,58609,5,10,0:2:0:0:
308,51,58747,2,0,B|327:98|327:98|305:172,1,99.9999968210857,0|0,0:0|0:0,0:0:0:0:
291,311,59025,1,0,0:0:0:0:
291,311,59163,2,0,B|272:264|272:264|294:190,1,99.9999968210857,0|0,0:0|0:0,0:0:0:0:
229,103,59442,6,0,B|158:72|158:72|71:80|51:174,2,224.999992847443,2|0|0,1:2|0:0|0:0,0:0:0:0:
210,261,60276,2,0,B|270:246|270:246|328:284|328:284|416:262,1,199.999993642171,10|0,0:2|0:0,0:0:0:0:
464,241,60692,1,0,0:0:0:0:
451,315,60831,1,0,0:0:0:0:
402,194,60970,1,0,0:0:0:0:
310,364,61109,5,2,1:2:0:0:
310,364,61247,2,0,B|329:317|329:317|307:243,1,99.9999968210857,0|0,0:0|0:0,0:0:0:0:
293,104,61525,1,0,1:0:0:0:
293,104,61663,2,0,B|274:151|274:151|296:225,1,99.9999968210857,0|0,0:0|1:0,0:0:0:0:
217,352,61942,5,8,0:2:0:0:
217,352,62080,2,0,B|236:305|236:305|214:231,1,99.9999968210857,0|0,0:0|0:0,0:0:0:0:
200,92,62358,1,0,0:0:0:0:
200,92,62496,2,0,B|181:139|181:139|203:213,1,99.9999968210857,0|0,0:0|0:0,0:0:0:0:
145,252,62776,6,0,B|88:275|88:275|-5:246|8:152,2,224.999992847443,2|0|0,1:2|0:0|0:0,0:0:0:0:
200,92,63609,2,0,B|260:107|260:107|318:69|318:69|406:91,1,199.999993642171,8|2,0:2|0:2,0:0:0:0:
454,112,64025,1,0,0:0:0:0:
441,38,64164,1,2,0:2:0:0:
392,159,64303,1,2,0:3:0:0:
480,308,64442,6,0,B|441:335|394:294|394:294|356:330|356:330|287:286|203:313,1,299.999990463257,4|0,1:2|1:0,0:0:0:0:
159,237,64998,2,0,B|206:218|206:218|280:240,1,99.9999968210857,0|0,0:0|1:0,0:0:0:0:
479,146,65276,2,0,B|440:119|393:160|393:160|355:124|355:124|286:168|202:141,1,299.999990463257,8|0,0:2|0:0,0:0:0:0:
130,122,65831,1,0,0:0:0:0:
187,64,65970,1,0,0:0:0:0:
349,63,66109,6,0,B|376:102|335:149|335:149|371:187|371:187|327:256|354:340,1,299.999990463257,2|0,1:2|1:0,0:0:0:0:
278,384,66665,2,0,B|259:337|259:337|281:263,1,99.9999968210857,0|0,0:0|1:0,0:0:0:0:
187,64,66943,2,0,B|160:103|201:150|201:150|165:188|165:188|209:257|182:341,1,299.999990463257,10|0,0:2|0:0,0:0:0:0:
271,92,67498,1,0,0:0:0:0:
273,196,67637,1,0,0:0:0:0:
352,333,67776,6,0,B|379:294|338:247|338:247|374:209|374:209|330:140|355:62,1,299.999990463257,0|0,1:0|1:0,0:0:0:0:
480,36,68331,2,0,B|499:83|499:83|477:157,1,99.9999968210857,0|0,0:0|1:0,0:0:0:0:
462,297,68609,2,0,B|443:250|443:250|465:176,1,99.9999968210857,10|0,0:2|0:0,0:0:0:0:
512,366,68887,2,0,B|465:385|465:385|391:363,1,99.9999968210857,0|0,0:0|0:0,0:0:0:0:
353,269,69164,2,0,B|306:250|306:250|232:272,1,99.9999968210857,0|0,0:0|0:0,0:0:0:0:
115,383,69442,6,0,B|88:344|129:297|129:297|93:259|93:259|137:190|111:112,1,299.999990463257,4|0,1:2|1:0,0:0:0:0:
60,26,69998,2,0,B|107:7|107:7|181:29,1,99.9999968210857,0|0,0:0|1:0,0:0:0:0:
379,24,70276,5,8,0:2:0:0:
379,24,70414,2,0,B|332:43|332:43|258:21,1,99.9999968210857,8|8,0:2|0:3,0:0:0:0:
214,89,70692,1,4,0:3:0:0:
301,119,70831,1,4,0:3:0:0:
231,180,70970,1,4,0:3:0:0:
337,268,71109,5,6,1:2:0:0:
337,268,71247,2,0,B|290:287|290:287|216:265,1,99.9999968210857,0|0,0:0|0:0,0:0:0:0:
77,251,71525,1,0,0:0:0:0:
77,251,71663,2,0,B|124:232|124:232|198:254,1,99.9999968210857,0|0,0:0|0:0,0:0:0:0:
325,175,71942,5,10,0:2:0:0:
325,175,72080,2,0,B|278:194|278:194|204:172,1,99.9999968210857,0|0,0:0|0:0,0:0:0:0:
65,158,72358,1,0,0:0:0:0:
65,158,72496,2,0,B|112:139|112:139|186:161,1,99.9999968210857,0|0,0:0|0:0,0:0:0:0:
125,320,72776,6,0,B|196:351|196:351|283:343|285:242,2,224.999992847443,2|0|0,1:2|0:0|0:0,0:0:0:0:
325,175,73609,2,0,B|265:160|265:160|207:198|207:198|119:176,1,199.999993642171,10|0,0:2|0:0,0:0:0:0:
71,155,74025,1,0,0:0:0:0:
133,108,74164,1,0,0:0:0:0:
84,229,74303,1,0,0:0:0:0:
226,96,74442,5,2,1:2:0:0:
226,96,74580,2,0,B|245:143|245:143|223:217,1,99.9999968210857,0|0,0:0|0:0,0:0:0:0:
209,356,74858,1,0,1:0:0:0:
209,356,74996,2,0,B|190:309|190:309|212:235,1,99.9999968210857,0|0,0:0|1:0,0:0:0:0:
133,108,75275,5,8,0:2:0:0:
133,108,75413,2,0,B|152:155|152:155|130:229,1,99.9999968210857,0|0,0:0|0:0,0:0:0:0:
116,368,75691,1,0,0:0:0:0:
116,368,75829,2,0,B|97:321|97:321|119:247,1,99.9999968210857,0|0,0:0|0:0,0:0:0:0:
61,210,76109,6,0,B|30:139|30:139|38:52|132:32,2,224.999992847443,2|0|0,1:2|0:0|0:0,0:0:0:0:
205,219,76942,2,0,B|265:234|265:234|323:196|323:196|411:218,1,199.999993642171,8|2,0:2|0:2,0:0:0:0:
459,239,77358,1,0,0:0:0:0:
397,286,77497,1,2,0:2:0:0:
446,165,77636,1,2,0:3:0:0:
329,384,77776,6,0,B|310:337|310:337|332:263,1,99.9999968210857,0|0,1:0|0:0,0:0:0:0:
459,239,78053,2,0,B|478:286|478:286|456:360,1,99.9999968210857,0|0,0:0|1:0,0:0:0:0:
324,289,78331,2,0,B|305:242|305:242|327:168,1,99.9999968210857,0|0,0:0|1:0,0:0:0:0:
454,144,78608,6,0,B|473:191|473:191|451:265,1,99.9999968210857,10|0,0:2|0:0,0:0:0:0:
319,194,78887,2,0,B|300:147|300:147|322:73,1,99.9999968210857,0|0,0:0|0:0,0:0:0:0:
449,49,79164,2,0,B|468:96|468:96|446:170,1,99.9999968210857,0|0,0:0|0:0,0:0:0:0:
319,194,79442,6,0,B|259:179|259:179|201:217|201:217|113:195,1,199.999993642171,0|0,1:0|0:0,0:0:0:0:
65,174,79858,1,0,0:0:0:0:
121,34,79998,2,0,B|140:81|140:81|118:155,1,99.9999968210857,0|0,0:0|0:0,0:0:0:0:
139,294,80276,2,0,B|120:247|120:247|142:173,1,99.9999968210857,8|0,0:2|0:0,0:0:0:0:
234,35,80553,2,0,B|215:82|215:82|237:156,1,99.9999968210857
216,295,80831,2,0,B|235:248|235:248|213:174,1,99.9999968210857,0|0,0:0|0:0,0:0:0:0:
329,0,81109,6,0,B|310:47|310:47|332:121,1,99.9999968210857,2|0,1:2|0:0,0:0:0:0:
459,145,81386,2,0,B|478:98|478:98|456:24,1,99.9999968210857,0|0,0:0|1:0,0:0:0:0:
324,95,81664,1,0,0:0:0:0:
319,189,81802,1,0,1:0:0:0:
454,240,81941,6,0,B|473:193|473:193|451:119,1,99.9999968210857,8|0,0:2|0:0,0:0:0:0:
319,189,82220,2,0,B|300:236|300:236|322:310,1,99.9999968210857,0|0,0:0|0:0,0:0:0:0:
449,335,82497,1,0,0:0:0:0:
454,240,82635,1,0,0:0:0:0:
319,189,82776,6,0,B|259:204|259:204|201:166|201:166|113:188,1,199.999993642171,2|0,1:2|0:0,0:0:0:0:
65,209,83192,1,0,1:0:0:0:
121,349,83332,2,0,B|140:302|140:302|118:228,1,99.9999968210857,0|0,0:0|1:0,0:0:0:0:
77,132,83609,1,8,0:2:0:0:
219,74,83748,1,8,0:2:0:0:
77,132,83887,5,8,0:3:0:0:
146,104,84025,1,4,0:3:0:0:
174,172,84165,1,4,0:3:0:0:
106,201,84303,1,4,0:3:0:0:
242,143,84442,6,0,B|302:128|302:128|360:166|360:166|448:144,1,199.999993642171,0|0,1:0|0:0,0:0:0:0:
373,78,84859,1,0,1:0:0:0:
508,97,84998,2,0,B|527:144|527:144|505:218,1,99.9999968210857,0|0,0:0|1:0,0:0:0:0:
424,260,85276,6,0,B|358:244|358:244|300:282|300:282|240:267,1,199.999993642171,8|0,0:2|0:0,0:0:0:0:
291,201,85692,1,8,0:3:0:0:
152,322,85831,2,0,B|133:275|133:275|155:201,1,99.9999968210857,4|4,0:3|0:3,0:0:0:0:
205,119,86109,5,4,1:2:0:0:
206,90,86942,1,0,0:0:0:0:
207,61,87463,1,0,0:0:0:0:
208,32,87776,1,0,0:0:0:0:
