osu file format v14

[General]
AudioFilename: audio.mp3
AudioLeadIn: 0
PreviewTime: 12775
Countdown: 0
SampleSet: Soft
StackLeniency: 0.7
Mode: 0
LetterboxInBreaks: 0
WidescreenStoryboard: 1

[Editor]
DistanceSpacing: 1.1
BeatDivisor: 4
GridSize: 16
TimelineZoom: 1

[Metadata]
Title:Here
TitleUnicode:Here
Artist:JUNNA
ArtistUnicode:JUNNA
Creator:Hakura
Version:Normal
Source:魔法使いの嫁
Tags:The Ancient Magus' Bride Mahoutsukai no Yome opening tv size
BeatmapID:1510902
BeatmapSetID:713756

[Difficulty]
HPDrainRate:3
CircleSize:3
OverallDifficulty:4
ApproachRate:6
SliderMultiplier:1.79999990463257
SliderTickRate:1

[Events]
//Background and Video events
0,0,"thumb-1920-880798.png",0,0
//Break Periods
//Storyboard Layer 0 (Background)
//Storyboard Layer 1 (Fail)
//Storyboard Layer 2 (Pass)
//Storyboard Layer 3 (Foreground)
//Storyboard Sound Samples

[TimingPoints]
1109,555.555555555556,3,2,0,30,1,0
12775,-100,3,2,0,70,0,0
13332,555.555555555556,4,3,0,70,1,0
22776,-100,4,3,0,50,0,0
39998,-100,4,3,0,70,0,0
57776,416.666666666667,4,3,0,70,1,1
57776,-100,4,3,0,70,0,1
64442,-100,4,3,0,70,0,0
71109,-100,4,3,0,70,0,1
77776,-100,4,3,0,70,0,0

[Colours]
Combo1 : 244,74,100
Combo2 : 170,255,170

[HitObjects]
126,131,13332,6,0,P|137:167|104:241,1,89.9999952316285,4|0,1:2|0:0,0:0:0:0:
74,302,13887,2,0,P|155:311|223:234,1,179.999990463257,10|0,0:2|1:2,0:0:0:0:
218,146,14720,1,2,0:2:0:0:
307,189,14998,2,0,B|348:161|390:189|390:189|432:216|474:189,2,179.999990463257,8|4|8,0:2|1:2|0:2,0:0:0:0:
312,287,16387,1,0,0:0:0:0:
220,245,16665,6,0,P|184:234|110:267,1,89.9999952316285,2|2,1:2|0:2,0:0:0:0:
49,297,17220,2,0,P|40:216|117:148,2,179.999990463257,8|6|8,0:2|1:3|0:2,0:0:0:0:
134,245,18609,1,0,0:0:0:0:
146,343,18887,2,0,B|211:329|264:366|264:366|293:314|293:314|373:378|468:323,1,359.999980926514,2|0,1:2|1:2,0:0:0:0:
503,309,20137,6,0,B|476:222|516:151|516:151|431:120|409:43,2,314.9999833107,0|2|2,0:0|1:2|1:2,0:0:0:0:
457,328,22220,6,0,P|391:279|293:312,1,179.999990463257,4|8,1:2|0:2,0:0:0:0:
232,375,23054,1,2,0:2:0:0:
209,278,23332,2,0,B|218:211|218:211|275:161,1,134.999992847443,2|2,1:2|0:2,0:0:0:0:
365,187,24026,1,2,0:2:0:0:
334,92,24304,6,0,B|287:54|211:56|174:131|174:131|104:101|128:-6,1,314.9999833107,2|0,0:2|0:0,0:0:0:0:
36,78,25554,2,0,L|46:184,1,89.9999952316285,2|2,1:2|0:2,0:0:0:0:
130,217,26109,2,0,L|140:323,1,89.9999952316285,8|0,0:2|0:0,0:0:0:0:
229,266,26665,6,0,P|295:217|393:250,1,179.999990463257,6|8,1:2|0:2,0:0:0:0:
505,83,27776,2,0,P|439:132|341:99,1,179.999990463257,0|8,1:2|0:2,0:0:0:0:
298,299,28887,2,0,P|249:233|282:135,1,179.999990463257,0|8,1:2|0:2,0:0:0:0:
115,23,29998,2,0,P|164:89|131:187,1,179.999990463257,0|8,1:2|0:2,0:0:0:0:
83,258,30832,1,0,0:0:0:0:
181,266,31109,6,0,P|247:217|345:250,1,179.999990463257,0|8,1:2|0:2,0:0:0:0:
410,305,31943,1,2,0:2:0:0:
423,207,32220,2,0,B|414:140|414:140|357:90,1,134.999992847443,0|2,1:2|0:2,0:0:0:0:
280,40,32915,1,2,0:2:0:0:
270,138,33193,6,0,B|200:130|172:59|187:12|187:12|106:-7|37:56,1,314.9999833107,2|0,0:2|0:0,0:0:0:0:
22,137,34443,1,2,1:2:0:0:
119,149,34720,2,0,L|129:215,1,44.9999976158143,2|2,0:2|0:2,0:0:0:0:
42,248,35137,1,2,0:2:0:0:
133,285,35415,6,0,B|195:253|257:285|257:285|350:269|382:191|382:191|350:113|257:98|257:98|195:129|133:113,1,584.999969005585,2|8,0:2|0:2,0:0:0:0:
40,78,37498,1,0,0:2:0:0:
22,175,37776,5,4,0:2:0:0:
332,48,39998,6,0,P|321:84|354:158,1,89.9999952316285,6|0,1:2|0:0,0:0:0:0:
408,198,40554,2,0,P|419:241|407:283,1,89.9999952316285,0|0,1:0|0:0,0:0:0:0:
318,239,41109,2,0,B|254:219|254:219|181:249,2,134.999992847443,0|0|0,1:0|0:0|0:0,0:0:0:0:
406,283,42220,6,0,P|418:241|408:198,1,89.9999952316285,2|0,1:2|0:0,0:0:0:0:
332,133,42776,2,0,P|320:91|332:48,1,89.9999952316285,0|0,1:0|0:0,0:0:0:0:
240,87,43332,2,0,P|197:98|154:87,1,89.9999952316285,0|0,1:0|0:0,0:0:0:0:
62,49,43887,2,0,L|82:245,1,179.999990463257,0|2,1:0|1:2,0:0:0:0:
148,300,44720,6,0,P|184:289|258:322,1,89.9999952316285,0|0,0:0|1:0,0:0:0:0:
321,348,45276,1,0,0:0:0:0:
318,248,45554,2,0,B|382:228|382:228|455:258,2,134.999992847443,0|0|0,1:0|0:0|0:0,0:0:0:0:
233,300,46665,6,0,P|191:288|148:300,1,89.9999952316285,2|0,1:2|0:0,0:0:0:0:
60,345,47220,2,0,P|48:301|60:259,1,89.9999952316285,0|0,1:0|0:0,0:0:0:0:
15,172,47776,2,0,P|81:123|179:156,1,179.999990463257,2|2,1:2|1:2,0:0:0:0:
59,259,48887,6,0,B|100:231|142:259|142:259|184:286|226:259,1,179.999990463257,2|0,1:2|1:0,0:0:0:0:
279,174,49720,2,0,B|322:201|364:174|364:174|406:146|447:174,1,179.999990463257,2|2,0:2|0:2,0:0:0:0:
499,259,50554,1,2,1:2:0:0:
416,314,50832,6,0,B|341:352|278:305|278:305|251:346|251:346|189:284|102:324|102:324|133:245|53:183|53:183|-3:227|22:291,1,629.999966621399,6|0,0:2|1:0,0:0:0:0:
188,232,53332,6,0,B|160:191|188:149|188:149|215:107|188:65,1,179.999990463257,2|0,1:2|1:0,0:0:0:0:
295,66,54165,2,0,B|267:109|294:151|294:151|322:193|294:234,1,179.999990463257,2|2,0:2|0:2,0:0:0:0:
242,319,54998,1,2,1:2:0:0:
341,321,55276,1,6,0:2:0:0:
256,192,55554,12,0,57220,0:0:0:0:
75,61,57776,6,0,L|81:133,1,59.9999968210857,6|0,1:2|0:0,0:0:0:0:
211,131,58192,2,0,L|205:203,1,59.9999968210857,0|0,0:0|0:0,0:0:0:0:
76,219,58609,2,0,L|82:291,1,59.9999968210857,10|0,0:2|0:0,0:0:0:0:
212,289,59025,2,0,L|206:361,1,59.9999968210857,0|0,0:0|0:0,0:0:0:0:
339,360,59442,6,0,B|384:288|339:218|339:218|292:147|339:79,1,299.999984105428,2|0,1:2|1:0,0:0:0:0:
385,31,60276,2,0,P|319:80|221:47,1,179.999990463257,10|0,0:2|0:0,0:0:0:0:
48,135,61109,6,0,L|120:141,1,59.9999968210857,2|0,1:2|0:0,0:0:0:0:
118,271,61525,2,0,L|190:265,1,59.9999968210857,0|0,1:0|0:0,0:0:0:0:
206,136,61942,2,0,L|278:142,1,59.9999968210857,8|0,0:2|0:0,0:0:0:0:
276,272,62359,2,0,L|348:266,1,59.9999968210857
466,292,62776,6,0,B|394:337|324:292|324:292|253:245|185:292,1,299.999984105428,0|0,1:0|1:0,0:0:0:0:
132,331,63609,2,0,P|181:265|148:167,1,179.999990463257,8|0,0:2|0:0,0:0:0:0:
4,50,64442,6,0,B|122:69|122:69|228:14,1,239.999987284343,4|0,1:2|0:0,0:0:0:0:
251,144,65276,2,0,B|132:124|132:124|26:179,1,239.999987284343,8|0,0:2|0:0,0:0:0:0:
149,225,66109,2,0,B|267:244|267:244|373:189,1,239.999987284343,2|0,1:2|0:0,0:0:0:0:
396,319,66943,2,0,B|277:299|277:299|171:354,1,239.999987284343,10|0,0:2|0:0,0:0:0:0:
49,301,67776,6,0,B|68:183|68:183|13:77,1,239.999987284343,0|0,1:0|0:0,0:0:0:0:
136,29,68609,2,0,B|194:14|194:14|270:33,2,119.999993642171,10|0|0,0:2|0:0|0:0,0:0:0:0:
179,153,69442,6,0,B|222:125|264:152|264:152|306:180|347:152,2,179.999990463257,4|0|8,1:2|1:0|0:2,0:0:0:0:
74,233,70553,1,8,0:3:0:0:
193,288,70831,1,4,0:3:0:0:
300,364,71109,6,0,L|306:292,1,59.9999968210857,6|0,1:2|0:0,0:0:0:0:
436,294,71525,2,0,L|430:222,1,59.9999968210857,0|0,0:0|0:0,0:0:0:0:
301,206,71942,2,0,L|307:134,1,59.9999968210857,10|0,0:2|0:0,0:0:0:0:
437,136,72359,2,0,L|431:64,1,59.9999968210857
301,50,72776,6,0,B|213:72|213:72|116:19|116:19|12:48,1,299.999984105428,2|0,1:2|1:0,0:0:0:0:
69,89,73609,2,0,P|118:155|85:253,1,179.999990463257,10|0,0:2|0:0,0:0:0:0:
24,379,74442,6,0,L|96:373,1,59.9999968210857,2|0,1:2|0:0,0:0:0:0:
94,243,74859,2,0,L|166:249,1,59.9999968210857,0|0,1:0|0:0,0:0:0:0:
182,378,75275,2,0,L|254:372,1,59.9999968210857,8|0,0:2|0:0,0:0:0:0:
252,242,75692,2,0,L|324:248,1,59.9999968210857
418,326,76109,6,0,B|440:238|440:238|387:141|387:141|416:37,1,299.999984105428,0|0,1:0|1:0,0:0:0:0:
360,84,76942,2,0,P|294:133|196:100,1,179.999990463257,8|0,0:2|0:0,0:0:0:0:
179,232,77776,6,0,L|182:353,2,119.999993642171,0|0|0,1:0|0:0|0:0,0:0:0:0:
234,125,78609,2,0,L|231:4,2,119.999993642171,10|0|0,0:2|0:0|0:0,0:0:0:0:
298,226,79442,2,0,B|353:265|419:247|419:247|395:194|449:145|449:145|376:166|304:105,1,359.999980926514,0|8,1:0|0:2,0:0:0:0:
242,242,80692,2,0,L|146:268,2,59.9999968210857
298,226,81109,6,0,L|295:347,2,119.999993642171,2|0|0,1:2|0:0|0:0,0:0:0:0:
244,120,81942,2,0,L|247:-1,2,119.999993642171,8|0|0,0:2|0:0|0:0,0:0:0:0:
180,221,82775,2,0,B|125:260|59:242|59:242|83:189|29:140|29:140|102:161|174:100,1,359.999980926514,2|8,1:2|0:2,0:0:0:0:
281,266,84026,1,4,0:3:0:0:
344,79,84442,6,0,B|387:51|429:78|429:78|471:106|512:78,1,179.999990463257,0|0,1:0|1:0,0:0:0:0:
343,182,85276,2,0,B|224:162|224:162|118:217,1,239.999987284343,8|4,0:2|0:3,0:0:0:0:
241,265,86109,5,4,1:2:0:0:
