osu file format v14

[General]
AudioFilename: audio.mp3
AudioLeadIn: 0
PreviewTime: 12775
Countdown: 0
SampleSet: Soft
StackLeniency: 0.7
Mode: 0
LetterboxInBreaks: 0
WidescreenStoryboard: 1

[Editor]
DistanceSpacing: 1.2
BeatDivisor: 4
GridSize: 16
TimelineZoom: 1

[Metadata]
Title:Here
TitleUnicode:Here
Artist:JUNNA
ArtistUnicode:JUNNA
Creator:Hakura
Version:Hard
Source:魔法使いの嫁
Tags:The Ancient Magus' Bride Mahoutsukai no Yome opening tv size
BeatmapID:1509602
BeatmapSetID:713756

[Difficulty]
HPDrainRate:4
CircleSize:4
OverallDifficulty:6
ApproachRate:8
SliderMultiplier:2.59999990463257
SliderTickRate:1

[Events]
//Background and Video events
0,0,"thumb-1920-880798.png",0,0
//Break Periods
//Storyboard Layer 0 (Background)
//Storyboard Layer 1 (Fail)
//Storyboard Layer 2 (Pass)
//Storyboard Layer 3 (Foreground)
//Storyboard Sound Samples

[TimingPoints]
1109,555.555555555556,3,2,0,30,1,0
12775,-100,3,2,0,70,0,0
13332,555.555555555556,4,3,0,70,1,0
22776,-100,4,3,0,50,0,0
39998,-100,4,3,0,70,0,0
57776,416.666666666667,4,3,0,70,1,1
57776,-100,4,3,0,70,0,1
64442,-100,4,3,0,70,0,0
71109,-100,4,3,0,70,0,1
77776,-100,4,3,0,70,0,0

[Colours]
Combo1 : 244,74,100
Combo2 : 170,255,170

[HitObjects]
29,97,13331,6,0,P|77:63|207:111,1,194.999992847443,4|2,1:2|0:2,0:0:0:0:
224,193,13887,2,0,P|291:129|295:86,1,129.999995231628,10|0,0:2|0:0,0:0:0:0:
393,107,14304,2,0,P|414:197|450:221,1,129.999995231628,2|0,0:2|0:0,0:0:0:0:
482,133,14720,1,2,0:2:0:0:
468,323,14998,2,0,L|387:310,1,64.9999976158143,8|0,0:2|0:0,0:0:0:0:
320,365,15276,2,0,L|255:375,1,64.9999976158143,0|0,0:0|0:0,0:0:0:0:
157,381,15554,6,0,P|191:333|143:203,1,194.999992847443,4|2,1:2|0:2,0:0:0:0:
61,186,16109,2,0,P|125:119|168:115,1,129.999995231628,8|0,0:2|0:0,0:0:0:0:
230,48,16526,2,0,P|256:136|237:176,1,129.999995231628,0|2,0:0|0:2,0:0:0:0:
155,211,16943,1,2,0:2:0:0:
273,368,17220,2,0,L|260:287,1,64.9999976158143,8|0,0:2|0:0,0:0:0:0:
315,220,17498,2,0,L|325:155,1,64.9999976158143,2|0,0:3|0:0,0:0:0:0:
413,115,17776,6,0,P|365:149|235:101,1,194.999992847443,6|0,1:3|0:0,0:0:0:0:
218,19,18332,2,0,P|151:83|147:126,1,129.999995231628,8|0,0:2|0:0,0:0:0:0:
105,306,18887,6,0,B|90:261|90:261|122:217,2,86.6666634877523,2|2|2,1:2|0:2|0:2,0:0:0:0:
179,198,19443,2,0,B|194:243|194:243|162:287,2,86.6666634877523,10|2|2,0:2|0:2|0:2,0:0:0:0:
263,296,19998,6,0,L|328:306,3,64.9999976158143,0|0|2|2,1:2|0:0|0:2|0:2,0:0:0:0:
301,210,20554,2,0,L|366:220,3,64.9999976158143,10|2|2|2,0:2|0:2|0:2|0:2,0:0:0:0:
339,124,21109,2,0,L|404:134,3,64.9999976158143,2|2|2|2,1:2|0:2|0:2|1:2,0:0:0:0:
377,38,21665,2,0,L|442:48,3,64.9999976158143,8|2|2|2,0:2|1:2|0:3|1:2,0:0:0:0:
298,49,22220,6,0,P|250:83|120:35,1,194.999992847443,4|0,1:2|0:0,0:0:0:0:
128,47,22776,1,8,0:2:0:0:
0,187,23054,2,0,L|71:179,1,64.9999976158143,2|0,0:2|0:0,0:0:0:0:
108,267,23332,2,0,L|37:259,1,64.9999976158143,2|0,1:2|0:0,0:0:0:0:
149,197,23609,1,2,0:2:0:0:
149,197,23748,2,0,L|220:189,1,64.9999976158143,2|8,0:2|0:2,0:0:0:0:
258,277,24026,2,0,L|187:269,1,64.9999976158143,2|0,0:2|0:0,0:0:0:0:
322,339,24304,6,0,B|373:279|336:222|304:203|304:203|382:218|442:173|442:173|382:97|453:28,1,454.9999833107,2|0,0:2|0:0,0:0:0:0:
339,129,25554,2,0,L|268:121,1,64.9999976158143,2|0,1:2|0:0,0:0:0:0:
223,37,25832,1,2,0:2:0:0:
223,37,25970,2,0,L|158:44,1,64.9999976158143,2|8,0:2|0:2,0:0:0:0:
116,132,26248,2,0,L|187:124,1,64.9999976158143,2|0,0:2|0:0,0:0:0:0:
142,215,26526,1,0,0:0:0:0:
142,215,26665,6,0,L|77:222,1,64.9999976158143,6|0,1:2|0:0,0:0:0:0:
166,299,26943,2,0,P|214:265|344:313,1,194.999992847443,2|0,0:2|0:0,0:0:0:0:
403,376,27498,2,0,L|410:311,1,64.9999976158143,0|0,0:0|0:0,0:0:0:0:
488,252,27776,2,0,L|481:317,2,64.9999976158143,0|0|0,1:2|0:0|0:0,0:0:0:0:
422,177,28193,1,0,0:0:0:0:
344,236,28332,2,0,L|335:299,2,64.9999976158143,8|0|0,0:2|0:0|0:0,0:0:0:0:
157,292,28887,6,0,L|165:355,2,64.9999976158143,0|0|0,1:2|0:0|0:0,0:0:0:0:
58,297,29304,2,0,P|92:249|44:119,1,194.999992847443,0|0,0:0|0:0,0:0:0:0:
56,127,29859,1,0,0:0:0:0:
131,65,29998,2,0,L|202:57,2,64.9999976158143,0|0|0,1:2|0:0|0:0,0:0:0:0:
259,132,30415,1,0,0:0:0:0:
304,46,30554,2,0,L|367:40,2,64.9999976158143,8|0|0,0:2|0:0|0:0,0:0:0:0:
441,256,31109,6,0,P|393:222|263:270,1,194.999992847443,0|0,1:2|0:0,0:0:0:0:
258,355,31665,2,0,L|187:347,1,64.9999976158143,8|0,0:2|0:0,0:0:0:0:
127,274,31943,2,0,L|198:266,1,64.9999976158143,2|0,0:2|0:0,0:0:0:0:
241,182,32220,2,0,L|170:174,1,64.9999976158143,0|0,1:2|0:0,0:0:0:0:
131,87,32498,1,2,0:2:0:0:
131,87,32637,2,0,L|202:79,1,64.9999976158143,2|8,0:2|0:2,0:0:0:0:
285,119,32915,2,0,L|356:127,1,64.9999976158143,2|0,0:2|0:0,0:0:0:0:
404,40,33193,6,0,B|446:59|496:187|367:227|367:227|390:314|453:297|453:297|464:345|514:348,1,454.9999833107,2|0,0:2|0:0,0:0:0:0:
320,311,34443,2,0,L|249:319,1,64.9999976158143,2|0,1:2|0:0,0:0:0:0:
180,379,34721,1,2,0:2:0:0:
180,379,34859,2,0,L|115:372,1,64.9999976158143,2|8,0:2|0:2,0:0:0:0:
73,284,35137,2,0,L|144:292,1,64.9999976158143,2|0,0:2|0:0,0:0:0:0:
99,201,35415,6,0,P|147:167|277:215,1,194.999992847443,2|0,0:2|0:0,0:0:0:0:
268,202,35970,1,0,0:0:0:0:
252,298,36109,2,0,L|316:290,1,64.9999976158143,8|0,0:2|0:0,0:0:0:0:
385,360,36387,2,0,L|449:367,1,64.9999976158143,0|0,0:0|0:0,0:0:0:0:
499,282,36665,2,0,L|434:274,1,64.9999976158143,0|0,1:2|0:0,0:0:0:0:
386,188,36943,2,0,L|450:180,1,64.9999976158143,0|0,0:0|0:0,0:0:0:0:
493,92,37220,2,0,L|428:84,1,64.9999976158143,8|0,0:2|0:0,0:0:0:0:
339,127,37498,2,0,L|274:134,1,64.9999976158143,0|0,0:0|0:0,0:0:0:0:
176,143,37776,5,4,0:2:0:0:
185,81,39998,6,0,L|114:73,1,64.9999976158143,6|0,1:2|0:0,0:0:0:0:
143,169,40276,2,0,L|135:233,1,64.9999976158143,0|0,0:0|0:0,0:0:0:0:
228,200,40554,2,0,L|235:264,1,64.9999976158143,0|0,1:0|0:0,0:0:0:0:
332,247,40832,2,0,L|324:311,1,64.9999976158143,0|0,0:0|0:0,0:0:0:0:
417,278,41110,2,0,B|401:211|401:211|430:130,1,129.999995231629,0|0,1:0|0:0,0:0:0:0:
487,81,41526,2,0,B|429:60|429:60|362:76,1,129.999995231629,0|0,0:0|0:0,0:0:0:0:
325,166,41943,1,0,0:0:0:0:
481,285,42220,6,0,L|410:277,1,64.9999976158143,2|0,1:2|0:0,0:0:0:0:
344,344,42498,2,0,L|273:352,1,64.9999976158143,0|0,0:0|0:0,0:0:0:0:
213,278,42776,2,0,L|142:270,1,64.9999976158143,0|0,1:0|0:0,0:0:0:0:
76,337,43054,2,0,L|5:345,1,64.9999976158143,0|0,0:0|0:0,0:0:0:0:
72,256,43332,2,0,L|64:185,1,64.9999976158143,0|0,1:0|0:0,0:0:0:0:
111,105,43610,2,0,L|119:34,1,64.9999976158143
209,121,43887,2,0,P|257:87|387:135,1,194.999992847443,0|0,1:0|0:0,0:0:0:0:
378,122,44443,5,2,1:2:0:0:
489,282,44720,2,0,P|441:248|311:296,1,194.999992847443,0|0,0:0|0:0,0:0:0:0:
359,373,45276,2,0,L|288:381,1,64.9999976158143,0|0,0:0|0:0,0:0:0:0:
196,378,45554,2,0,B|212:311|212:311|183:230,1,129.999995231629,0|0,1:0|0:0,0:0:0:0:
126,181,45970,2,0,B|184:160|184:160|251:176,1,129.999995231629,0|0,0:0|0:0,0:0:0:0:
302,259,46387,1,0,0:0:0:0:
446,380,46665,6,0,L|438:309,1,64.9999976158143,2|0,1:2|0:0,0:0:0:0:
505,243,46943,2,0,L|513:172,1,64.9999976158143,0|0,0:0|0:0,0:0:0:0:
417,200,47220,2,0,L|409:129,1,64.9999976158143,0|0,1:0|0:0,0:0:0:0:
476,63,47498,2,0,L|484:-8,1,64.9999976158143,0|0,0:0|0:0,0:0:0:0:
354,59,47776,2,0,P|306:93|176:45,1,194.999992847443,2|0,1:2|0:0,0:0:0:0:
86,52,48332,2,0,P|120:100|72:230,1,194.999992847443,2|0,1:2|0:0,0:0:0:0:
181,219,48887,6,0,P|229:185|359:233,1,194.999992847443,2|0,1:2|0:0,0:0:0:0:
350,220,49443,1,0,1:0:0:0:
178,311,49720,2,0,P|226:345|356:297,1,194.999992847443,2|0,0:2|0:0,0:0:0:0:
442,333,50276,2,0,L|434:268,1,64.9999976158143,2|0,0:2|0:0,0:0:0:0:
350,220,50554,2,0,L|357:155,1,64.9999976158143,2|0,1:2|0:0,0:0:0:0:
347,57,50832,6,0,P|299:91|169:43,1,194.999992847443,6|0,0:2|0:0,0:0:0:0:
163,151,51387,2,0,L|170:216,2,64.9999976158143,0|0|0,0:0|0:0|1:0,0:0:0:0:
13,98,51943,2,0,L|6:33,2,64.9999976158143,0|0|0,0:0|0:0|1:0,0:0:0:0:
163,151,52498,2,0,L|170:216,1,64.9999976158143,0|0,0:0|0:0,0:0:0:0:
95,279,52776,2,0,L|88:344,2,64.9999976158143,0|0|0,1:0|0:0|0:0,0:0:0:0:
342,307,53332,6,0,P|256:347|172:305,1,194.999992847443,2|0,1:2|0:0,0:0:0:0:
172,305,53887,1,0,1:0:0:0:
339,214,54165,2,0,P|253:173|169:215,1,194.999992847443,2|0,0:2|0:0,0:0:0:0:
84,264,54720,2,0,L|77:199,1,64.9999976158143,2|0,0:2|0:0,0:0:0:0:
141,125,54998,2,0,L|148:60,1,64.9999976158143,2|0,1:2|0:0,0:0:0:0:
169,215,55276,2,0,L|234:208,1,64.9999976158143,6|0,0:2|0:0,0:0:0:0:
283,84,55554,6,0,L|290:149,1,64.9999976158143,0|8,1:0|0:3,0:0:0:0:
307,245,55832,2,0,L|314:310,1,64.9999976158143,8|4,0:3|0:3,0:0:0:0:
409,252,56109,2,0,P|368:166|410:82,1,194.999992847443,12|4,0:2|0:3,0:0:0:0:
323,34,56665,2,0,L|258:41,1,64.9999976158143,4|8,0:2|0:3,0:0:0:0:
162,58,56943,2,0,L|97:65,1,64.9999976158143,8|8,0:2|0:3,0:0:0:0:
264,165,57359,1,8,0:3:0:0:
264,165,57498,1,8,0:3:0:0:
117,307,57776,5,6,1:2:0:0:
117,307,57914,2,0,B|160:318|160:318|220:301,1,86.6666634877523,0|0,0:0|0:0,0:0:0:0:
314,241,58192,1,0,0:0:0:0:
314,241,58331,2,0,B|271:252|271:252|211:235,1,86.6666634877523
116,173,58609,5,10,0:2:0:0:
116,173,58748,2,0,B|159:184|159:184|219:167,1,86.6666634877523
313,107,59025,1,0,0:0:0:0:
313,107,59164,2,0,B|270:118|270:118|210:101,1,86.6666634877523
382,28,59442,6,0,B|423:67|433:138|385:182|385:182|454:173|486:212|486:212|440:287|500:365,1,433.333317438762,2|0,1:2|1:0,0:0:0:0:
391,268,60276,2,0,B|327:243|327:243|191:281,1,173.333326975505,10|0,0:2|0:0,0:0:0:0:
203,354,60692,1,0,0:0:0:0:
141,292,60831,2,0,B|130:249|130:249|147:189,1,86.6666634877523,0|0,0:0|0:0,0:0:0:0:
202,84,61109,5,2,1:2:0:0:
202,84,61248,2,0,B|191:127|191:127|208:187,1,86.6666634877523
268,281,61525,1,0,1:0:0:0:
268,281,61664,2,0,B|257:238|257:238|274:178,1,86.6666634877523,0|0,0:0|1:0,0:0:0:0:
336,83,61942,5,8,0:2:0:0:
336,83,62081,2,0,B|325:126|325:126|342:186,1,86.6666634877523
402,280,62358,1,0,0:0:0:0:
402,280,62498,2,0,B|391:237|391:237|408:177,1,86.6666634877523
479,316,62776,6,0,B|447:383|355:379|327:319|327:319|291:369|291:369|200:275|74:330,1,433.333317438762,0|0,1:0|1:0,0:0:0:0:
48,383,63609,2,0,B|23:319|23:319|61:183,1,173.333326975505,8|2,0:2|0:2,0:0:0:0:
86,138,64026,2,0,B|97:97|97:97|86:54,2,86.6666634877523,0|2|2,0:0|0:2|0:3,0:0:0:0:
171,210,64442,6,0,B|206:237|251:206|251:206|291:224|291:224|357:183|458:234,1,259.999990463257,4|0,1:2|1:0,0:0:0:0:
491,259,64998,2,0,B|502:216|502:216|485:156,1,86.6666634877523,0|0,0:0|1:0,0:0:0:0:
412,109,65276,2,0,B|377:136|332:105|332:105|292:123|292:123|226:82|125:133,1,259.999990463257,8|0,0:2|0:0,0:0:0:0:
75,76,65831,2,0,L|65:162,1,86.6666634877523,0|0,0:3|0:3,0:0:0:0:
167,115,66109,6,0,B|194:150|163:195|163:195|181:235|181:235|140:301|191:402,1,259.999990463257,2|0,1:2|1:0,0:0:0:0:
255,278,66664,2,0,B|266:237|266:237|255:194,1,86.6666634877523,0|0,0:0|1:0,0:0:0:0:
352,115,66942,2,0,B|325:150|356:195|356:195|338:235|338:235|379:301|328:402,1,259.999990463257,10|0,0:2|0:0,0:0:0:0:
255,278,67498,2,0,L|264:191,1,86.6666634877523,0|0,0:3|0:3,0:0:0:0:
352,115,67776,6,0,B|317:88|272:119|272:119|232:101|232:101|166:142|65:91,1,259.999990463257,0|0,1:0|1:0,0:0:0:0:
14,69,68331,2,0,B|3:112|3:112|14:152,1,86.6666634877523,0|0,0:0|1:0,0:0:0:0:
94,188,68609,2,0,B|105:231|105:231|93:271,1,86.6666634877523,10|0,0:2|0:0,0:0:0:0:
49,346,68887,2,0,B|89:357|89:357|132:346,1,86.6666634877523,0|0,0:0|0:0,0:0:0:0:
182,275,69164,2,0,B|193:234|193:234|182:191,1,86.6666634877523,0|0,0:0|0:0,0:0:0:0:
107,108,69442,6,0,B|139:82|184:113|184:113|224:95|224:95|290:136|349:103,1,259.999990463257,4|0,1:2|1:0,0:0:0:0:
442,61,69998,2,0,B|453:104|453:104|441:144,1,86.6666634877523,0|0,0:0|1:0,0:0:0:0:
279,203,70276,1,8,0:2:0:0:
279,203,70414,2,0,L|397:193,1,86.6666634877523,8|8,0:2|0:3,0:0:0:0:
416,300,70692,1,4,0:3:0:0:
416,300,70831,2,0,L|298:290,1,86.6666634877523,4|4,0:3|0:3,0:0:0:0:
259,359,71109,5,6,1:2:0:0:
259,359,71248,2,0,B|216:370|216:370|156:353,1,86.6666634877523
62,293,71525,1,0,0:0:0:0:
62,293,71664,2,0,B|105:304|105:304|165:287,1,86.6666634877523
260,225,71942,5,10,0:2:0:0:
260,225,72081,2,0,B|217:236|217:236|157:219,1,86.6666634877523
63,159,72358,1,0,0:0:0:0:
63,159,72498,2,0,B|106:170|106:170|166:153,1,86.6666634877523
10,225,72776,6,0,B|-29:196|-46:148|-21:71|59:68|59:68|108:67|136:22|136:22|178:88|257:53,1,433.333317438762,2|0,1:2|1:0,0:0:0:0:
322,0,73609,2,0,B|347:64|347:64|309:200,1,173.333326975505,10|0,0:2|0:0,0:0:0:0:
358,245,74026,1,0,0:0:0:0:
358,245,74164,2,0,B|315:256|315:256|274:244,1,86.6666634877523,0|0,0:0|0:0,0:0:0:0:
244,85,74442,5,2,1:2:0:0:
244,85,74581,2,0,B|255:128|255:128|238:188,1,86.6666634877523
178,282,74858,1,0,1:0:0:0:
178,282,74998,2,0,B|189:239|189:239|172:179,1,86.6666634877523,0|0,0:0|1:0,0:0:0:0:
110,84,75275,5,8,0:2:0:0:
110,84,75414,2,0,B|121:127|121:127|104:187,1,86.6666634877523
44,281,75691,1,0,0:0:0:0:
44,281,75831,2,0,B|55:238|55:238|38:178,1,86.6666634877523
0,353,76109,6,0,B|80:385|120:309|120:309|202:370|262:335|262:335|330:293|408:350,1,433.333317438762,0|0,1:0|1:0,0:0:0:0:
490,383,76942,2,0,B|515:319|515:319|477:183,1,173.333326975505,8|2,0:2|0:2,0:0:0:0:
456,122,77359,2,0,B|445:81|445:81|456:38,2,86.6666634877523,0|2|2,0:0|0:2|0:3,0:0:0:0:
406,214,77776,6,0,B|363:225|363:225|303:208,1,86.6666634877523,0|0,1:0|0:0,0:0:0:0:
298,112,78053,2,0,B|255:101|255:101|195:118,1,86.6666634877523,0|0,0:0|1:0,0:0:0:0:
189,213,78331,2,0,B|149:225|149:225|106:214,1,86.6666634877523,0|0,0:0|1:0,0:0:0:0:
108,109,78609,6,0,B|151:98|151:98|211:115,1,86.6666634877523,10|0,0:2|0:0,0:0:0:0:
216,211,78887,2,0,B|259:222|259:222|319:205,1,86.6666634877523
325,109,79164,2,0,B|365:97|365:97|408:108,1,86.6666634877523,0|0,0:0|0:0,0:0:0:0:
460,217,79442,6,0,B|425:190|380:221|380:221|340:203|340:203|274:244|173:193,1,259.999990463257,0|0,1:0|0:0,0:0:0:0:
123,167,79998,2,0,B|111:207|111:207|122:250,1,86.6666634877523,0|0,0:0|0:0,0:0:0:0:
298,211,80276,2,0,B|257:199|257:199|214:210,1,86.6666634877523,8|0,0:2|0:0,0:0:0:0:
214,314,80553,2,0,B|254:325|254:325|297:314,1,86.6666634877523,0|0,0:0|0:0,0:0:0:0:
389,250,80831,2,0,B|400:207|400:207|389:167,1,86.6666634877523,0|0,0:0|0:0,0:0:0:0:
302,358,81109,6,0,B|313:315|313:315|296:255,1,86.6666634877523,2|0,1:2|0:0,0:0:0:0:
200,250,81387,2,0,B|189:207|189:207|206:147,1,86.6666634877523,0|0,0:0|1:0,0:0:0:0:
301,141,81664,2,0,B|313:101|313:101|302:58,1,86.6666634877523,0|0,0:0|1:0,0:0:0:0:
197,60,81942,6,0,B|186:103|186:103|203:163,1,86.6666634877523,8|0,0:2|0:0,0:0:0:0:
299,168,82220,2,0,B|310:211|310:211|293:271,1,86.6666634877523
197,277,82498,2,0,B|185:317|185:317|196:360,1,86.6666634877523,0|0,0:0|0:0,0:0:0:0:
296,383,82776,6,0,B|321:350|290:305|290:305|308:265|308:265|267:199|301:141,1,259.999990463257,2|0,1:2|1:0,0:0:0:0:
260,60,83331,2,0,B|300:48|300:48|343:59,1,86.6666634877523,0|0,0:0|1:0,0:0:0:0:
397,135,83609,2,0,L|400:235,1,86.6666634877523,8|8,0:2|0:2,0:0:0:0:
326,277,83887,2,0,L|329:377,1,86.6666634877523,8|4,0:3|0:3,0:0:0:0:
183,363,84164,2,0,L|186:277,1,86.6666634877523,4|4,0:3|0:3,0:0:0:0:
112,221,84442,6,0,L|115:135,2,86.6666634877523,0|0|0,1:0|0:0|0:0,0:0:0:0:
199,144,84859,2,0,B|263:119|263:119|399:157,1,173.333326975505,0|0,1:0|1:0,0:0:0:0:
438,221,85276,2,0,L|435:307,2,86.6666634877523,8|0|0,0:2|0:0|0:0,0:0:0:0:
351,298,85693,2,0,B|287:323|287:323|151:285,1,173.333326975505,8|4,0:3|0:3,0:0:0:0:
288,230,86109,5,4,1:2:0:0:
289,201,86942,1,0,0:0:0:0:
290,172,87463,1,0,0:0:0:0:
291,143,87776,1,0,0:0:0:0:
