osu file format v14

[General]
AudioFilename: audio.mp3
AudioLeadIn: 0
PreviewTime: 57683
Countdown: 0
SampleSet: Soft
StackLeniency: 0.5
Mode: 0
LetterboxInBreaks: 0
WidescreenStoryboard: 1

[Editor]
Bookmarks: 37776,38887,39998,43332,44443,47776,48887,61526
DistanceSpacing: 1.2
BeatDivisor: 4
GridSize: 32
TimelineZoom: 0.4999997

[Metadata]
Title:Here [TV-EDIT]
TitleUnicode:Here [TV-EDIT]
Artist:JUNNA
ArtistUnicode:JUNNA
Creator:CrystilonZ
Version:Normal
Source:魔法使いの嫁
Tags:Mahoutsukai no Yome opening Mahoyome Elias Ainsworth Hatori Chise The Ancient Magus' Bride
BeatmapID:1459005
BeatmapSetID:678534

[Difficulty]
HPDrainRate:3.4
CircleSize:3.8
OverallDifficulty:3.8
ApproachRate:5.2
SliderMultiplier:1.35
SliderTickRate:2

[Events]
//Background and Video events
Video,-100,"op.avi"
0,0,"Mahou.jpg",0,0
//Break Periods
//Storyboard Layer 0 (Background)
//Storyboard Layer 1 (Fail)
//Storyboard Layer 2 (Pass)
//Storyboard Layer 3 (Foreground)
//Storyboard Sound Samples

[TimingPoints]
13332,555.555555555556,4,2,1,70,1,0
13609,-100,4,2,1,40,0,0
13748,-100,4,2,1,70,0,0
14165,-100,4,2,1,40,0,0
14443,-100,4,2,1,70,0,0
15276,-100,4,2,1,40,0,0
15554,-100,4,2,1,70,0,0
15832,-100,4,2,1,40,0,0
16109,-100,4,2,1,70,0,0
16943,-100,4,2,1,40,0,0
17220,-100,4,2,1,70,0,0
18054,-100,4,2,1,40,0,0
18332,-100,4,2,1,70,0,0
19165,-100,4,2,1,40,0,0
19998,-100,4,2,1,70,0,0
20276,-100,4,2,1,40,0,0
21109,-100,4,2,1,70,0,0
21248,-100,4,2,1,30,0,0
22082,-100,4,2,1,70,0,0
22220,-100,4,2,1,52,0,0
22498,-100,4,2,1,20,0,0
22776,-100,4,2,1,52,0,0
23609,-100,4,2,1,20,0,0
23748,-100,4,2,1,52,0,0
24582,-100,4,2,1,20,0,0
25554,-100,4,2,1,52,0,0
26943,-100,4,2,1,20,0,0
27220,-100,4,2,1,52,0,0
28054,-100,4,2,1,20,0,0
28332,-100,4,2,1,52,0,0
29165,-100,4,2,1,20,0,0
29443,-100,4,2,1,52,0,0
30276,-100,4,2,1,20,0,0
30554,-100,4,2,1,52,0,0
31387,-100,4,2,1,20,0,0
31665,-100,4,2,1,52,0,0
32498,-100,4,2,1,20,0,0
32637,-100,4,2,1,52,0,0
33470,-100,4,2,1,20,0,0
34443,-100,4,2,1,52,0,0
35693,-100,4,2,1,20,0,0
37220,-100,4,2,1,52,0,0
37776,-100,4,2,1,35,0,0
38887,-100,4,2,21,52,0,0
39026,-100,4,2,2,52,0,0
39582,-100,4,2,2,20,0,0
39720,-100,4,2,1,52,0,0
39998,-100,4,2,21,55,0,0
42498,-100,4,2,21,55,0,0
42776,-100,4,2,21,55,0,0
43054,-100,4,2,21,55,0,0
43332,-100,4,2,21,55,0,0
44304,-100,4,2,1,55,0,0
44443,-100,4,2,21,55,0,0
46943,-100,4,2,21,55,0,0
47220,-100,4,2,21,55,0,0
47498,-100,4,2,21,55,0,0
47776,-100,4,2,21,55,0,0
48609,-100,4,2,1,55,0,0
48887,-100,4,2,21,55,0,0
49165,-100,4,2,21,20,0,0
49443,-100,4,2,21,55,0,0
49720,-100,4,2,4,55,0,0
49859,-100,4,2,21,55,0,0
49998,-100,4,2,21,20,0,0
50276,-100,4,2,21,55,0,0
50832,-100,4,2,4,55,0,0
50970,-100,4,2,21,55,0,0
52915,-100,4,2,1,55,0,0
53332,-100,4,2,21,55,0,0
53609,-100,4,2,21,20,0,0
53887,-100,4,2,21,55,0,0
54165,-100,4,2,4,55,0,0
54304,-100,4,2,21,55,0,0
54443,-100,4,2,21,20,0,0
54720,-100,4,2,21,55,0,0
55276,-100,4,2,4,60,0,0
55554,-100,4,2,2,60,0,0
57082,-100,4,2,1,60,0,0
57498,-100,4,2,1,60,0,0
57776,833.333333333333,2,2,2,67,1,1
57776,-50,5,2,2,67,0,1
58053,-50,5,2,88,67,0,1
58192,-50,5,2,2,67,0,1
58470,-50,5,2,88,67,0,1
58609,-50,5,2,99,67,0,1
58748,-50,5,2,2,67,0,1
58887,-50,5,2,88,67,0,1
59026,-50,5,2,2,67,0,1
59164,-50,5,2,4,67,0,1
59720,-50,5,2,4,67,0,1
59859,-50,5,2,50,25,0,1
60067,-50,5,2,4,67,0,1
60276,-50,5,2,4,67,0,1
60553,-50,5,2,2,67,0,1
60692,-50,5,2,5,67,0,1
61109,-50,5,2,2,67,0,1
61387,-50,5,2,88,67,0,1
61526,-50,5,2,2,67,0,1
61803,-50,5,2,88,67,0,1
61942,-50,5,2,99,67,0,1
62081,-50,5,2,2,67,0,1
62220,-50,5,2,88,67,0,1
62359,-50,5,2,2,67,0,1
62637,-50,5,2,1,67,0,1
62776,-50,5,2,4,67,0,1
63053,-50,5,2,4,67,0,1
63192,-50,5,2,50,25,0,1
63401,-50,5,2,4,67,0,1
63609,-50,5,2,4,67,0,1
63887,-50,5,2,1,67,0,1
64442,-50,5,2,2,67,0,1
64859,-50,5,2,50,25,0,1
64998,-50,5,2,2,67,0,1
65276,-50,5,2,99,67,0,1
65692,-50,5,2,99,20,0,1
65831,-50,5,2,99,67,0,1
66109,-50,5,2,2,67,0,1
66526,-50,5,2,50,25,0,1
66664,-50,5,2,2,67,0,1
66942,-50,5,2,99,67,0,1
67359,-50,5,2,99,20,0,1
67498,-50,5,2,99,67,0,1
67776,-50,5,2,2,67,0,1
68192,-50,5,2,50,25,0,1
68331,-50,5,2,2,67,0,1
68609,-50,5,2,99,67,0,1
69026,-50,5,2,4,67,0,1
69442,-50,5,2,2,67,0,1
70276,-50,5,2,2,67,0,0
71109,-50,5,2,2,67,0,1
71387,-50,5,2,88,67,0,1
71526,-50,5,2,2,67,0,1
71803,-50,5,2,88,67,0,1
71942,-50,5,2,99,67,0,1
72081,-50,5,2,2,67,0,1
72220,-50,5,2,88,67,0,1
72359,-50,5,2,4,20,0,1
72498,-50,5,2,4,67,0,1
72567,-50,5,2,4,67,0,1
73053,-50,5,2,4,67,0,1
73192,-50,5,2,50,25,0,1
73401,-50,5,2,4,67,0,1
73609,-50,5,2,4,67,0,1
73887,-50,5,2,88,67,0,1
74026,-50,5,2,5,67,0,1
74442,-50,5,2,2,67,0,1
74720,-50,5,2,88,67,0,1
74859,-50,5,2,2,67,0,1
75137,-50,5,2,88,67,0,1
75276,-50,5,2,99,67,0,1
75414,-50,5,2,2,67,0,1
75553,-50,5,2,88,67,0,1
75692,-50,5,2,2,67,0,1
75831,-50,5,2,4,67,0,1
76387,-50,5,2,4,67,0,1
76526,-50,5,2,50,25,0,1
76803,-50,5,2,4,67,0,1
76942,-50,5,2,4,67,0,1
77220,-50,5,2,88,67,0,1
77359,-50,5,2,2,67,0,1
77776,-50,5,2,2,67,0,1
77914,-50,5,2,88,67,0,1
78053,-50,5,2,2,67,0,1
78192,-50,5,2,88,67,0,1
78331,-50,5,2,2,67,0,1
78470,-50,5,2,88,67,0,1
78609,-50,5,2,2,67,0,1
78748,-50,5,2,88,67,0,1
78887,-50,5,2,2,67,0,1
79026,-50,5,2,4,67,0,1
79442,-50,5,2,2,67,0,1
79859,-50,5,2,50,25,0,1
80276,-50,5,2,99,67,0,1
80692,-50,5,2,5,67,0,1
81109,-50,5,2,2,67,0,1
81248,-50,5,2,88,67,0,1
81387,-50,5,2,2,67,0,1
81526,-50,5,2,88,67,0,1
81664,-50,5,2,2,67,0,1
81803,-50,5,2,88,67,0,1
81942,-50,5,2,99,67,0,1
82081,-50,5,2,88,67,0,1
82220,-50,5,2,2,67,0,1
82359,-50,5,2,4,67,0,1
82776,-50,5,2,2,67,0,1
83053,-50,5,2,4,67,0,1
83192,-50,5,2,50,25,0,1
83331,-50,5,2,4,67,0,1
83609,-50,5,2,2,67,0,1
85276,-50,5,2,99,67,0,1
85414,-50,5,2,2,67,0,1
85692,-50,5,2,50,25,0,1
85831,-50,5,2,2,67,0,1
86109,-50,5,2,2,35,0,0
87914,-50,5,2,2,6,0,0

[Colours]
Combo1 : 255,228,40
Combo2 : 81,81,81
Combo3 : 178,178,178
Combo4 : 198,66,66
Combo5 : 169,205,44
Combo6 : 244,154,55
Combo7 : 77,181,242
Combo8 : 190,137,250

[HitObjects]
91,102,13331,38,0,P|77:155|99:220,1,101.25,4|10,1:2|0:0,0:0:0:0:
110,232,13887,2,0,L|265:243,1,135,10|0,1:0|1:0,0:0:0:0:
316,201,14720,1,10,0:3:0:0:
376,254,14998,102,0,P|388:309|351:377,2,135,10|0|8,1:0|1:0|1:0,0:0:0:0:
254,146,16665,2,0,B|240:114|255:78|255:78|272:39|255:9,1,135,0|10,1:0|1:0,0:0:0:0:
181,41,17498,1,10,0:0:0:0:
104,15,17776,6,0,B|90:38|107:77|107:77|122:113|108:145,1,135,2|8,1:0|1:0,0:0:0:0:
17,280,18887,2,0,B|53:249|104:251|142:280|142:280|180:251|223:250|266:280,1,270,2|2,1:0|1:0,0:0:0:0:
289,313,20137,102,0,P|319:346|321:246,2,236.25,2|2|2,0:0|1:0|0:0,0:0:0:0:
266,280,22220,102,0,P|257:233|311:161,1,135,4|8,1:2|1:0,0:0:0:0:
382,145,23054,1,0,0:3:0:0:
322,90,23332,2,0,B|258:78|258:78|219:87,1,101.25,2|0,1:2|0:3,0:0:0:0:
170,147,24026,1,0,0:0:0:0:
102,101,24304,6,0,B|75:130|81:183|111:208|111:208|139:234|150:268|132:299|103:309|79:303|46:290|50:244,1,303.75,2|0,0:0|1:0,0:0:0:0:
170,147,26109,1,8,1:0:0:0:
289,256,26665,102,0,B|302:354|302:354|327:328,1,135,0|8,1:0|1:0,0:0:0:0:
438,210,27776,2,0,P|455:159|431:74,1,135,0|8,1:0|1:0,0:0:0:0:
284,25,28887,2,0,B|214:24|214:24|150:44,1,135,0|8,1:0|1:0,0:0:0:0:
222,189,29998,2,0,B|256:141|223:96|223:96|173:112,1,135,0|8,1:0|1:0,0:0:0:0:
142,172,30832,1,0,0:3:0:0:
174,247,31109,6,0,B|201:269|237:263|237:263|272:258|304:273,1,135,0|8,1:0|1:0,0:0:0:0:
349,339,31943,1,0,0:3:0:0:
383,266,32220,2,0,P|389:229|370:158,1,101.25,2|0,1:2|0:3,0:0:0:0:
315,112,32915,1,0,0:0:0:0:
355,41,33193,102,0,B|287:15|246:68|246:68|203:129|128:136|75:72,1,303.75,2|2,0:0|1:0,0:0:0:0:
29,141,34720,2,0,L|26:199,1,33.75,0|0,0:3|0:3,0:0:0:0:
74,240,35137,1,0,0:0:0:0:
35,311,35415,6,0,B|78:332|120:308|120:308|133:349|171:381|240:370|260:329|270:279|249:232|196:213|154:237|154:237|155:211|137:194,1,438.75,2|0,0:0|1:0,0:0:0:0:
78,159,37498,1,8,0:3:0:0:
7,119,37776,1,0,0:0:0:0:
7,119,38887,102,0,B|0:91|0:91|41:77|89:102|89:102|135:125|190:111,1,202.5,8|0,0:3|1:0,0:0:0:0:
241,76,39998,22,0,P|250:116|245:149,1,67.5,4|0,1:2|0:3,0:0:0:0:
187,197,40554,2,0,P|178:237|183:270,1,67.5,0|8,1:0|3:3,0:0:0:0:
237,320,41109,2,0,L|354:314,2,101.25,0|0|8,1:0|0:3|3:3,0:0:0:0:
164,355,42220,86,0,L|96:351,1,67.5,0|8,1:0|0:3,0:0:0:0:
135,279,42776,2,0,L|67:275,1,67.5,0|8,1:0|0:3,0:0:0:0:
106,203,43332,2,0,L|38:199,1,67.5,0|2,1:0|0:3,0:0:0:0:
9,123,43887,2,0,L|146:131,1,135,0|0,1:0|1:0,0:0:0:0:
218,98,44720,22,0,P|223:136|216:169,1,67.5,0|0,0:0|1:0,0:0:0:0:
151,211,45276,1,8,3:0:0:0:
87,261,45554,2,0,P|83:298|128:365,2,101.25,0|0|8,1:0|0:0|3:0,0:0:0:0:
151,211,46665,85,0,1:0:0:0:
166,290,46943,1,8,3:0:0:0:
230,240,47220,1,0,1:0:0:0:
245,319,47498,1,8,3:3:0:0:
309,269,47776,2,0,P|312:235|305:202,1,67.5,0|0,1:0|0:0,0:0:0:0:
236,159,48332,2,0,P|233:125|240:92,1,67.5,0|8,1:0|0:0,0:0:0:0:
290,29,48887,22,0,B|225:50|225:50|143:34,1,135,2|0,1:2|1:2,0:0:0:0:
109,100,49720,2,0,B|176:112|176:112|255:87,1,135,2|0,0:2|0:0,0:0:0:0:
297,148,50554,1,0,1:0:0:0:
219,173,50832,86,0,B|180:186|180:186|87:169|87:169|48:197|48:197|71:239|71:239|185:261|185:261|249:238|249:238|304:258|304:258,1,472.5,2|0,0:2|1:0,0:0:0:0:
437,347,53332,22,0,B|429:279|429:279|461:206,1,135,2|0,1:2|1:0,0:0:0:0:
406,154,54165,2,0,B|378:215|378:215|386:282,1,135,2|0,0:0|0:0,0:0:0:0:
319,328,54998,1,0,1:0:0:0:
307,247,55276,1,2,0:0:0:0:
256,192,55415,12,0,57082,1:0:0:0:
74,7,57776,6,0,L|84:59,1,45,4|2,1:2|3:3,0:0:0:0:
188,72,58192,2,0,L|178:124,1,45,2|2,1:3|3:0,0:0:0:0:
74,137,58609,2,0,L|84:189,1,45,10|2,3:1|3:0,0:0:0:0:
188,202,59026,2,0,L|178:254,1,45,2|10,3:0|3:0,0:0:0:0:
118,335,59442,6,0,B|164:369|226:344|226:344|291:321|354:353,1,225,2|0,1:2|1:0,0:0:0:0:
385,365,60276,2,0,P|381:319|404:254,1,90,10|2,3:1|3:2,0:0:0:0:
476,210,60831,1,10,3:0:0:0:
417,119,61109,6,0,L|365:114,1,45,2|2,1:3|3:0,0:0:0:0:
340,11,61526,2,0,L|288:16,1,45,2|2,1:3|3:0,0:0:0:0:
263,119,61942,2,0,L|211:114,1,45,10|2,3:1|3:0,0:0:0:0:
186,11,62359,2,0,L|134:16,1,45,2|2,3:0|3:0,0:0:0:0:
66,93,62776,6,0,B|49:167|49:167|70:235|70:235|51:315,1,225,2|0,1:0|1:0,0:0:0:0:
32,361,63609,2,0,P|83:346|147:350,1,90,10|10,3:1|3:0,0:0:0:0:
226,362,64164,1,10,3:0:0:0:
181,263,64442,6,0,B|159:221|179:178|179:178|203:130|179:80,1,180,4|2,1:2|3:0,0:0:0:0:
94,152,65276,2,0,B|125:184|178:178|178:178|225:174|257:209,1,180,10|2,3:1|3:0,0:0:0:0:
351,263,66109,38,0,B|396:256|420:211|420:211|444:255|490:263,1,180,2|2,1:3|3:0,0:0:0:0:
490,154,66942,2,0,B|444:162|420:206|420:206|396:161|351:154,1,180,8|2,3:1|3:0,0:0:0:0:
257,209,67776,6,0,B|234:163|249:122|249:122|270:72|237:29,1,180,2|2,1:3|3:0,0:0:0:0:
146,86,68609,2,0,L|44:83,2,90,10|2|10,3:1|3:1|3:0,0:0:0:0:
171,191,69442,6,0,P|167:269|131:318,2,135,0|0|8,1:2|1:0|3:1,0:0:0:0:
67,160,70553,1,0,1:0:0:0:
146,86,70831,1,0,1:0:0:0:
191,184,71109,6,0,L|240:180,1,45,4|2,1:2|3:0,0:0:0:0:
243,72,71526,2,0,L|292:76,1,45,2|2,1:3|3:0,0:0:0:0:
383,128,71942,2,0,B|407:176|381:218|381:218|357:261|381:308,1,180,10|2,3:1|3:2,0:0:0:0:
478,264,72776,6,0,B|448:209|379:215|379:215|310:213|286:171,1,225,0|0,1:0|1:0,0:0:0:0:
258,125,73609,2,0,L|249:22,1,90,10|2,3:1|3:0,0:0:0:0:
145,6,74164,1,8,3:0:0:0:
41,35,74442,6,0,L|37:85,1,45,2|2,1:3|3:0,0:0:0:0:
144,100,74859,2,0,L|147:150,1,45,2|2,1:3|3:0,0:0:0:0:
41,165,75276,2,0,L|37:215,1,45,10|2,3:1|3:0,0:0:0:0:
144,227,75692,2,0,L|147:277,1,45,2|10,3:0|3:0,0:0:0:0:
94,367,76109,38,0,B|154:395|207:361|207:361|267:323|325:353,1,225,2|0,1:2|1:2,0:0:0:0:
358,366,76942,2,0,P|346:309|369:232,1,135,10|8,3:1|3:1,0:0:0:0:
408,201,77498,1,8,3:0:0:0:
308,158,77776,6,0,L|217:164,2,90,4|2|2,1:2|3:0|3:0,0:0:0:0:
399,101,78609,2,0,L|335:35,2,90,8|2|10,3:1|3:0|3:0,0:0:0:0:
494,151,79442,6,0,B|504:201|477:238|477:238|500:277|500:277|472:359|371:349,1,270,2|10,1:3|3:1,0:0:0:0:
259,267,80692,2,0,L|264:221,2,45,8|10|10,3:0|3:0|3:0,0:0:0:0:
238,317,81109,6,0,L|147:325,2,90,2|2|2,1:3|3:0|3:0,0:0:0:0:
337,273,81942,2,0,L|426:280,2,90,10|2|10,3:1|3:0|3:0,0:0:0:0:
238,229,82776,6,0,P|213:182|352:179,1,270,0|8,1:0|3:1,0:0:0:0:
337,273,83887,1,8,3:0:0:0:
238,316,84164,1,0,1:0:0:0:
149,252,84442,6,0,P|127:176|141:115,1,135,2|0,1:3|1:0,0:0:0:0:
281,46,85276,2,0,B|325:66|370:47|370:47|416:26|460:48,1,180,10|2,3:1|1:3,0:0:0:0:
416,146,86109,53,4,1:2:0:0:
256,192,87776,12,0,89998,3:0:0:0:
