osu file format v14

[General]
AudioFilename: audio.mp3
AudioLeadIn: 0
PreviewTime: 57683
Countdown: 0
SampleSet: Soft
StackLeniency: 0.4
Mode: 0
LetterboxInBreaks: 0
WidescreenStoryboard: 0

[Editor]
Bookmarks: 21248,29026,37776,38887,39998,43332,44443,47776,48887
DistanceSpacing: 1.7
BeatDivisor: 4
GridSize: 32
TimelineZoom: 1.9

[Metadata]
Title:Here [TV-EDIT]
TitleUnicode:Here [TV-EDIT]
Artist:JUNNA
ArtistUnicode:JUNNA
Creator:CrystilonZ
Version:Insane
Source:魔法使いの嫁
Tags:Mahoutsukai no Yome opening Mahoyome Elias Ainsworth Hatori Chise The Ancient Magus' Bride
BeatmapID:1464039
BeatmapSetID:678534

[Difficulty]
HPDrainRate:6
CircleSize:4.9
OverallDifficulty:6.8
ApproachRate:9.2
SliderMultiplier:1.98
SliderTickRate:2

[Events]
//Background and Video events
Video,-100,"op.avi"
0,0,"Mahou.jpg",0,0
//Break Periods
//Storyboard Layer 0 (Background)
//Storyboard Layer 1 (Fail)
//Storyboard Layer 2 (Pass)
//Storyboard Layer 3 (Foreground)
//Storyboard Sound Samples

[TimingPoints]
13332,555.555555555556,4,2,1,70,1,0
13609,-100,4,2,1,40,0,0
13748,-100,4,2,1,70,0,0
22220,-125,4,2,1,47,0,0
22498,-125,4,2,1,20,0,0
22776,-125,4,2,1,47,0,0
37776,-100,4,2,1,35,0,0
38887,-100,4,2,21,50,0,0
39026,-100,4,2,2,50,0,0
39720,-100,4,2,1,50,0,0
39998,-100,4,2,21,55,0,0
42498,-100,4,2,21,55,0,0
42776,-100,4,2,21,55,0,0
43054,-100,4,2,21,55,0,0
43332,-100,4,2,21,55,0,0
44304,-100,4,2,1,55,0,0
44443,-100,4,2,21,55,0,0
46943,-100,4,2,21,55,0,0
47220,-100,4,2,21,55,0,0
47498,-100,4,2,21,55,0,0
47776,-100,4,2,21,55,0,0
48609,-100,4,2,1,55,0,0
48887,-100,4,2,21,55,0,0
49443,-100,4,2,21,55,0,0
49720,-100,4,2,4,55,0,0
49859,-100,4,2,21,55,0,0
50276,-100,4,2,21,55,0,0
50832,-100,4,2,4,55,0,0
50970,-100,4,2,21,55,0,0
52915,-100,4,2,1,55,0,0
53332,-100,4,2,21,55,0,0
53887,-100,4,2,21,55,0,0
54165,-100,4,2,4,55,0,0
54304,-100,4,2,21,55,0,0
54720,-100,4,2,21,55,0,0
55276,-100,4,2,4,60,0,0
55554,-100,4,2,2,60,0,0
56387,-100,4,2,2,60,0,0
56665,-100,4,2,2,60,0,0
57082,-100,4,2,1,60,0,0
57498,-100,4,2,1,60,0,0
57776,833.333333333333,2,2,2,67,1,1
57776,-45.4545454545455,4,2,2,67,0,1
58053,-45.4545454545455,4,2,88,67,0,1
58192,-45.4545454545455,4,2,2,67,0,1
58470,-45.4545454545455,4,2,88,67,0,1
58609,-45.4545454545455,4,2,99,67,0,1
58748,-45.4545454545455,4,2,2,67,0,1
58887,-45.4545454545455,4,2,88,67,0,1
59026,-45.4545454545455,4,2,2,67,0,1
59164,-45.4545454545455,4,2,4,67,0,1
59442,-45.4545454545455,4,2,4,67,0,1
59859,-45.4545454545455,4,2,50,25,0,1
60067,-45.4545454545455,4,2,4,67,0,1
60276,-35.7142857142857,4,2,4,67,0,1
60553,-45.4545454545455,4,2,2,67,0,1
60692,-45.4545454545455,4,2,5,67,0,1
61109,-45.4545454545455,4,2,2,67,0,1
61248,-45.4545454545455,4,2,2,67,0,1
61387,-45.4545454545455,4,2,88,67,0,1
61526,-45.4545454545455,4,2,2,67,0,1
61803,-45.4545454545455,4,2,88,67,0,1
61942,-45.4545454545455,4,2,99,67,0,1
62081,-45.4545454545455,4,2,2,67,0,1
62220,-45.4545454545455,4,2,88,67,0,1
62359,-45.4545454545455,4,2,2,67,0,1
62637,-45.4545454545455,4,2,1,67,0,1
62776,-45.4545454545455,4,2,4,67,0,1
63053,-45.4545454545455,4,2,4,67,0,1
63192,-45.4545454545455,4,2,50,25,0,1
63401,-45.4545454545455,4,2,4,67,0,1
63609,-35.7142857142857,4,2,4,67,0,1
63887,-45.4545454545455,4,2,1,67,0,1
64442,-45.4545454545455,4,2,2,67,0,1
65276,-45.4545454545455,4,2,99,67,0,1
66109,-45.4545454545455,4,2,2,67,0,1
66942,-45.4545454545455,4,2,99,67,0,1
67776,-45.4545454545455,4,2,2,67,0,1
68609,-45.4545454545455,4,2,99,67,0,1
69026,-45.4545454545455,4,2,4,67,0,1
69442,-45.4545454545455,4,2,2,67,0,1
70276,-45.4545454545455,4,2,2,67,0,0
71109,-45.4545454545455,4,2,2,67,0,1
71387,-45.4545454545455,4,2,88,67,0,1
71526,-45.4545454545455,4,2,2,67,0,1
71803,-45.4545454545455,4,2,88,67,0,1
71942,-45.4545454545455,4,2,99,67,0,1
72081,-45.4545454545455,4,2,2,67,0,1
72220,-45.4545454545455,4,2,88,67,0,1
72359,-45.4545454545455,4,2,2,67,0,1
72498,-45.4545454545455,4,2,4,67,0,1
73053,-45.4545454545455,4,2,4,67,0,1
73192,-45.4545454545455,4,2,50,25,0,1
73401,-45.4545454545455,4,2,4,67,0,1
73609,-35.7142857142857,4,2,4,67,0,1
73887,-45.4545454545455,4,2,88,67,0,1
74026,-45.4545454545455,4,2,5,67,0,1
74442,-45.4545454545455,4,2,2,67,0,1
74720,-45.4545454545455,4,2,88,67,0,1
74859,-45.4545454545455,4,2,2,67,0,1
75137,-45.4545454545455,4,2,88,67,0,1
75276,-45.4545454545455,4,2,99,67,0,1
75414,-45.4545454545455,4,2,2,67,0,1
75553,-45.4545454545455,4,2,88,67,0,1
75692,-45.4545454545455,4,2,2,67,0,1
75831,-45.4545454545455,4,2,4,67,0,1
76109,-45.4545454545455,4,2,4,67,0,1
76387,-45.4545454545455,4,2,4,67,0,1
76526,-45.4545454545455,4,2,50,25,0,1
76803,-45.4545454545455,4,2,4,67,0,1
76942,-35.7142857142857,4,2,4,67,0,1
77220,-45.4545454545455,4,2,88,67,0,1
77359,-45.4545454545455,4,2,2,67,0,1
77776,-45.4545454545455,4,2,2,67,0,1
77914,-45.4545454545455,4,2,88,67,0,1
78053,-45.4545454545455,4,2,2,67,0,1
78192,-45.4545454545455,4,2,88,67,0,1
78331,-45.4545454545455,4,2,2,67,0,1
78470,-45.4545454545455,4,2,88,67,0,1
78609,-45.4545454545455,4,2,2,67,0,1
78748,-45.4545454545455,4,2,88,67,0,1
78887,-45.4545454545455,4,2,2,67,0,1
79026,-45.4545454545455,4,2,4,67,0,1
79442,-45.4545454545455,4,2,2,67,0,1
80276,-45.4545454545455,4,2,99,67,0,1
80692,-45.4545454545455,4,2,5,67,0,1
81109,-45.4545454545455,4,2,2,67,0,1
81248,-45.4545454545455,4,2,88,67,0,1
81387,-45.4545454545455,4,2,2,67,0,1
81526,-45.4545454545455,4,2,88,67,0,1
81664,-45.4545454545455,4,2,2,67,0,1
81803,-45.4545454545455,4,2,88,67,0,1
81942,-45.4545454545455,4,2,99,67,0,1
82081,-45.4545454545455,4,2,88,67,0,1
82220,-45.4545454545455,4,2,2,67,0,1
82359,-45.4545454545455,4,2,4,67,0,1
82776,-45.4545454545455,4,2,2,67,0,1
83053,-45.4545454545455,4,2,4,67,0,1
83192,-45.4545454545455,4,2,2,67,0,1
83331,-45.4545454545455,4,2,4,67,0,1
83609,-45.4545454545455,4,2,2,67,0,1
85276,-45.4545454545455,4,2,99,67,0,1
85414,-45.4545454545455,4,2,2,67,0,1
85970,-45.4545454545455,4,2,99,67,0,1
86109,-100,4,2,2,35,0,0
86526,-100,4,2,2,20,0,0
86942,-100,4,2,2,35,0,0
87914,-100,4,2,2,6,0,0

[Colours]
Combo1 : 255,228,40
Combo2 : 81,81,81
Combo3 : 178,178,178
Combo4 : 198,66,66
Combo5 : 169,205,44
Combo6 : 244,154,55
Combo7 : 77,181,242
Combo8 : 190,137,250

[HitObjects]
47,95,13331,38,0,B|134:75|134:75|197:90,1,148.5,4|10,1:2|0:0,0:0:0:0:
237,148,13887,2,0,P|245:185|234:244,1,99,10|8,1:0|0:0,0:0:0:0:
186,302,14304,1,2,0:0:0:0:
230,361,14443,102,0,L|285:356,1,49.5,0|0,1:0|0:0,0:0:0:0:
352,366,14720,2,0,L|390:326,1,49.5,10|8,0:3|0:3,0:0:0:0:
452,241,14998,2,0,P|448:294|464:343,1,99,10|8,1:0|0:0,0:0:0:0:
466,209,15415,1,8,0:0:0:0:
379,257,15554,6,0,P|328:270|277:262,1,99,0|2,1:0|0:0,0:0:0:0:
214,235,15970,1,8,0:0:0:0:
183,167,16109,2,0,L|193:56,1,99,8|8,1:0|0:0,0:0:0:0:
192,68,16665,101,0,1:0:0:0:
255,106,16804,1,2,0:0:0:0:
264,179,16943,1,10,0:3:0:0:
214,235,17082,1,10,0:3:0:0:
140,234,17220,2,0,L|39:212,1,99,10|10,1:0|0:0,0:0:0:0:
0,151,17637,1,10,0:0:0:0:
11,278,17776,6,0,L|107:299,1,99,2|2,1:0|0:0,0:0:0:0:
182,295,18193,1,10,0:0:0:0:
140,234,18332,2,0,P|138:204|144:175,1,49.5,8|0,1:0|0:0,0:0:0:0:
131,111,18609,2,0,P|148:86|171:68,1,49.5,10|0,0:0|0:0,0:0:0:0:
251,1,18887,102,0,P|200:10|154:7,2,66,2|2|2,1:0|0:0|0:0,0:0:0:0:
329,62,19443,2,0,P|380:71|426:68,2,66,10|2|2,1:0|0:0|0:0,0:0:0:0:
251,123,19998,5,2,1:0:0:0:
182,151,20137,1,0,0:0:0:0:
132,206,20276,1,2,0:0:0:0:
124,279,20415,1,8,0:0:0:0:
174,333,20554,1,10,1:0:0:0:
248,322,20693,1,0,0:0:0:0:
277,255,20832,1,10,0:0:0:0:
248,188,20971,1,0,0:0:0:0:
182,151,21110,101,2,1:0:0:0:
153,84,21248,1,0,0:0:0:0:
182,17,21387,1,2,0:3:0:0:
256,4,21526,1,0,0:3:0:0:
305,58,21665,1,10,1:0:0:0:
298,131,21803,1,0,0:0:0:0:
248,188,21942,1,10,0:0:0:0:
241,261,22082,1,10,0:0:0:0:
290,315,22220,102,0,P|364:346|443:310,1,158.4,4|8,1:2|1:0,0:0:0:0:
456,255,22915,1,0,0:0:0:0:
466,188,23054,2,0,P|467:160|464:132,1,39.6,8|0,0:3|0:0,0:0:0:0:
475,81,23332,2,0,P|457:58|437:39,1,39.6,0|0,1:0|0:0,0:0:0:0:
382,45,23609,1,8,0:3:0:0:
412,106,23748,6,0,P|398:130|382:153,1,39.6,8|8,0:3|1:0,0:0:0:0:
364,202,24026,2,0,P|336:207|308:209,1,39.6,0|8,0:0|0:3,0:0:0:0:
259,226,24304,2,0,P|236:208|217:188,1,39.6,0|0,0:0|1:0,0:0:0:0:
188,146,24582,102,0,L|191:81,2,39.6,2|0|2,0:0|0:0|0:0,0:0:0:0:
147,200,24998,1,8,1:0:0:0:
106,145,25137,2,0,L|109:80,2,39.6,2|8|2,0:0|0:3|0:0,0:0:0:0:
64,198,25554,6,0,P|57:225|52:258,1,39.6,0|0,1:0|0:0,0:0:0:0:
94,291,25832,1,8,0:3:0:0:
123,231,25970,2,0,P|133:214|147:200,1,39.6,8|8,0:3|1:0,0:0:0:0:
202,162,26248,2,0,P|219:152|237:146,1,39.6,0|8,0:0|0:3,0:0:0:0:
304,140,26526,1,0,0:0:0:0:
274,200,26665,102,0,P|267:247|281:298,1,79.2,2|8,1:2|0:3,0:0:0:0:
300,338,27082,2,0,L|356:341,1,39.6,10|8,0:3|1:0,0:0:0:0:
375,283,27359,2,0,L|374:231,2,39.6,2|8|2,0:0|0:3|0:0,0:0:0:0:
407,343,27776,1,0,1:0:0:0:
443,286,27915,2,0,L|442:234,2,39.6,2|8|10,0:0|0:3|0:3,0:0:0:0:
475,346,28332,5,8,1:0:0:0:
339,340,28609,1,10,0:3:0:0:
442,246,28887,101,0,1:2:0:0:
410,186,29026,2,0,L|409:134,2,39.6,2|8|10,0:0|0:3|0:3,0:0:0:0:
374,243,29443,1,8,1:0:0:0:
342,183,29582,2,0,L|341:131,2,39.6,2|8|2,0:0|0:3|0:0,0:0:0:0:
307,240,29998,5,2,1:2:0:0:
272,297,30137,2,0,L|273:349,2,39.6,0|8|8,0:0|0:3|0:3,0:0:0:0:
239,237,30554,1,10,1:0:0:0:
172,234,30693,1,2,0:0:0:0:
137,291,30832,2,0,L|138:343,1,39.6,10|8,0:3|0:3,0:0:0:0:
71,320,31109,102,0,L|72:372,2,39.6,0|2|8,1:0|0:0|0:3,0:0:0:0:
82,253,31526,2,0,L|82:213,1,39.6,10|8,0:3|1:0,0:0:0:0:
69,146,31804,1,0,0:0:0:0:
132,169,31943,6,0,P|159:167|197:156,1,39.6,8|0,0:3|0:0,0:0:0:0:
237,152,32220,2,0,P|259:136|286:108,1,39.6,0|0,1:0|0:0,0:0:0:0:
319,84,32498,1,8,0:3:0:0:
357,139,32637,2,0,P|359:170|355:195,1,39.6,8|8,0:3|1:0,0:0:0:0:
355,244,32915,2,0,P|337:269|319:287,1,39.6,0|8,0:0|0:3,0:0:0:0:
289,325,33193,2,0,P|259:335|234:338,1,39.6,0|0,0:0|1:0,0:0:0:0:
204,289,33470,102,0,L|198:234,2,39.6,2|8|10,0:0|0:3|0:3,0:0:0:0:
186,354,33887,1,8,1:0:0:0:
139,306,34026,2,0,L|133:251,2,39.6,2|8|2,0:0|0:3|0:0,0:0:0:0:
121,371,34443,6,0,P|96:365|69:361,1,39.6,0|0,1:0|0:0,0:0:0:0:
15,372,34720,1,8,0:3:0:0:
2,305,34859,2,0,P|6:280|18:250,1,39.6,8|8,0:3|1:0,0:0:0:0:
26,199,35137,2,0,P|40:178|63:155,1,39.6,0|8,0:0|0:3,0:0:0:0:
92,113,35415,2,0,P|113:99|144:89,1,39.6,0|0,0:0|1:0,0:0:0:0:
181,134,35693,102,0,L|196:179,2,39.6,2|8|10,0:0|0:3|0:3,0:0:0:0:
189,67,36109,1,8,1:0:0:0:
243,106,36248,2,0,L|258:151,2,39.6,2|10|2,0:0|0:3|0:0,0:0:0:0:
251,39,36665,5,0,1:0:0:0:
313,11,36804,1,2,0:0:0:0:
367,50,36943,2,0,L|382:95,1,39.6,10|8,0:3|0:3,0:0:0:0:
421,139,37220,2,0,L|410:219,1,79.2,10|8,1:0|0:3,0:0:0:0:
358,261,37637,1,8,0:3:0:0:
358,261,37776,1,0,0:0:0:0:
358,261,38887,101,8,0:3:0:0:
398,150,39026,1,8,3:1:0:0:
282,171,39165,1,8,3:1:0:0:
416,223,39304,1,8,3:0:0:0:
416,223,39373,1,8,3:0:0:0:
416,223,39443,1,8,3:1:0:0:
294,238,39582,1,8,3:1:0:0:
334,128,39720,1,0,1:0:0:0:
334,128,39998,22,0,P|338:76|329:41,1,74.25,4|0,1:2|3:0,0:0:0:0:
317,22,40276,2,0,L|262:19,1,49.5,2|8,0:3|3:3,0:0:0:0:
193,49,40554,2,0,L|138:46,1,49.5,0|2,1:0|0:3,0:0:0:0:
69,78,40832,2,0,P|60:123|72:167,1,74.25,8|0,3:0|3:0,0:0:0:0:
91,178,41109,86,0,P|127:178|156:185,1,49.5,0|0,1:0|0:0,0:0:0:0:
214,210,41387,1,2,0:3:0:0:
102,244,41526,2,0,P|137:246|166:255,1,49.5,8|0,3:3|1:0,0:0:0:0:
222,284,41804,1,2,0:3:0:0:
82,310,41943,2,0,P|118:308|154:317,1,74.25,8|0,3:0|3:0,0:0:0:0:
181,344,42220,22,0,L|222:377,1,49.5,0|0,1:0|0:0,0:0:0:0:
222,284,42498,2,0,L|274:282,1,49.5,2|8,0:3|3:3,0:0:0:0:
214,210,42776,2,0,L|253:174,1,49.5,0|2,1:0|0:3,0:0:0:0:
160,159,43054,2,0,L|166:106,1,49.5,8|0,3:0|0:0,0:0:0:0:
255,67,43332,86,0,L|232:111,1,49.5,0|2,1:0|0:3,0:0:0:0:
250,176,43609,2,0,L|214:210,1,49.5,2|8,0:3|3:3,0:0:0:0:
208,277,43887,2,0,L|106:320,1,99,0|8,1:0|3:0,0:0:0:0:
48,321,44304,1,8,0:0:0:0:
161,370,44443,22,0,L|239:338,1,74.25,0|0,1:0|3:0,0:0:0:0:
266,328,44720,2,0,P|279:301|282:268,1,49.5,2|8,0:3|3:0,0:0:0:0:
252,207,44998,1,0,1:0:0:0:
188,156,45137,1,2,0:3:0:0:
261,188,45276,2,0,P|296:194|347:175,1,74.25,8|0,3:0|3:0,0:0:0:0:
365,166,45554,86,0,L|364:106,1,49.5,0|2,1:0|0:3,0:0:0:0:
361,38,45832,1,0,0:3:0:0:
294,128,45970,2,0,L|293:68,1,49.5,8|0,3:0|1:0,0:0:0:0:
290,0,46248,1,2,0:3:0:0:
224,114,46387,2,0,L|222:40,1,74.25,8|0,3:0|3:0,0:0:0:0:
205,7,46665,22,0,P|178:6|149:11,1,49.5,0|2,1:0|0:3,0:0:0:0:
74,71,46943,2,0,P|100:66|130:68,1,49.5,8|8,3:0|3:0,0:0:0:0:
224,114,47220,2,0,P|197:116|168:124,1,49.5,0|0,1:0|0:3,0:0:0:0:
79,190,47498,2,0,P|106:189|135:193,1,49.5,8|8,3:3|3:3,0:0:0:0:
304,219,47776,86,0,P|255:217|207:230,1,99,0|8,1:0|3:0,0:0:0:0:
161,301,48193,1,2,0:3:0:0:
31,203,48332,2,0,P|78:190|128:191,1,99,0|8,1:0|0:0,0:0:0:0:
207,230,48748,1,8,0:0:0:0:
272,121,48887,22,0,P|224:113|175:121,1,99,2|2,1:2|3:0,0:0:0:0:
127,190,49304,1,0,0:0:0:0:
80,260,49443,2,0,L|79:316,1,49.5,0|0,1:2|0:0,0:0:0:0:
77,122,49720,86,0,P|124:113|173:120,1,99,2|0,0:2|1:0,0:0:0:0:
223,189,50137,1,0,0:0:0:0:
271,258,50276,2,0,L|272:313,1,49.5,0|0,0:0|0:0,0:0:0:0:
354,330,50554,2,0,L|336:383,1,49.5,0|0,1:0|0:0,0:0:0:0:
223,189,50832,22,0,P|271:180|320:188,1,99,2|0,0:2|1:0,0:0:0:0:
369,256,51248,2,0,L|367:314,2,49.5,0|8|8,0:3|3:3|3:0,0:0:0:0:
333,180,51665,2,0,P|285:167|236:172,1,99,0|8,1:0|3:0,0:0:0:0:
181,235,52082,1,8,3:0:0:0:
223,162,52220,2,0,P|271:153|320:161,1,99,0|8,1:0|3:0,0:0:0:0:
369,229,52637,85,8,3:0:0:0:
333,153,52776,2,0,L|337:101,2,49.5,0|0|2,1:0|0:0|0:0,0:0:0:0:
369,229,53193,1,2,0:0:0:0:
236,145,53332,22,0,P|285:140|333:153,1,99,2|0,1:2|0:0,0:0:0:0:
369,229,53748,1,0,0:0:0:0:
405,305,53887,2,0,L|401:365,1,49.5,0|0,1:0|0:0,0:0:0:0:
428,168,54165,86,0,P|381:151|331:152,1,99,2|0,0:0|1:0,0:0:0:0:
278,217,54581,1,0,0:0:0:0:
224,283,54720,2,0,L|213:342,1,49.5,0|0,0:0|0:0,0:0:0:0:
130,333,54998,2,0,L|139:392,1,49.5,0|0,1:0|0:0,0:0:0:0:
278,217,55276,22,0,P|230:203|181:209,1,99,2|0,0:0|1:0,0:0:0:0:
100,270,55693,1,0,1:0:0:0:
88,168,55832,1,0,1:0:0:0:
6,229,55970,1,0,1:0:0:0:
181,208,56109,86,0,P|186:158|172:111,1,99,12|8,3:1|3:0,0:0:0:0:
78,71,56526,1,8,3:0:0:0:
181,208,56665,1,8,3:1:0:0:
199,38,56804,1,8,1:0:0:0:
88,168,56943,1,8,1:0:0:0:
257,146,57082,22,0,P|317:153|367:174,1,99,0|0,1:0|1:0,0:0:0:0:
428,216,57498,1,0,1:0:0:0:
428,216,57776,37,4,1:2:0:0:
340,127,57914,2,0,P|342:91|352:57,1,72.6000022155762,2|2,3:3|3:0,0:0:0:0:
400,156,58192,1,2,1:3:0:0:
275,144,58331,2,0,P|253:115|239:82,1,72.6000022155762,2|2,3:0|1:3,0:0:0:0:
340,127,58609,5,10,3:1:0:0:
236,198,58748,2,0,P|200:189|169:174,1,72.6000022155762,2|2,3:0|3:0,0:0:0:0:
275,144,59026,1,2,3:0:0:0:
240,265,59165,2,0,P|207:281|173:289,1,72.6000022155762,10|8,3:0|3:0,0:0:0:0:
23,245,59442,6,0,B|84:230|87:155|87:155|124:199|111:244|111:244|80:290|100:354|155:362,1,363.000011077881,2|0,1:2|1:0,0:0:0:0:
349,290,60276,2,0,B|308:269|260:290|260:290|215:313|171:289,1,184.799994360352,10|2,3:1|3:2,0:0:0:0:
106,215,60692,37,10,3:0:0:0:
128,119,60831,1,10,3:0:0:0:
218,79,60970,1,10,3:0:0:0:
303,128,61109,5,2,1:3:0:0:
128,119,61248,2,0,P|96:85|77:35,1,72.6000022155762,2|2,3:0|3:0,0:0:0:0:
218,79,61526,1,2,1:3:0:0:
107,215,61665,2,0,P|60:220|9:206,1,72.6000022155762,2|2,3:0|1:3,0:0:0:0:
128,119,61942,5,10,3:1:0:0:
173,289,62081,2,0,P|150:329|108:363,1,72.6000022155762,2|2,3:0|3:0,0:0:0:0:
107,215,62359,1,2,3:0:0:0:
270,278,62498,2,0,P|289:320|292:373,1,72.6000022155762,2|8,3:0|3:0,0:0:0:0:
108,365,62776,6,0,B|161:331|174:288|174:288|189:320|212:329|212:329|171:278|193:214|256:176|312:213,1,363.000011077881,2|0,1:0|1:0,0:0:0:0:
406,382,63609,2,0,B|368:383|348:343|348:343|336:312|311:272|270:277,1,184.799994360352,10|10,3:1|3:0,0:0:0:0:
175,310,64026,5,10,3:0:0:0:
108,237,64164,1,10,3:0:0:0:
137,144,64303,1,10,3:0:0:0:
40,309,64442,6,0,P|106:333|174:310,1,145.200004431152,4|2,1:2|3:0,0:0:0:0:
202,216,64859,1,0,1:0:0:0:
229,122,64998,2,0,L|239:38,1,72.6000022155762,2|0,3:0|1:0,0:0:0:0:
325,160,65276,38,0,P|273:209|203:215,1,145.200004431152,10|2,3:1|3:0,0:0:0:0:
137,144,65693,1,2,3:0:0:0:
166,52,65831,1,2,3:0:0:0:
260,29,65970,1,2,3:0:0:0:
73,29,66109,6,0,P|81:99|137:144,1,145.200004431152,2|2,1:3|3:0,0:0:0:0:
229,122,66526,1,0,1:0:0:0:
323,100,66664,2,0,L|394:65,1,72.6000022155762,2|0,3:0|1:0,0:0:0:0:
341,198,66942,6,0,P|271:179|229:121,1,145.200004431152,8|2,3:1|3:0,0:0:0:0:
260,29,67359,1,2,3:0:0:0:
354,6,67498,1,2,3:0:0:0:
420,75,67637,1,2,3:0:0:0:
341,197,67776,6,0,P|313:269|351:342,1,145.200004431152,2|2,1:3|3:0,0:0:0:0:
423,381,68192,1,0,1:0:0:0:
275,365,68331,2,0,P|252:321|243:267,1,72.6000022155762,2|0,3:0|1:0,0:0:0:0:
282,154,68609,6,0,P|255:196|243:249,1,72.6000022155762,10|0,3:1|3:0,0:0:0:0:
198,381,68887,2,0,P|175:336|166:282,1,72.6000022155762,2|8,3:1|3:0,0:0:0:0:
209,128,69164,2,0,P|182:169|168:222,1,72.6000022155762,10|8,3:0|3:0,0:0:0:0:
103,369,69442,6,0,P|88:320|90:222,1,145.200004431152,0|0,1:2|3:0,0:0:0:0:
115,123,69859,2,0,P|144:81|224:24,1,145.200004431152,0|0,1:0|1:0,0:0:0:0:
249,165,70276,37,8,3:1:0:0:
115,123,70414,1,8,3:1:0:0:
248,92,70553,1,0,1:0:0:0:
222,233,70692,1,0,1:0:0:0:
180,152,70831,1,0,1:0:0:0:
248,92,70970,1,0,1:0:0:0:
170,285,71109,5,4,1:2:0:0:
249,165,71248,2,0,P|280:177|316:201,1,72.6000022155762,2|2,3:0|3:0,0:0:0:0:
222,233,71526,1,2,1:3:0:0:
248,92,71665,2,0,P|281:90|323:98,1,72.6000022155762,2|2,3:0|1:3,0:0:0:0:
249,165,71942,5,10,3:1:0:0:
219,26,72081,2,0,P|249:12|291:2,1,72.6000022155762,2|2,3:0|3:0,0:0:0:0:
463,41,72359,2,0,P|431:32|387:29,1,72.6000022155762,2|8,3:0|3:0,0:0:0:0:
320,97,72637,1,8,3:0:0:0:
249,165,72776,6,0,B|217:215|248:260|248:260|282:303|283:356|232:380|176:374|165:312|183:277|225:242,1,363.000011077881,0|0,1:0|1:0,0:0:0:0:
488,209,73609,2,0,B|445:187|399:209|399:209|353:236|311:213,1,184.799994360352,10|2,3:1|3:0,0:0:0:0:
232,153,74026,5,8,3:0:0:0:
236,54,74164,1,8,3:0:0:0:
319,0,74303,1,8,3:0:0:0:
410,37,74442,5,2,1:3:0:0:
236,54,74581,2,0,P|201:34|175:4,1,72.6000022155762,2|2,3:0|3:0,0:0:0:0:
319,0,74859,1,2,1:3:0:0:
232,153,74998,2,0,P|195:170|156:174,1,72.6000022155762,2|2,3:0|1:3,0:0:0:0:
236,54,75276,37,10,3:1:0:0:
311,213,75415,2,0,P|304:252|284:287,1,72.6000022155762,2|2,3:0|3:0,0:0:0:0:
232,153,75692,1,2,3:0:0:0:
405,182,75831,2,0,P|433:210|450:246,1,72.6000022155762,10|8,3:0|3:0,0:0:0:0:
326,372,76109,6,0,B|412:326|508:341|508:341|464:317|464:317|420:321|401:308|386:294|366:271|368:237,1,363.000011077881,2|0,1:2|1:0,0:0:0:0:
443,57,76942,2,0,B|462:156|462:156|447:239,1,184.799994360352,10|2,3:1|3:0,0:0:0:0:
431,362,77359,1,8,3:1:0:0:
369,254,77498,1,8,3:0:0:0:
484,307,77637,1,0,1:0:0:0:
360,332,77776,6,0,L|276:323,1,72.6000022155762,4|2,1:2|3:0,0:0:0:0:
300,221,78053,2,0,L|229:268,1,72.6000022155762,2|2,3:0|1:3,0:0:0:0:
182,174,78331,2,0,L|158:255,1,72.6000022155762,2|2,3:0|1:3,0:0:0:0:
358,310,78609,6,0,L|273:312,1,72.6000022155762,8|2,3:1|3:0,0:0:0:0:
283,208,78887,2,0,L|220:264,1,72.6000022155762,2|8,3:0|3:0,0:0:0:0:
159,178,79164,2,0,L|147:261,1,72.6000022155762,10|8,3:0|3:0,0:0:0:0:
283,209,79442,6,0,P|303:137|273:60,1,145.200004431152,2|2,1:3|3:0,0:0:0:0:
196,26,79859,2,0,L|121:33,2,72.6000022155762,0|2|0,1:0|3:0|1:0,0:0:0:0:
341,33,80276,2,0,P|372:100|369:179,1,145.200004431152,10|2,3:1|3:0,0:0:0:0:
283,209,80692,5,8,3:0:0:0:
248,300,80831,1,10,3:0:0:0:
302,380,80970,1,10,3:0:0:0:
248,300,81109,38,0,L|172:311,1,72.6000022155762,2|2,1:3|3:0,0:0:0:0:
134,214,81387,2,0,L|99:282,1,72.6000022155762,2|2,3:0|1:3,0:0:0:0:
106,377,81664,1,2,3:0:0:0:
106,377,81803,1,2,1:3:0:0:
233,277,81942,38,0,L|160:301,1,72.6000022155762,10|2,3:1|3:0,0:0:0:0:
105,212,82220,2,0,L|82:285,1,72.6000022155762,2|8,3:0|3:0,0:0:0:0:
106,377,82497,1,10,3:0:0:0:
106,377,82636,1,8,3:0:0:0:
234,277,82776,6,0,B|250:231|250:231|238:129,1,145.200004431152,2|10,1:3|3:0,0:0:0:0:
155,87,83192,2,0,L|82:81,2,72.6000022155762,0|10|8,1:0|3:0|3:0,0:0:0:0:
176,222,83609,5,8,3:1:0:0:
49,173,83748,1,8,3:0:0:0:
177,152,83887,1,8,3:0:0:0:
131,273,84026,1,0,1:0:0:0:
114,161,84164,1,0,1:0:0:0:
176,222,84303,1,0,1:0:0:0:
70,240,84442,38,0,P|63:286|140:342,1,145.200004431152,2|2,1:3|3:0,0:0:0:0:
228,318,84859,2,0,L|242:246,2,72.6000022155762,0|2|0,1:0|3:0|1:0,0:0:0:0:
345,368,85276,6,0,B|325:296|325:296|339:203,1,145.200004431152,10|2,3:1|3:0,0:0:0:0:
410,161,85692,1,0,1:0:0:0:
417,63,85831,1,2,1:3:0:0:
335,10,85970,1,2,3:0:0:0:
245,46,86109,6,0,P|173:73|47:81,1,198,4|2,1:2|0:0,0:0:0:0:
5,25,87498,1,0,0:0:0:0:
5,25,87776,1,0,0:0:0:0:
256,192,87914,12,0,89998,3:0:0:0:
