osu file format v14

[General]
AudioFilename: audio.mp3
AudioLeadIn: 0
PreviewTime: 57683
Countdown: 0
SampleSet: Soft
StackLeniency: 0.3
Mode: 0
LetterboxInBreaks: 0
WidescreenStoryboard: 0

[Editor]
Bookmarks: 37776,38887,39998,43332,44443,47776,48887
DistanceSpacing: 1.3
BeatDivisor: 4
GridSize: 32
TimelineZoom: 1.9

[Metadata]
Title:Here [TV-EDIT]
TitleUnicode:Here [TV-EDIT]
Artist:JUNNA
ArtistUnicode:JUNNA
Creator:CrystilonZ
Version:Extra
Source:魔法使いの嫁
Tags:Mahoutsukai no Yome opening Mahoyome Elias Ainsworth Hatori Chise The Ancient Magus' Bride
BeatmapID:1434723
BeatmapSetID:678534

[Difficulty]
HPDrainRate:6.3
CircleSize:5.3
OverallDifficulty:8.2
ApproachRate:9.3
SliderMultiplier:2
SliderTickRate:2

[Events]
//Background and Video events
Video,-100,"op.avi"
0,0,"Mahou.jpg",0,0
//Break Periods
//Storyboard Layer 0 (Background)
//Storyboard Layer 1 (Fail)
//Storyboard Layer 2 (Pass)
//Storyboard Layer 3 (Foreground)
//Storyboard Sound Samples

[TimingPoints]
13332,555.555555555556,4,2,1,70,1,0
13609,-100,4,2,1,40,0,0
13748,-100,4,2,1,70,0,0
22220,-125,4,2,1,47,0,0
37776,-500,4,2,1,35,0,0
38054,-500,4,2,1,9,0,0
38748,-500,4,2,1,35,0,0
38887,-100,4,2,21,50,0,0
39026,-100,4,2,2,50,0,0
39720,-200,4,2,1,50,0,0
39998,-90.9090909090909,4,2,21,55,0,0
42498,-100,4,2,21,55,0,0
42776,-111.111111111111,4,2,21,55,0,0
43054,-125,4,2,21,55,0,0
43332,-142.857142857143,4,2,21,55,0,0
44304,-142.857142857143,4,2,1,55,0,0
44443,-90.9090909090909,4,2,21,55,0,0
46943,-85.4700854700855,4,2,21,55,0,0
47220,-80.6451612903226,4,2,21,55,0,0
47498,-75.7575757575758,4,2,21,55,0,0
47776,-71.4285714285714,4,2,21,55,0,0
48609,-71.4285714285714,4,2,1,55,0,0
48887,-76.9230769230769,4,2,21,55,0,0
49443,-125,4,2,21,55,0,0
49720,-76.9230769230769,4,2,4,55,0,0
49859,-76.9230769230769,4,2,21,55,0,0
50276,-125,4,2,21,55,0,0
50832,-76.9230769230769,4,2,4,55,0,0
50970,-76.9230769230769,4,2,21,55,0,0
52915,-76.9230769230769,4,2,1,55,0,0
53332,-76.9230769230769,4,2,21,55,0,0
53887,-125,4,2,21,55,0,0
54165,-76.9230769230769,4,2,4,55,0,0
54304,-76.9230769230769,4,2,21,55,0,0
54720,-125,4,2,21,55,0,0
55276,-76.9230769230769,4,2,4,60,0,0
55554,-76.9230769230769,4,2,2,60,0,0
56387,-76.9230769230769,4,2,2,60,0,0
56665,-76.9230769230769,4,2,2,60,0,0
57082,-95.2380952380952,4,2,1,60,0,0
57498,-125,4,2,1,60,0,0
57776,833.333333333333,2,2,2,67,1,1
57776,-41.6666666666666,4,2,2,67,0,1
58053,-41.6666666666666,4,2,88,67,0,1
58192,-41.6666666666666,4,2,2,67,0,1
58470,-41.6666666666666,4,2,88,67,0,1
58609,-41.6666666666666,4,2,99,67,0,1
58748,-41.6666666666666,4,2,2,67,0,1
58887,-41.6666666666666,4,2,88,67,0,1
59026,-41.6666666666666,4,2,2,67,0,1
59164,-41.6666666666666,4,2,4,67,0,1
59442,-41.6666666666666,4,2,4,67,0,1
59720,-66.6666666666666,4,2,4,67,0,1
60067,-43.4782608695652,4,2,4,67,0,1
60276,-33.3333333333333,4,2,4,67,0,1
60553,-33.3333333333333,4,2,2,67,0,1
60692,-33.3333333333333,4,2,5,67,0,1
61109,-41.6666666666666,4,2,2,67,0,1
61248,-41.6666666666666,4,2,2,67,0,1
61387,-41.6666666666666,4,2,88,67,0,1
61526,-41.6666666666666,4,2,2,67,0,1
61803,-41.6666666666666,4,2,88,67,0,1
61942,-41.6666666666666,4,2,99,67,0,1
62081,-41.6666666666666,4,2,2,67,0,1
62220,-41.6666666666666,4,2,88,67,0,1
62359,-41.6666666666666,4,2,2,67,0,1
62637,-41.6666666666666,4,2,1,67,0,1
62776,-41.6666666666666,4,2,4,67,0,1
63053,-66.6666666666666,4,2,4,67,0,1
63401,-43.4782608695652,4,2,4,67,0,1
63609,-33.3333333333333,4,2,4,67,0,1
63887,-33.3333333333333,4,2,1,67,0,1
64442,-41.6666666666666,4,2,2,67,0,1
65276,-41.6666666666666,4,2,99,67,0,1
66109,-41.6666666666666,4,2,2,67,0,1
66942,-41.6666666666666,4,2,99,67,0,1
67776,-41.6666666666666,4,2,2,67,0,1
68609,-41.6666666666666,4,2,99,67,0,1
69026,-41.6666666666666,4,2,4,67,0,1
69442,-41.6666666666666,4,2,2,67,0,1
70276,-41.6666666666666,4,2,2,67,0,0
71109,-41.6666666666666,4,2,2,67,0,1
71387,-41.6666666666666,4,2,88,67,0,1
71526,-41.6666666666666,4,2,2,67,0,1
71803,-41.6666666666666,4,2,88,67,0,1
71942,-41.6666666666666,4,2,99,67,0,1
72081,-41.6666666666666,4,2,2,67,0,1
72220,-41.6666666666666,4,2,88,67,0,1
72359,-41.6666666666666,4,2,4,67,0,1
72567,-71.4285714285714,4,2,4,67,0,1
73053,-55.5555555555555,4,2,4,67,0,1
73401,-40,4,2,4,67,0,1
73609,-30.3030303030303,4,2,4,67,0,1
73887,-60.6060606060606,4,2,88,67,0,1
74026,-60.6060606060606,4,2,5,67,0,1
74442,-41.6666666666666,4,2,2,67,0,1
74720,-41.6666666666666,4,2,88,67,0,1
74859,-41.6666666666666,4,2,2,67,0,1
75137,-41.6666666666666,4,2,88,67,0,1
75276,-41.6666666666666,4,2,99,67,0,1
75414,-41.6666666666666,4,2,2,67,0,1
75553,-41.6666666666666,4,2,88,67,0,1
75692,-41.6666666666666,4,2,2,67,0,1
75831,-41.6666666666666,4,2,4,67,0,1
76109,-41.6666666666666,4,2,4,67,0,1
76387,-66.6666666666666,4,2,4,67,0,1
76803,-50,4,2,4,67,0,1
76942,-38.4615384615385,4,2,4,67,0,1
77220,-38.4615384615385,4,2,88,67,0,1
77359,-38.4615384615385,4,2,2,67,0,1
77776,-45.4545454545455,4,2,2,67,0,1
77914,-45.4545454545455,4,2,88,67,0,1
78053,-45.4545454545455,4,2,2,67,0,1
78192,-45.4545454545455,4,2,88,67,0,1
78331,-45.4545454545455,4,2,2,67,0,1
78470,-45.4545454545455,4,2,88,67,0,1
78609,-45.4545454545455,4,2,2,67,0,1
78748,-45.4545454545455,4,2,88,67,0,1
78887,-45.4545454545455,4,2,2,67,0,1
79026,-45.4545454545455,4,2,4,67,0,1
79442,-45.4545454545455,4,2,2,67,0,1
80276,-45.4545454545455,4,2,99,67,0,1
80692,-45.4545454545455,4,2,5,67,0,1
81109,-45.4545454545455,4,2,2,67,0,1
81248,-45.4545454545455,4,2,88,67,0,1
81387,-45.4545454545455,4,2,2,67,0,1
81526,-45.4545454545455,4,2,88,67,0,1
81664,-45.4545454545455,4,2,2,67,0,1
81803,-45.4545454545455,4,2,88,67,0,1
81942,-45.4545454545455,4,2,99,67,0,1
82081,-45.4545454545455,4,2,88,67,0,1
82220,-45.4545454545455,4,2,2,67,0,1
82359,-45.4545454545455,4,2,4,67,0,1
82776,-45.4545454545455,4,2,2,67,0,1
83053,-45.4545454545455,4,2,4,67,0,1
83192,-45.4545454545455,4,2,2,67,0,1
83331,-45.4545454545455,4,2,4,67,0,1
83609,-45.4545454545455,4,2,2,67,0,1
85276,-45.4545454545455,4,2,99,67,0,1
85414,-45.4545454545455,4,2,2,67,0,1
86109,-66.6666666666666,4,2,2,35,0,0
86526,-66.6666666666666,4,2,2,20,0,0
86630,-66.6666666666666,4,2,2,35,0,0
87914,-66.6666666666666,4,2,2,6,0,0

[Colours]
Combo1 : 255,228,40
Combo2 : 81,81,81
Combo3 : 178,178,178
Combo4 : 198,66,66
Combo5 : 169,205,44
Combo6 : 244,154,55
Combo7 : 77,181,242
Combo8 : 190,137,250

[HitObjects]
49,83,13331,38,0,B|85:101|120:88|120:88|162:71|200:90,1,150,4|10,1:2|0:0,0:0:0:0:
160,157,13887,2,0,P|145:209|160:257,1,100,10|8,1:0|0:0,0:0:0:0:
226,285,14304,1,2,0:0:0:0:
271,222,14443,102,0,L|223:206,1,50,0|0,1:0|0:0,0:0:0:0:
281,144,14720,2,0,L|233:128,1,50,10|8,0:3|0:3,0:0:0:0:
204,22,14998,2,0,B|218:41|218:41|290:65,1,100,10|8,1:0|0:0,0:0:0:0:
362,92,15415,1,8,0:0:0:0:
185,127,15554,6,0,B|207:120|207:120|280:143,1,100,0|2,1:0|0:0,0:0:0:0:
351,170,15970,1,8,0:0:0:0:
293,219,16109,2,0,P|293:246|300:282,1,50,8|0,1:0|0:0,0:0:0:0:
349,322,16387,1,8,0:0:0:0:
425,321,16526,1,0,0:0:0:0:
293,219,16665,101,0,1:0:0:0:
280,143,16804,1,2,0:0:0:0:
329,84,16943,1,10,0:3:0:0:
405,83,17082,1,10,0:3:0:0:
454,141,17220,2,0,P|454:166|453:191,1,50,10|0,1:0|0:0,0:0:0:0:
425,321,17498,1,10,0:0:0:0:
380,255,17637,1,10,0:0:0:0:
280,143,17776,6,0,P|223:137|168:148,1,100,2|2,1:0|0:0,0:0:0:0:
123,192,18193,1,10,0:0:0:0:
70,138,18332,2,0,L|77:84,1,50,8|0,1:0|0:0,0:0:0:0:
150,78,18609,2,0,L|143:24,1,50,10|0,0:0|0:0,0:0:0:0:
9,186,18887,102,0,L|0:120,2,66.6666666666667,2|2|2,1:0|0:0|0:0,0:0:0:0:
113,290,19443,1,10,1:0:0:0:
258,310,19628,1,2,0:0:0:0:
385,238,19813,1,2,0:0:0:0:
443,104,19998,5,2,1:0:0:0:
452,212,20137,1,0,0:0:0:0:
365,150,20276,1,2,0:0:0:0:
360,257,20415,1,8,0:0:0:0:
280,181,20554,1,10,1:0:0:0:
263,292,20693,1,0,0:0:0:0:
190,192,20832,1,10,0:0:0:0:
162,316,20970,1,0,0:0:0:0:
99,184,21109,101,2,1:0:0:0:
145,290,21248,1,0,0:0:0:0:
190,192,21387,1,2,0:3:0:0:
251,273,21526,1,0,0:3:0:0:
280,181,21665,1,10,1:0:0:0:
352,237,21804,1,0,0:0:0:0:
365,150,21943,1,10,0:0:0:0:
445,184,22082,1,10,0:0:0:0:
443,104,22220,102,0,P|435:57|425:38,1,40,4|0,1:2|0:0,0:0:0:0:
383,23,22498,1,8,0:3:0:0:
330,65,22637,2,0,P|309:70|285:70,1,40,8|8,0:3|1:0,0:0:0:0:
229,38,22915,1,0,0:0:0:0:
176,82,23054,6,0,L|179:129,1,40,8|0,0:3|0:0,0:0:0:0:
233,164,23332,2,0,L|230:211,1,40,0|0,1:0|0:0,0:0:0:0:
176,246,23609,1,8,0:3:0:0:
240,173,23748,2,0,L|237:220,1,40,8|8,0:3|1:0,0:0:0:0:
183,91,24026,2,0,L|186:138,1,40,0|8,0:0|0:3,0:0:0:0:
114,17,24304,2,0,L|123:63,1,40,0|0,0:0|1:0,0:0:0:0:
183,91,24582,101,2,0:0:0:0:
253,93,24720,1,8,0:3:0:0:
316,63,24859,2,0,L|320:23,1,40,10|8,0:3|1:0,0:0:0:0:
190,100,25137,1,2,0:0:0:0:
260,102,25275,1,8,0:3:0:0:
323,72,25415,1,2,0:0:0:0:
263,150,25554,6,0,L|267:110,1,40,0|0,1:0|0:0,0:0:0:0:
316,63,25832,1,8,0:3:0:0:
270,159,25970,2,0,L|274:119,1,40,8|8,0:3|1:0,0:0:0:0:
323,72,26248,2,0,L|363:76,1,40,0|8,0:0|0:3,0:0:0:0:
410,125,26526,1,0,0:0:0:0:
317,208,26665,102,0,L|357:212,1,40,2|0,1:2|0:0,0:0:0:0:
404,261,26943,1,8,0:3:0:0:
401,329,27082,2,8,L|374:359,1,40,10|8,0:3|1:0,0:3:0:0:
305,366,27359,1,2,0:0:0:0:
252,322,27498,1,8,0:3:0:0:
245,253,27637,2,0,L|272:223,1,40,2|0,0:0|1:0,0:0:0:0:
309,356,27915,5,2,0:0:0:0:
256,312,28054,1,8,0:3:0:0:
249,243,28193,2,0,L|276:213,1,40,10|8,0:3|1:0,0:0:0:0:
278,145,28470,1,0,0:0:0:0:
231,96,28609,2,0,L|191:92,1,40,10|0,0:3|0:0,0:0:0:0:
44,65,28887,101,0,1:2:0:0:
98,25,29026,1,2,0:0:0:0:
164,40,29165,1,8,0:3:0:0:
195,101,29304,2,0,L|191:141,1,40,10|8,0:3|1:0,0:0:0:0:
102,34,29582,1,2,0:0:0:0:
168,49,29721,1,8,0:3:0:0:
199,110,29859,1,2,0:0:0:0:
253,70,29998,5,2,1:2:0:0:
319,85,30137,1,0,0:0:0:0:
349,145,30276,1,8,0:3:0:0:
322,207,30415,1,8,0:3:0:0:
388,222,30554,101,10,1:0:0:0:
418,282,30693,1,2,0:0:0:0:
391,344,30832,2,0,L|349:365,1,40,10|8,0:3|0:3,0:0:0:0:
230,325,31109,5,0,1:0:0:0:
298,323,31248,1,2,0:0:0:0:
343,272,31387,1,8,0:3:0:0:
322,207,31526,2,0,L|296:173,1,40,10|8,0:3|1:0,0:0:0:0:
240,136,31804,1,0,0:0:0:0:
287,87,31943,102,0,L|332:92,1,40,8|0,0:3|0:0,0:0:0:0:
380,136,32220,2,0,L|424:129,1,40,0|0,1:0|0:0,0:0:0:0:
471,84,32498,1,8,0:3:0:0:
386,144,32637,2,0,L|430:137,1,40,8|8,0:3|1:0,0:0:0:0:
293,95,32915,2,0,L|338:100,1,40,0|8,0:0|0:3,0:0:0:0:
215,23,33193,2,0,L|257:39,1,40,0|0,0:0|1:0,0:0:0:0:
293,95,33470,5,2,0:0:0:0:
290,164,33609,1,8,0:3:0:0:
245,216,33748,2,0,L|207:228,1,40,10|8,0:3|1:0,0:0:0:0:
301,101,34026,1,2,0:0:0:0:
298,170,34165,1,8,0:3:0:0:
253,222,34304,1,2,0:0:0:0:
346,180,34443,102,0,L|306:175,1,40,0|0,1:0|0:0,0:0:0:0:
245,216,34720,1,8,0:3:0:0:
354,186,34859,2,0,L|314:181,1,40,8|8,0:3|1:0,0:0:0:0:
430,155,35137,2,0,L|397:131,1,40,0|8,0:0|0:3,0:0:0:0:
511,166,35415,2,0,L|495:129,1,40,0|0,0:0|1:0,0:0:0:0:
445,82,35693,5,2,0:0:0:0:
377,65,35832,1,8,0:3:0:0:
309,84,35970,2,0,L|299:130,1,40,10|8,0:3|1:0,0:0:0:0:
437,76,36248,1,2,0:0:0:0:
369,59,36387,1,10,0:3:0:0:
301,78,36526,2,0,L|292:117,1,40,2|0,0:0|1:0,0:0:0:0:
249,171,36804,101,2,0:0:0:0:
186,200,36943,1,10,0:3:0:0:
115,193,37082,1,8,0:3:0:0:
57,152,37220,1,10,1:0:0:0:
51,222,37359,1,0,0:0:0:0:
79,276,37498,1,8,0:3:0:0:
121,305,37637,1,8,0:3:0:0:
148,310,37776,6,0,L|224:307,1,75,0|0,0:0|3:0,0:0:0:0:
222,307,38887,101,8,0:3:0:0:
99,362,39026,1,8,3:1:0:0:
112,227,39165,1,8,3:1:0:0:
168,353,39304,1,8,3:0:0:0:
170,363,39373,1,8,3:0:0:0:
172,373,39443,1,8,3:1:0:0:
64,292,39582,1,8,3:1:0:0:
188,237,39720,2,0,L|234:239,1,37.5,0|0,1:0|3:0,0:0:0:0:
179,241,39998,22,0,P|181:184|173:140,1,82.5000025177003,4|0,1:2|3:0,0:0:0:0:
159,131,40276,2,0,L|100:132,1,55.0000016784668,2|8,0:3|3:3,0:0:0:0:
285,108,40554,2,0,L|234:138,1,55.0000016784668,0|2,1:0|0:3,0:0:0:0:
382,25,40832,2,0,P|365:71|362:109,1,82.5000025177003,8|0,3:0|3:0,0:0:0:0:
371,136,41109,86,0,L|430:135,1,55.0000016784668,0|0,1:0|0:0,0:0:0:0:
492,180,41387,1,2,0:3:0:0:
245,159,41526,2,0,L|296:129,1,55.0000016784668,8|0,3:3|1:0,0:0:0:0:
371,136,41804,1,2,0:3:0:0:
148,242,41943,2,0,P|165:196|168:158,1,82.5000025177003,8|0,3:0|3:0,0:0:0:0:
161,130,42220,22,0,P|121:122|92:124,1,55.0000016784668,0|0,1:0|0:0,0:0:0:0:
36,60,42498,2,0,P|13:93|3:119,1,50,2|8,0:3|3:3,0:0:0:0:
0,197,42776,2,0,P|22:231|41:246,1,44.999998626709,0|2,1:0|0:3,0:0:0:0:
108,248,43054,2,0,P|148:241|161:234,1,40,8|0,3:0|0:0,0:0:0:0:
207,207,43332,86,0,P|227:171|230:163,1,34.9999989318848,0|2,1:0|0:3,0:0:0:0:
252,112,43609,2,0,P|259:88|266:64,1,34.9999989318848,2|8,0:3|3:3,0:0:0:0:
297,17,43887,2,0,P|327:4|376:8,1,69.9999978637696,0|8,1:0|3:0,0:0:0:0:
409,24,44304,1,8,0:0:0:0:
452,91,44443,22,0,P|457:137|452:191,1,82.5000025177003,0|0,1:0|3:0,0:0:0:0:
435,199,44720,2,0,P|403:204|372:201,1,55.0000016784668,2|8,0:3|3:0,0:0:0:0:
309,176,44998,1,0,1:0:0:0:
270,110,45137,1,2,0:3:0:0:
322,251,45276,2,0,P|311:300|284:339,1,82.5000025177003,8|0,3:0|3:0,0:0:0:0:
266,345,45554,86,0,L|209:339,1,55.0000016784668,0|2,1:0|0:3,0:0:0:0:
161,267,45832,1,0,0:0:0:0:
395,330,45970,2,0,L|349:364,1,55.0000016784668,8|0,3:0|1:0,0:0:0:0:
266,345,46248,1,2,0:3:0:0:
480,232,46387,2,0,P|470:264|469:321,1,82.5000025177003,8|0,3:0|3:0,0:0:0:0:
481,344,46665,22,0,P|513:347|545:343,1,55.0000016784668,0|2,1:0|0:3,0:0:0:0:
347,295,46943,2,0,P|368:315|394:329,1,58.5000002231598,8|8,3:0|3:0,0:0:0:0:
256,174,47220,2,0,P|264:203|282:229,1,61.9999975402833,0|0,1:0|0:3,0:0:0:0:
237,6,47498,2,0,P|229:38|231:71,1,65.999999798584,8|8,3:3|3:3,0:0:0:0:
129,259,47776,86,0,P|187:220|233:168,1,139.999995727539,0|8,1:0|3:0,0:0:0:0:
231,71,48193,1,2,0:3:0:0:
353,347,48332,2,0,P|291:313|241:265,1,139.999995727539,0|8,1:0|0:0,0:0:0:0:
234,168,48748,1,8,0:0:0:0:
80,354,48887,22,0,P|144:352|203:327,1,129.999994049073,2|2,1:2|3:0,0:0:0:0:
242,265,49304,1,0,0:0:0:0:
242,194,49443,2,0,L|236:140,1,40,0|0,1:2|0:0,0:0:0:0:
404,354,49720,86,0,P|339:352|280:327,1,129.999994049073,2|0,0:2|1:0,0:0:0:0:
242,265,50137,1,0,0:0:0:0:
242,194,50276,2,0,L|248:140,1,40
242,83,50554,2,0,L|236:29,1,40,0|0,1:0|0:0,0:0:0:0:
404,354,50832,22,0,P|339:352|280:327,1,129.999994049073,2|0,0:2|1:0,0:0:0:0:
242,265,51249,1,0,0:3:0:0:
242,194,51387,1,8,3:3:0:0:
274,129,51526,1,8,3:0:0:0:
330,85,51665,2,0,L|398:77,1,64.9999970245363,0|0,1:0|0:0,0:0:0:0:
380,222,51943,1,8,3:0:0:0:
313,192,52082,1,8,3:0:0:0:
242,194,52220,2,0,L|185:232,1,64.9999970245363,0|0,1:0|0:0,0:0:0:0:
292,331,52498,85,8,3:0:0:0:
324,266,52637,1,8,3:0:0:0:
380,222,52776,1,0,1:0:0:0:
452,215,52915,1,0,0:0:0:0:
506,262,53054,1,2,0:0:0:0:
489,332,53193,1,2,0:0:0:0:
380,222,53332,22,0,P|322:177|268:168,1,129.999994049073,2|0,1:2|0:0,0:0:0:0:
200,196,53748,1,0,0:0:0:0:
157,252,53887,2,0,L|132:293,1,40,0|0,1:0|0:0,0:0:0:0:
128,28,54165,86,0,P|186:72|209:122,1,129.999994049073,2|0,0:0|1:0,0:0:0:0:
200,196,54581,1,0,0:0:0:0:
157,252,54720,2,0,L|123:286,1,40
82,334,54998,2,0,L|57:375,1,40,0|0,1:0|0:0,0:0:0:0:
128,28,55276,22,0,P|186:72|209:122,1,129.999994049073,2|0,0:0|1:0,0:0:0:0:
157,252,55693,1,0,1:0:0:0:
273,144,55832,1,0,1:0:0:0:
117,119,55970,1,0,1:0:0:0:
254,235,56109,86,0,P|323:213|362:174,1,129.999994049073,12|8,3:1|3:0,0:0:0:0:
314,39,56526,1,8,3:0:0:0:
454,155,56665,1,8,3:1:0:0:
273,144,56803,1,8,1:0:0:0:
426,47,56943,1,8,1:0:0:0:
360,216,57082,22,0,P|350:277|366:334,1,104.999996795654,0|0,1:0|1:0,0:0:0:0:
234,337,57498,2,0,P|264:334|294:340,1,60,0|0,1:0|3:0,0:0:0:0:
220,343,57776,5,4,1:2:0:0:
167,90,57914,2,0,L|150:178,1,79.9999975585938,2|2,3:3|3:0,0:0:0:0:
138,273,58192,1,2,1:3:0:0:
321,92,58331,2,0,L|238:126,1,79.9999975585938,2|2,3:0|1:3,0:0:0:0:
152,168,58610,5,10,3:1:0:0:
404,223,58748,2,0,L|330:172,1,79.9999975585938,2|2,3:0|3:0,0:0:0:0:
248,122,59027,1,2,3:0:0:0:
339,364,59164,2,0,L|341:274,1,79.9999975585938,10|8,3:0|3:0,0:0:0:0:
424,29,59442,6,0,B|393:56|393:56|356:60|331:49|305:29,1,119.999996337891,2|0,1:2|3:0,0:0:0:0:
253,66,59720,2,0,B|265:90|292:103|292:103|285:129|293:157,1,100.000003814697,2|0,3:2|3:0,0:0:0:0:
363,203,60067,2,0,P|367:166|358:128,1,76.6666681289673,2|0,3:2|3:0,0:0:0:0:
248,202,60276,2,0,B|268:218|292:218|292:218|297:243|319:261|319:261|334:283|331:312|328:344|286:361,1,200.000007629395,10|2,3:1|3:2,0:0:0:0:
207,367,60692,5,10,3:0:0:0:
263,300,60831,1,10,3:0:0:0:
169,264,60970,1,10,3:0:0:0:
248,202,61109,5,2,1:3:0:0:
44,44,61248,2,0,P|60:85|92:120,1,79.9999975585938,2|2,3:0|3:0,0:0:0:0:
282,133,61526,1,2,1:3:0:0:
27,169,61665,2,0,P|67:185|115:187,1,79.9999975585938,2|2,3:0|1:3,0:0:0:0:
256,59,61942,37,10,3:1:0:0:
106,268,62081,2,0,P|146:250|180:217,1,79.9999975585938,2|2,3:0|3:0,0:0:0:0:
184,26,62359,1,2,3:0:0:0:
231,279,62498,2,0,P|246:237|246:190,1,79.9999975585938,2|8,3:0|3:0,0:0:0:0:
36,8,62776,6,0,B|33:26|39:44|39:44|28:69|25:102|38:137,1,119.999996337891,2|0,1:0|3:0,0:0:0:0:
117,162,63053,2,0,B|106:136|100:103|100:89|100:89|111:79|131:69,1,100.000003814697,2|0,3:2|3:0,0:0:0:0:
191,160,63401,2,0,P|179:201|148:230,1,76.6666681289673,2|0,3:2|3:0,0:0:0:0:
8,191,63609,2,0,B|31:198|51:193|51:193|64:218|87:227|87:227|86:265|126:303|170:290,1,200.000007629395,10|10,3:1|3:0,0:0:0:0:
266,267,64026,5,10,3:0:0:0:
156,225,64164,1,10,3:0:0:0:
265,199,64303,1,10,3:0:0:0:
0,157,64442,6,0,B|36:174|76:157|76:157|117:140|155:156,1,159.999995117188,4|2,1:2|3:0,0:0:0:0:
265,199,64859,1,0,1:0:0:0:
154,121,64998,2,0,P|114:117|67:127,1,79.9999975585938,2|0,3:0|1:0,0:0:0:0:
422,233,65276,6,0,P|343:248|265:232,1,159.999995117188,10|2,3:1|3:0,0:0:0:0:
194,193,65692,1,2,3:0:0:0:
154,121,65831,1,2,3:0:0:0:
149,39,65970,1,2,3:0:0:0:
37,192,66109,6,0,P|115:207|193:193,1,159.999995117188,2|2,1:3|3:0,0:0:0:0:
303,150,66526,1,0,1:0:0:0:
195,229,66664,2,0,P|155:242|117:244,1,79.9999975585938,2|0,3:0|1:0,0:0:0:0:
461,96,66942,38,0,P|382:90|306:114,1,159.999995117188,8|2,3:1|3:0,0:0:0:0:
236,158,67359,1,2,3:0:0:0:
195,229,67498,1,2,3:0:0:0:
191,311,67637,1,2,3:0:0:0:
80,168,67776,6,0,P|157:148|236:158,1,159.999995117188,2|2,1:3|3:0,0:0:0:0:
346,191,68192,1,0,1:0:0:0:
243,94,68331,2,0,P|202:83|164:84,1,79.9999975585938,2|0,3:0|1:0,0:0:0:0:
374,133,68609,6,0,P|413:146|445:167,1,79.9999975585938,10|0,3:1|3:0,0:0:0:0:
224,23,68887,2,0,P|182:17|144:23,1,79.9999975585938,2|8,3:1|3:0,0:0:0:0:
428,83,69164,2,0,P|465:101|494:126,1,79.9999975585938,10|8,3:0|3:0,0:0:0:0:
80,168,69442,6,0,P|157:148|236:158,1,159.999995117188,0|0,1:2|3:0,0:0:0:0:
346,191,69859,2,0,P|417:225|471:284,1,159.999995117188,0|0,1:0|1:0,0:0:0:0:
261,267,70276,5,8,3:1:0:0:
431,115,70414,1,8,3:1:0:0:
372,301,70553,1,0,1:0:0:0:
235,157,70692,1,0,1:0:0:0:
346,191,70831,1,0,1:0:0:0:
261,267,70970,1,0,1:0:0:0:
320,81,71109,5,4,1:2:0:0:
276,346,71248,2,0,L|259:256,1,79.9999975585938,2|2,3:0|3:0,0:0:0:0:
235,157,71526,1,2,1:3:0:0:
447,327,71664,2,0,L|371:300,1,79.9999975585938,2|2,3:0|1:3,0:0:0:0:
262,268,71942,37,10,3:1:0:0:
512,168,72081,2,0,L|450:220,1,79.9999975585938,2|2,3:0|3:0,0:0:0:0:
207,312,72359,2,0,P|195:274|202:235,1,79.9999975585938,2|0,3:2|3:0,0:0:0:0:
286,218,72567,6,0,B|268:239|262:268|262:268|282:256|303:250|326:251|353:262,1,139.999995727539,2|0,3:2|3:0,0:0:0:0:
337,376,73053,2,0,P|285:365|309:319,1,119.999996337891,2|0,3:2|3:0,0:0:0:0:
412,242,73401,2,0,P|409:283|385:317,1,83.3333333333333,2|0,3:2|3:0,0:0:0:0:
206,312,73609,2,0,B|240:274|292:240|343:259|343:259|338:222|360:191,1,220.000002098084,10|2,3:1|3:0,0:0:0:0:
394,115,74026,5,8,3:0:0:0:
350,35,74164,1,8,3:0:0:0:
260,22,74303,1,8,3:0:0:0:
195,85,74442,5,2,1:3:0:0:
385,270,74581,2,0,P|374:227|346:188,1,79.9999975585938,2|2,3:0|3:0,0:0:0:0:
150,156,74859,1,2,1:3:0:0:
415,147,74998,2,0,P|376:125|329:118,1,79.9999975585938,2|2,3:0|1:3,0:0:0:0:
170,235,75276,5,10,3:1:0:0:
348,38,75414,2,0,P|305:50|268:79,1,79.9999975585938,2|2,3:0|3:0,0:0:0:0:
239,276,75692,1,2,3:0:0:0:
221,11,75831,2,0,P|200:49|195:97,1,79.9999975585938,10|8,3:0|3:0,0:0:0:0:
285,341,76109,6,0,B|311:298|309:257|309:257|290:226,1,119.999996337891,2|0,1:2|3:0,0:0:0:0:
202,267,76387,2,0,B|218:275|239:277|239:277|223:323|189:351,1,125.000004768372,2|0,3:2|3:0,0:0:0:0:
132,269,76803,2,0,P|136:247|140:232,1,33.3333333333333,2|0,3:2|3:0,0:0:0:0:
276,128,76942,2,0,B|269:158|261:169|261:169|237:185|230:207|230:207|213:199|192:202|192:202|180:182|150:172,1,173.333325398763,10|2,3:1|3:0,0:0:0:0:
62,274,77359,37,8,3:1:0:0:
202,267,77498,1,8,3:0:0:0:
94,181,77637,1,0,1:0:0:0:
134,342,77776,6,0,L|207:348,1,73.3333355712891,4|2,1:2|3:0,0:0:0:0:
261,221,78053,2,0,L|303:280,1,73.3333355712891,2|2,3:0|1:3,0:0:0:0:
435,240,78331,2,0,L|416:310,1,73.3333355712891,2|2,3:0|1:3,0:0:0:0:
145,314,78609,6,0,L|216:330,1,73.3333355712891,8|2,3:1|3:0,0:0:0:0:
287,211,78887,2,0,L|320:276,1,73.3333355712891,2|8,3:0|3:0,0:0:0:0:
457,254,79164,2,0,L|428:321,1,73.3333355712891,10|8,3:0|3:0,0:0:0:0:
217,233,79442,6,0,B|210:206|221:179|221:179|249:128|219:85,1,146.666671142578,2|2,1:3|3:0,0:0:0:0:
95,153,79859,2,0,P|131:146|165:133,1,73.3333355712891,0|2,1:0|3:0,0:0:0:0:
191,25,80137,1,0,1:0:0:0:
24,151,80276,6,0,B|22:195|72:224|72:224|96:241|105:268,1,146.666671142578,10|2,3:1|3:0,0:0:0:0:
91,371,80692,1,8,3:0:0:0:
169,289,80831,1,10,3:0:0:0:
37,284,80970,1,10,3:0:0:0:
223,376,81109,6,0,L|234:301,1,73.3333355712891,2|2,1:3|3:0,0:0:0:0:
348,248,81387,2,0,L|288:200,1,73.3333355712891,2|2,3:0|1:3,0:0:0:0:
299,75,81664,1,2,3:0:0:0:
230,102,81803,1,2,1:3:0:0:
250,360,81942,38,0,L|249:284,1,73.3333355712891,10|2,3:1|3:0,0:0:0:0:
353,214,82220,2,0,L|286:176,1,73.3333355712891,2|8,3:0|3:0,0:0:0:0:
277,50,82497,1,10,3:0:0:0:
214,88,82636,1,8,3:0:0:0:
345,284,82776,6,0,P|411:258|411:178,1,146.666671142578,2|10,1:3|3:0,0:0:0:0:
362,143,83192,1,0,1:0:0:0:
353,71,83330,1,10,3:0:0:0:
408,22,83470,1,8,3:0:0:0:
353,214,83609,5,8,3:1:0:0:
214,88,83748,1,8,3:0:0:0:
362,143,83887,1,8,3:0:0:0:
240,243,84026,1,0,1:0:0:0:
271,130,84164,1,0,1:0:0:0:
353,214,84303,1,0,1:0:0:0:
215,177,84442,6,0,B|179:170|141:196|141:196|104:224|46:208,1,146.666671142578,2|2,1:3|3:0,0:0:0:0:
77,74,84859,2,0,P|88:108|86:144,1,73.3333355712891,0|2,1:0|3:0,0:0:0:0:
13,243,85137,1,0,1:0:0:0:
47,12,85276,6,0,B|69:-5|113:10|113:10|157:23|189:7,1,146.666671142578,10|2,3:1|3:0,0:0:0:0:
298,18,85692,1,0,1:0:0:0:
234,107,85831,2,0,P|228:144|234:192,1,73.3333355712891,2|0,1:3|3:0,0:0:0:0:
371,279,86109,6,0,B|390:268|399:226|381:200|350:186|317:188|292:225|292:225|276:244|262:259|218:264|194:251|178:234,1,300.000011444092,4|2,1:2|0:0,0:0:0:0:
137,171,87498,1,0,0:0:0:0:
137,171,87776,1,0,0:0:0:0:
256,192,87914,12,0,89998,3:0:0:0:
