osu file format v14

[General]
AudioFilename: audio.mp3
AudioLeadIn: 0
PreviewTime: -1
Countdown: 0
SampleSet: None
StackLeniency: 0.7
Mode: 0
LetterboxInBreaks: 0
WidescreenStoryboard: 0

[Editor]
DistanceSpacing: 0.7
BeatDivisor: 4
GridSize: 32
TimelineZoom: 1

[Metadata]
Title:Billie Eilish
TitleUnicode:Billie Eilish
Artist:JUMEX
ArtistUnicode:JUMEX
Creator:Charifabe
Version:Easy
Source:YOUTUBE
Tags:JUMEX BILLIE EILISH RAP LOL
BeatmapID:2204144
BeatmapSetID:1054879

[Difficulty]
HPDrainRate:5
CircleSize:5
OverallDifficulty:5
ApproachRate:5
SliderMultiplier:1.4
SliderTickRate:1

[Events]
//Background and Video events
//Break Periods
//Storyboard Layer 0 (Background)
//Storyboard Layer 1 (Fail)
//Storyboard Layer 2 (Pass)
//Storyboard Layer 3 (Foreground)
//Storyboard Layer 4 (Overlay)
//Storyboard Sound Samples

[TimingPoints]
18735.4972364699,869.565217391304,4,1,0,100,1,0

[Colours]
Combo1 : 0,255,0
Combo2 : 0,128,64
Combo3 : 0,255,0

[HitObjects]
157,164,39,5,0,0:0:0:0:
141,168,1996,1,0,0:0:0:0:
259,124,2431,1,0,0:0:0:0:
334,189,3300,1,0,0:0:0:0:
247,230,5257,1,0,0:0:0:0:
126,226,6126,1,0,0:0:0:0:
340,144,6778,1,0,0:0:0:0:
368,230,7213,1,0,0:0:0:0:
430,141,8735,1,0,0:0:0:0:
131,141,9170,1,0,0:0:0:0:
259,242,10039,1,0,0:0:0:0:
307,131,10474,1,0,0:0:0:0:
349,226,11126,1,0,0:0:0:0:
197,188,11561,1,0,0:0:0:0:
390,154,12431,1,0,0:0:0:0:
144,268,13300,1,0,0:0:0:0:
306,264,13952,1,0,0:0:0:0:
112,195,14387,1,0,0:0:0:0:
370,195,14605,1,0,0:0:0:0:
142,277,15039,1,0,0:0:0:0:
376,294,15257,1,0,0:0:0:0:
253,93,16344,2,0,L|137:201,1,140
368,77,16996,2,0,L|453:217,1,140
433,308,18083,2,0,P|86:96|54:168,1,665
155,172,22648,2,0,L|163:224,1,35
301,173,23300,2,0,L|305:255,1,70
125,66,24170,2,0,L|297:289,1,280
155,119,26126,1,0,0:0:0:0:
250,222,27648,1,0,0:0:0:0:
354,171,28083,1,0,0:0:0:0:
211,147,28735,1,0,0:0:0:0:
265,222,29170,1,0,0:0:0:0:
338,186,30692,1,0,0:0:0:0:
139,144,31344,1,0,0:0:0:0:
279,99,31996,1,0,0:0:0:0:
254,215,32431,1,0,0:0:0:0:
112,237,32865,1,0,0:0:0:0:
288,243,33518,1,0,0:0:0:0:
274,181,34387,1,0,0:0:0:0:
362,215,34605,1,0,0:0:0:0:
306,204,35039,1,0,0:0:0:0:
258,221,35257,1,0,0:0:0:0:
210,218,35692,1,0,0:0:0:0:
199,182,36126,1,0,0:0:0:0:
319,204,36561,1,0,0:0:0:0:
256,192,39605,12,0,41561,0:0:0:0:
285,175,41561,5,0,0:0:0:0:
352,157,42431,1,0,0:0:0:0:
210,241,43300,1,0,0:0:0:0:
314,194,43952,1,0,0:0:0:0:
171,144,44822,1,0,0:0:0:0:
263,216,45474,1,0,0:0:0:0:
336,169,46344,1,0,0:0:0:0:
126,191,46778,1,0,0:0:0:0:
132,243,47213,1,0,0:0:0:0:
310,248,47648,1,0,0:0:0:0:
319,222,48300,1,0,0:0:0:0:
72,185,50039,2,0,L|244:262,1,175
193,110,51561,2,0,L|313:197,2,140
135,196,54605,2,0,P|316:303|317:304,3,210
359,91,60474,6,0,P|255:171|254:171,2,140
