osu file format v14

[General]
AudioFilename: audio.mp3
AudioLeadIn: 0
PreviewTime: 35558
Countdown: 0
SampleSet: Normal
StackLeniency: 0.7
Mode: 1
LetterboxInBreaks: 0
WidescreenStoryboard: 1

[Editor]
DistanceSpacing: 1
BeatDivisor: 4
GridSize: 32
TimelineZoom: 2

[Metadata]
Title:BALD!
TitleUnicode:BALD!
Artist:JPEGMAFIA
ArtistUnicode:JPEGMAFIA
Creator:closed
Version:Muzukashii
Source:
Tags:english hiphop hip-hop cloud rap trap peggy htbar how to build a relationship horiiizon
BeatmapID:2372069
BeatmapSetID:1134941

[Difficulty]
HPDrainRate:6
CircleSize:5
OverallDifficulty:4.5
ApproachRate:10
SliderMultiplier:1.4
SliderTickRate:1

[Events]
//Background and Video events
0,0,"8QzeUOx.png",0,0
//Break Periods
2,37924,39417
2,56539,58807
//Storyboard Layer 0 (Background)
//Storyboard Layer 1 (Fail)
//Storyboard Layer 2 (Pass)
//Storyboard Layer 3 (Foreground)
//Storyboard Layer 4 (Overlay)
//Storyboard Sound Samples

[TimingPoints]
149,761.904761904762,4,1,0,100,1,0
149,-50.8905852417303,4,1,0,20,0,0
1672,616.966580976864,4,1,0,100,1,8
1672,-62.8930817610063,4,1,0,30,0,8
2905,781.758957654723,4,1,0,100,1,0
2905,-49.6277915632754,4,1,0,40,0,0
3686,598.503740648379,4,1,0,100,1,8
3686,-64.9350649350649,4,1,0,50,0,8
4284,489.795918367347,4,1,0,100,1,8
4284,-79.3650793650794,4,1,0,60,0,8
4773,468.75,4,1,0,100,1,8
4773,-82.7814569536424,4,1,0,70,0,8
5241,433.996383363472,4,1,0,100,1,0
5241,-89.3655049151028,4,1,0,80,0,0
5674,423.280423280423,4,1,0,100,1,8
5674,-91.6254352208173,4,1,0,80,0,8
6097,413.793103448276,4,1,0,100,1,8
6097,-93.7207122774133,4,1,0,80,0,8
6510,396.039603960396,4,1,0,100,1,8
6510,-97.9188331208495,4,1,0,80,0,8
6906,387.797311271975,4,1,0,100,1,0
6906,-100,4,1,0,80,0,0
39868,-100,4,1,0,40,0,0
59258,-100,4,1,0,60,0,0
60034,-100,4,1,0,70,0,0
60809,-100,4,1,0,90,0,0
61585,-100,4,1,0,100,0,0

[HitObjects]
256,192,149,5,8,0:0:0:0:
256,192,1672,1,8,0:0:0:0:
256,192,2905,1,8,0:0:0:0:
256,192,3686,1,8,0:0:0:0:
256,192,4284,1,8,0:0:0:0:
256,192,4773,1,8,0:0:0:0:
256,192,5241,1,8,0:0:0:0:
256,192,5674,1,8,0:0:0:0:
256,192,6097,1,8,0:0:0:0:
256,192,6510,5,8,0:0:0:0:
256,192,6906,1,8,0:0:0:0:
256,192,7292,1,8,0:0:0:0:
256,192,7680,1,8,0:0:0:0:
256,192,8068,1,0,0:0:0:0:
256,192,8456,1,8,0:0:0:0:
256,192,8844,1,8,0:0:0:0:
256,192,9425,1,0,0:0:0:0:
256,192,9522,1,0,0:0:0:0:
256,192,9619,1,0,0:0:0:0:
256,192,9813,1,8,0:0:0:0:
256,192,10007,1,0,0:0:0:0:
256,192,10395,1,8,0:0:0:0:
256,192,10783,1,8,0:0:0:0:
256,192,11170,1,0,0:0:0:0:
256,192,11558,1,8,0:0:0:0:
256,192,11946,1,8,0:0:0:0:
256,192,12140,1,8,0:0:0:0:
256,192,12722,1,0,0:0:0:0:
256,192,13109,1,0,0:0:0:0:
256,192,13303,1,0,0:0:0:0:
256,192,13885,1,8,0:0:0:0:
256,192,14273,1,0,0:0:0:0:
256,192,15048,1,8,0:0:0:0:
256,192,15242,1,8,0:0:0:0:
256,192,15436,1,0,0:0:0:0:
256,192,15630,1,0,0:0:0:0:
256,192,15824,1,8,0:0:0:0:
256,192,16212,1,8,0:0:0:0:
256,192,16599,1,8,0:0:0:0:
256,192,16793,1,8,0:0:0:0:
256,192,16987,1,0,0:0:0:0:
256,192,17375,1,8,0:0:0:0:
256,192,17569,1,8,0:0:0:0:
256,192,17763,1,8,0:0:0:0:
256,192,18151,1,8,0:0:0:0:
256,192,18345,1,8,0:0:0:0:
256,192,18538,1,0,0:0:0:0:
256,192,18732,1,0,0:0:0:0:
256,192,18926,1,8,0:0:0:0:
256,192,19314,1,0,0:0:0:0:
256,192,19702,1,8,0:0:0:0:
256,192,19800,1,8,0:0:0:0:
256,192,20090,1,0,0:0:0:0:
256,192,20477,1,8,0:0:0:0:
256,192,21059,1,0,0:0:0:0:
256,192,21253,1,0,0:0:0:0:
256,192,21641,1,8,0:0:0:0:
256,192,22029,1,8,0:0:0:0:
256,192,22223,1,0,0:0:0:0:
256,192,22416,1,8,0:0:0:0:
256,192,22804,1,0,0:0:0:0:
256,192,22998,1,0,0:0:0:0:
256,192,23192,1,8,0:0:0:0:
256,192,23386,1,8,0:0:0:0:
256,192,23580,1,0,0:0:0:0:
256,192,23774,1,8,0:0:0:0:
256,192,24162,1,8,0:0:0:0:
256,192,24355,1,0,0:0:0:0:
256,192,24549,1,0,0:0:0:0:
256,192,24743,1,8,0:0:0:0:
256,192,24937,1,0,0:0:0:0:
256,192,25131,1,8,0:0:0:0:
256,192,25907,1,8,0:0:0:0:
256,192,26682,1,0,0:0:0:0:
256,192,26876,1,0,0:0:0:0:
256,192,27070,1,8,0:0:0:0:
256,192,27264,1,8,0:0:0:0:
256,192,27458,1,0,0:0:0:0:
256,192,28040,1,0,0:0:0:0:
256,192,28233,1,0,0:0:0:0:
288,96,28427,1,8,0:0:0:0:
256,192,28524,1,8,0:0:0:0:
288,96,28621,1,8,0:0:0:0:
288,96,28815,1,8,0:0:0:0:
256,192,29009,5,0,0:0:0:0:
256,192,29203,1,0,0:0:0:0:
256,192,29591,1,0,0:0:0:0:
256,192,29785,1,8,0:0:0:0:
256,192,29978,1,8,0:0:0:0:
256,192,30172,1,0,0:0:0:0:
256,192,30366,1,0,0:0:0:0:
256,192,30560,1,8,0:0:0:0:
256,192,30754,1,0,0:0:0:0:
256,192,31142,1,0,0:0:0:0:
256,192,31336,1,0,0:0:0:0:
256,192,31530,1,0,0:0:0:0:
256,192,31724,1,8,0:0:0:0:
256,192,32111,1,8,0:0:0:0:
256,192,32693,1,0,0:0:0:0:
256,192,32790,1,0,0:0:0:0:
256,192,32887,1,0,0:0:0:0:
256,192,33081,1,0,0:0:0:0:
256,192,33275,1,8,0:0:0:0:
256,192,33663,1,8,0:0:0:0:
256,192,33856,1,0,0:0:0:0:
256,192,34244,1,0,0:0:0:0:
256,192,34438,1,0,0:0:0:0:
192,96,34632,1,8,0:0:0:0:
192,96,34729,1,8,0:0:0:0:
192,96,34826,1,8,0:0:0:0:
256,192,35214,1,0,0:0:0:0:
256,192,35989,1,4,0:0:0:0:
256,192,39867,5,0,0:0:0:0:
256,192,40643,5,0,0:0:0:0:
256,192,41031,1,8,0:0:0:0:
256,192,41322,1,0,0:0:0:0:
256,192,41419,1,0,0:0:0:0:
256,192,41806,1,0,0:0:0:0:
256,192,42000,1,8,0:0:0:0:
256,192,42194,1,0,0:0:0:0:
256,192,42388,1,0,0:0:0:0:
256,192,42582,1,8,0:0:0:0:
256,192,42873,1,8,0:0:0:0:
256,192,42970,1,8,0:0:0:0:
256,192,43357,1,0,0:0:0:0:
256,192,43551,1,0,0:0:0:0:
256,192,43745,1,8,0:0:0:0:
256,192,43939,1,0,0:0:0:0:
256,192,44133,1,8,0:0:0:0:
256,192,44425,1,0,0:0:0:0:
256,192,44521,1,0,0:0:0:0:
256,192,44715,1,8,0:0:0:0:
256,192,44909,1,0,0:0:0:0:
256,192,45103,1,0,0:0:0:0:
256,192,45296,1,8,0:0:0:0:
256,192,47236,1,0,0:0:0:0:
256,192,47623,1,0,0:0:0:0:
256,192,48011,1,8,0:0:0:0:
256,192,48108,1,8,0:0:0:0:
256,192,48205,1,8,0:0:0:0:
256,192,48399,1,0,0:0:0:0:
256,192,48787,1,0,0:0:0:0:
256,192,49174,1,8,0:0:0:0:
256,192,49562,1,0,0:0:0:0:
256,192,49950,1,8,0:0:0:0:
256,192,50144,1,8,0:0:0:0:
256,192,50726,1,0,0:0:0:0:
256,192,51113,1,0,0:0:0:0:
256,192,51307,1,8,0:0:0:0:
256,192,51501,1,8,0:0:0:0:
256,192,51695,1,8,0:0:0:0:
256,192,51889,1,8,0:0:0:0:
256,192,52277,1,0,0:0:0:0:
256,192,52568,1,0,0:0:0:0:
256,192,52665,1,0,0:0:0:0:
256,192,53052,1,8,0:0:0:0:
256,192,53246,1,0,0:0:0:0:
256,192,53440,1,0,0:0:0:0:
256,192,54022,1,8,0:0:0:0:
256,192,54604,1,0,0:0:0:0:
256,192,59257,5,0,0:0:0:0:
256,192,60033,1,8,0:0:0:0:
256,192,60808,1,8,0:0:0:0:
256,192,61584,1,8,0:0:0:0:
256,192,61778,1,8,0:0:0:0:
256,192,61972,1,0,0:0:0:0:
256,192,62360,1,0,0:0:0:0:
256,192,62553,1,0,0:0:0:0:
256,192,62747,1,8,0:0:0:0:
256,192,63135,1,8,0:0:0:0:
256,192,63329,1,8,0:0:0:0:
256,192,63523,1,0,0:0:0:0:
256,192,63717,1,0,0:0:0:0:
256,192,63911,1,8,0:0:0:0:
256,192,64299,1,8,0:0:0:0:
256,192,64686,1,8,0:0:0:0:
256,192,64880,1,8,0:0:0:0:
256,192,65074,1,0,0:0:0:0:
256,192,65462,1,0,0:0:0:0:
256,192,65656,1,0,0:0:0:0:
256,192,65850,1,8,0:0:0:0:
256,192,66238,1,8,0:0:0:0:
256,192,66334,1,8,0:0:0:0:
256,192,66625,1,0,0:0:0:0:
256,192,67013,1,8,0:0:0:0:
256,192,67207,1,8,0:0:0:0:
256,192,67789,1,8,0:0:0:0:
256,192,67983,1,0,0:0:0:0:
256,192,68177,1,8,0:0:0:0:
256,192,68564,1,0,0:0:0:0:
256,192,68758,1,8,0:0:0:0:
256,192,68855,1,8,0:0:0:0:
256,192,68952,1,8,0:0:0:0:
256,192,69728,1,8,0:0:0:0:
256,192,70116,1,0,0:0:0:0:
256,192,70891,1,8,0:0:0:0:
256,192,71473,1,8,0:0:0:0:
256,192,71667,1,0,0:0:0:0:
256,192,71861,1,8,0:0:0:0:
256,192,72054,1,0,0:0:0:0:
256,192,72151,1,0,0:0:0:0:
256,192,72248,1,0,0:0:0:0:
256,192,72636,1,8,0:0:0:0:
256,192,73024,1,0,0:0:0:0:
256,192,73218,1,0,0:0:0:0:
256,192,73412,1,0,0:0:0:0:
256,192,73606,1,8,0:0:0:0:
256,192,73703,1,8,0:0:0:0:
256,192,73800,1,8,0:0:0:0:
256,192,74187,1,0,0:0:0:0:
224,192,74575,1,0,0:0:0:0:
224,192,74769,1,0,0:0:0:0:
224,192,74963,1,0,0:0:0:0:
224,192,75157,1,8,0:0:0:0:
224,192,75351,1,8,0:0:0:0:
224,192,75545,1,8,0:0:0:0:
224,192,76126,1,0,0:0:0:0:
224,192,76223,1,0,0:0:0:0:
224,192,76320,1,0,0:0:0:0:
224,192,76514,1,8,0:0:0:0:
224,192,76708,1,8,0:0:0:0:
256,192,76902,1,8,0:0:0:0:
256,192,77096,1,0,0:0:0:0:
256,192,77678,1,0,0:0:0:0:
256,192,77775,1,0,0:0:0:0:
256,192,77871,1,0,0:0:0:0:
256,192,78065,1,0,0:0:0:0:
256,192,78259,1,8,0:0:0:0:
256,192,78453,1,0,0:0:0:0:
256,192,78647,1,0,0:0:0:0:
256,192,79229,1,8,0:0:0:0:
256,192,79326,1,8,0:0:0:0:
256,192,79423,1,8,0:0:0:0:
256,192,79617,1,0,0:0:0:0:
256,192,79810,1,0,0:0:0:0:
256,192,80198,1,8,0:0:0:0:
256,192,80780,1,8,0:0:0:0:
256,192,80974,1,0,0:0:0:0:
256,192,81071,1,0,0:0:0:0:
256,192,81168,1,0,0:0:0:0:
256,192,81362,1,0,0:0:0:0:
256,192,81556,1,8,0:0:0:0:
256,192,81749,1,8,0:0:0:0:
256,192,82331,1,8,0:0:0:0:
256,192,82525,1,8,0:0:0:0:
256,192,82719,1,8,0:0:0:0:
256,192,82913,1,0,0:0:0:0:
256,192,83107,1,0,0:0:0:0:
256,192,83301,1,0,0:0:0:0:
256,192,83883,1,0,0:0:0:0:
256,192,84076,1,8,0:0:0:0:
256,192,84270,1,8,0:0:0:0:
256,192,84464,1,0,0:0:0:0:
256,192,84658,1,8,0:0:0:0:
256,192,84852,1,0,0:0:0:0:
256,192,85046,1,0,0:0:0:0:
256,192,85337,1,0,0:0:0:0:
256,192,85434,1,0,0:0:0:0:
256,192,85628,1,0,0:0:0:0:
256,192,85821,1,8,0:0:0:0:
256,192,86015,1,8,0:0:0:0:
256,192,86209,1,8,0:0:0:0:
256,192,86597,1,0,0:0:0:0:
256,192,86791,1,8,0:0:0:0:
256,192,87179,1,0,0:0:0:0:
256,192,87372,1,8,0:0:0:0:
256,192,87566,1,0,0:0:0:0:
256,192,87760,1,0,0:0:0:0:
256,192,87954,1,8,0:0:0:0:
256,192,88342,1,8,0:0:0:0:
256,192,88536,1,8,0:0:0:0:
256,192,88730,1,8,0:0:0:0:
256,192,88827,1,8,0:0:0:0:
256,192,88924,1,8,0:0:0:0:
256,192,89118,1,0,0:0:0:0:
256,192,89311,1,0,0:0:0:0:
256,192,89505,1,8,0:0:0:0:
256,192,89699,1,0,0:0:0:0:
256,192,90281,1,8,0:0:0:0:
256,192,91057,1,0,0:0:0:0:
256,192,91444,1,8,0:0:0:0:
256,192,91638,1,0,0:0:0:0:
256,192,91832,1,8,0:0:0:0:
256,192,92026,1,8,0:0:0:0:
256,192,92220,1,0,0:0:0:0:
256,192,92414,1,0,0:0:0:0:
256,192,92608,1,0,0:0:0:0:
256,192,92996,1,8,0:0:0:0:
256,192,93189,1,8,0:0:0:0:
256,192,93383,1,8,0:0:0:0:
256,192,94159,1,8,0:0:0:0:
256,192,94353,1,0,0:0:0:0:
256,192,94547,1,0,0:0:0:0:
256,192,94741,1,0,0:0:0:0:
256,192,94935,1,8,0:0:0:0:
256,192,95128,1,8,0:0:0:0:
256,192,95322,1,8,0:0:0:0:
256,224,95710,1,8,0:0:0:0:
256,224,96098,1,0,0:0:0:0:
256,224,96292,1,0,0:0:0:0:
256,224,96486,1,8,0:0:0:0:
256,224,97261,1,8,0:0:0:0:
256,224,98813,1,4,0:0:0:0:
