osu file format v14

[General]
AudioFilename: audio.mp3
AudioLeadIn: 0
PreviewTime: 35558
Countdown: 0
SampleSet: Normal
StackLeniency: 0.7
Mode: 1
LetterboxInBreaks: 0
WidescreenStoryboard: 1

[Editor]
DistanceSpacing: 1
BeatDivisor: 4
GridSize: 32
TimelineZoom: 2

[Metadata]
Title:BALD!
TitleUnicode:BALD!
Artist:JPEGMAFIA
ArtistUnicode:JPEGMAFIA
Creator:closed
Version:Futsuu
Source:
Tags:english hiphop hip-hop cloud rap trap peggy htbar how to build a relationship horiiizon
BeatmapID:2376794
BeatmapSetID:1134941

[Difficulty]
HPDrainRate:6.5
CircleSize:5
OverallDifficulty:4
ApproachRate:10
SliderMultiplier:1.4
SliderTickRate:1

[Events]
//Background and Video events
0,0,"8QzeUOx.png",0,0
//Break Periods
2,37924,39418
2,56539,58808
//Storyboard Layer 0 (Background)
//Storyboard Layer 1 (Fail)
//Storyboard Layer 2 (Pass)
//Storyboard Layer 3 (Foreground)
//Storyboard Layer 4 (Overlay)
//Storyboard Sound Samples

[TimingPoints]
149,761.904761904762,4,1,0,100,1,0
149,-50.8905852417303,4,1,0,20,0,0
1672,616.966580976864,4,1,0,100,1,8
1672,-62.8930817610063,4,1,0,30,0,8
2905,781.758957654723,4,1,0,100,1,0
2905,-49.6277915632754,4,1,0,40,0,0
3686,598.503740648379,4,1,0,100,1,8
3686,-64.9350649350649,4,1,0,50,0,8
4284,489.795918367347,4,1,0,100,1,8
4284,-79.3650793650794,4,1,0,60,0,8
4773,468.75,4,1,0,100,1,8
4773,-82.7814569536424,4,1,0,70,0,8
5241,433.996383363472,4,1,0,100,1,0
5241,-89.3655049151028,4,1,0,80,0,0
5674,423.280423280423,4,1,0,100,1,8
5674,-91.6254352208173,4,1,0,80,0,8
6097,413.793103448276,4,1,0,100,1,8
6097,-93.7207122774133,4,1,0,80,0,8
6510,396.039603960396,4,1,0,100,1,8
6510,-97.9188331208495,4,1,0,80,0,8
6906,387.797311271975,4,1,0,100,1,0
6906,-100,4,1,0,80,0,0
39868,-100,4,1,0,40,0,0
59258,-100,4,1,0,60,0,0
60034,-100,4,1,0,70,0,0
60809,-100,4,1,0,90,0,0
61585,-100,4,1,0,100,0,0

[HitObjects]
256,192,149,12,0,6510,0:0:0:0:
256,192,6906,5,8,0:0:0:0:
256,192,7681,5,8,0:0:0:0:
256,192,8069,1,0,0:0:0:0:
256,192,8457,1,8,0:0:0:0:
256,192,8844,1,8,0:0:0:0:
256,192,9426,1,0,0:0:0:0:
256,192,9620,1,0,0:0:0:0:
256,192,9814,1,0,0:0:0:0:
256,192,10008,1,8,0:0:0:0:
256,192,10396,1,8,0:0:0:0:
256,192,10783,1,8,0:0:0:0:
256,192,11171,1,0,0:0:0:0:
256,192,11559,1,8,0:0:0:0:
256,192,11947,1,0,0:0:0:0:
256,192,12722,1,0,0:0:0:0:
256,192,13110,1,0,0:0:0:0:
256,192,13304,1,0,0:0:0:0:
256,192,13886,1,8,0:0:0:0:
256,192,14274,1,0,0:0:0:0:
256,192,15049,1,8,0:0:0:0:
256,192,15243,1,8,0:0:0:0:
256,192,15437,1,0,0:0:0:0:
256,192,15631,1,0,0:0:0:0:
256,192,15825,1,8,0:0:0:0:
256,192,16600,1,8,0:0:0:0:
256,192,16988,1,0,0:0:0:0:
256,192,17376,1,8,0:0:0:0:
256,192,17570,1,8,0:0:0:0:
256,192,17764,1,8,0:0:0:0:
256,192,18152,1,8,0:0:0:0:
256,192,18346,1,8,0:0:0:0:
256,192,18539,1,0,0:0:0:0:
256,192,18733,1,0,0:0:0:0:
256,192,18927,1,8,0:0:0:0:
256,192,19703,1,8,0:0:0:0:
256,192,19897,1,8,0:0:0:0:
256,192,20091,1,0,0:0:0:0:
256,192,20478,1,8,0:0:0:0:
256,192,21060,1,0,0:0:0:0:
256,192,21254,1,0,0:0:0:0:
256,192,22030,1,8,0:0:0:0:
256,192,22223,1,0,0:0:0:0:
256,192,22417,1,8,0:0:0:0:
256,192,22805,1,0,0:0:0:0:
256,192,22999,1,0,0:0:0:0:
256,192,23193,1,8,0:0:0:0:
256,192,24162,1,8,0:0:0:0:
256,192,24356,1,0,0:0:0:0:
256,192,24550,1,0,0:0:0:0:
256,192,24744,1,8,0:0:0:0:
256,192,25908,1,8,0:0:0:0:
256,192,26683,1,0,0:0:0:0:
256,192,26877,1,0,0:0:0:0:
256,192,27071,1,8,0:0:0:0:
256,192,27459,1,0,0:0:0:0:
256,192,28040,1,0,0:0:0:0:
256,192,28234,1,0,0:0:0:0:
288,96,28622,1,8,0:0:0:0:
256,192,28816,1,0,0:0:0:0:
256,192,29592,1,0,0:0:0:0:
256,192,29786,1,8,0:0:0:0:
256,192,30173,1,0,0:0:0:0:
256,192,30367,1,0,0:0:0:0:
256,192,31143,1,0,0:0:0:0:
256,192,31337,1,0,0:0:0:0:
256,192,31531,1,0,0:0:0:0:
256,192,31725,1,8,0:0:0:0:
256,192,32112,1,8,0:0:0:0:
256,192,32694,1,0,0:0:0:0:
256,192,32888,1,0,0:0:0:0:
256,192,33082,1,8,0:0:0:0:
256,192,33276,1,8,0:0:0:0:
256,192,33664,1,8,0:0:0:0:
256,192,33857,1,0,0:0:0:0:
256,192,34245,1,0,0:0:0:0:
256,192,34439,1,0,0:0:0:0:
192,96,34633,1,8,0:0:0:0:
192,96,34827,1,8,0:0:0:0:
256,192,35215,1,0,0:0:0:0:
256,192,35990,1,4,0:0:0:0:
256,192,39868,5,0,0:0:0:0:
256,192,40644,5,0,0:0:0:0:
256,192,41032,1,8,0:0:0:0:
256,192,41419,1,0,0:0:0:0:
256,192,41807,1,8,0:0:0:0:
256,192,42001,1,0,0:0:0:0:
256,192,42195,1,0,0:0:0:0:
256,192,42583,1,8,0:0:0:0:
256,192,42971,1,0,0:0:0:0:
256,192,43358,1,0,0:0:0:0:
256,192,43552,1,8,0:0:0:0:
256,192,43746,1,0,0:0:0:0:
256,192,44134,1,8,0:0:0:0:
256,192,44522,1,0,0:0:0:0:
256,192,44910,1,0,0:0:0:0:
256,192,45104,1,0,0:0:0:0:
256,192,45297,1,8,0:0:0:0:
256,192,47236,1,0,0:0:0:0:
256,192,47624,1,0,0:0:0:0:
256,192,48012,1,8,0:0:0:0:
256,192,48206,1,8,0:0:0:0:
256,192,48400,1,0,0:0:0:0:
256,192,48788,1,0,0:0:0:0:
256,192,49175,1,8,0:0:0:0:
256,192,49563,1,8,0:0:0:0:
256,192,49757,1,8,0:0:0:0:
256,192,49951,1,8,0:0:0:0:
256,192,50727,1,0,0:0:0:0:
256,192,51114,1,8,0:0:0:0:
256,192,51502,1,8,0:0:0:0:
256,192,51696,1,8,0:0:0:0:
256,192,51890,1,8,0:0:0:0:
256,192,52278,1,0,0:0:0:0:
256,192,52666,1,0,0:0:0:0:
256,192,53053,1,8,0:0:0:0:
256,192,53247,1,0,0:0:0:0:
256,192,53441,1,0,0:0:0:0:
256,192,54023,1,8,0:0:0:0:
256,192,54605,1,0,0:0:0:0:
256,192,59258,5,0,0:0:0:0:
256,192,60034,1,8,0:0:0:0:
256,192,60809,1,8,0:0:0:0:
256,192,61585,1,8,0:0:0:0:
256,192,61779,1,8,0:0:0:0:
256,192,61973,1,0,0:0:0:0:
256,192,62361,1,8,0:0:0:0:
256,192,62554,1,8,0:0:0:0:
256,192,62748,1,8,0:0:0:0:
256,192,63136,1,8,0:0:0:0:
256,192,63330,1,8,0:0:0:0:
256,192,63524,1,0,0:0:0:0:
256,192,63912,1,8,0:0:0:0:
256,192,64300,1,8,0:0:0:0:
256,192,64687,1,8,0:0:0:0:
256,192,64881,1,8,0:0:0:0:
256,192,65075,1,0,0:0:0:0:
256,192,65463,1,0,0:0:0:0:
256,192,65657,1,0,0:0:0:0:
256,192,65851,1,8,0:0:0:0:
256,192,66626,1,0,0:0:0:0:
256,192,67014,1,8,0:0:0:0:
256,192,67208,1,8,0:0:0:0:
256,192,67596,1,0,0:0:0:0:
256,192,67790,1,0,0:0:0:0:
256,192,68177,1,8,0:0:0:0:
256,192,68565,1,0,0:0:0:0:
256,192,68759,1,8,0:0:0:0:
256,192,68953,1,8,0:0:0:0:
256,192,69729,1,8,0:0:0:0:
256,192,70116,1,0,0:0:0:0:
256,192,70892,1,8,0:0:0:0:
256,192,71668,1,0,0:0:0:0:
256,192,72055,1,0,0:0:0:0:
256,192,72443,1,8,0:0:0:0:
256,192,72637,1,0,0:0:0:0:
256,192,73219,1,0,0:0:0:0:
256,192,73607,1,8,0:0:0:0:
256,192,73994,1,0,0:0:0:0:
224,192,74188,1,0,0:0:0:0:
224,192,74576,1,0,0:0:0:0:
224,192,74770,1,0,0:0:0:0:
224,192,74964,1,0,0:0:0:0:
224,192,75352,1,8,0:0:0:0:
224,192,75546,1,8,0:0:0:0:
224,192,75740,1,0,0:0:0:0:
224,192,76321,1,0,0:0:0:0:
224,192,76709,1,8,0:0:0:0:
224,192,77097,1,0,0:0:0:0:
256,192,77291,1,0,0:0:0:0:
256,192,77872,1,0,0:0:0:0:
256,192,78066,1,0,0:0:0:0:
256,192,78260,1,8,0:0:0:0:
256,192,78648,1,0,0:0:0:0:
256,192,79424,1,8,0:0:0:0:
256,192,79811,1,0,0:0:0:0:
256,192,80199,1,8,0:0:0:0:
256,192,80393,1,0,0:0:0:0:
256,192,80781,1,0,0:0:0:0:
256,192,80975,1,0,0:0:0:0:
256,192,81363,1,8,0:0:0:0:
256,192,81750,1,8,0:0:0:0:
256,192,81944,1,0,0:0:0:0:
256,192,82526,1,8,0:0:0:0:
256,192,82914,1,0,0:0:0:0:
256,192,83108,1,0,0:0:0:0:
256,192,83495,1,0,0:0:0:0:
256,192,83883,1,8,0:0:0:0:
256,192,84077,1,8,0:0:0:0:
256,192,84465,1,8,0:0:0:0:
256,192,84853,1,0,0:0:0:0:
256,192,85047,1,0,0:0:0:0:
256,192,85628,1,8,0:0:0:0:
256,192,86016,1,8,0:0:0:0:
256,192,86404,1,0,0:0:0:0:
256,192,86598,1,0,0:0:0:0:
256,192,87180,1,8,0:0:0:0:
256,192,87567,1,0,0:0:0:0:
256,192,87761,1,8,0:0:0:0:
256,192,88149,1,0,0:0:0:0:
256,192,88731,1,8,0:0:0:0:
256,192,89119,1,0,0:0:0:0:
256,192,89506,1,8,0:0:0:0:
256,192,89700,1,0,0:0:0:0:
256,192,90282,1,8,0:0:0:0:
256,192,91058,1,0,0:0:0:0:
256,192,91445,1,8,0:0:0:0:
256,192,91639,1,0,0:0:0:0:
256,192,91833,1,8,0:0:0:0:
256,192,92221,1,0,0:0:0:0:
256,192,92609,1,0,0:0:0:0:
256,192,92997,1,8,0:0:0:0:
256,192,93190,1,8,0:0:0:0:
256,192,93384,1,8,0:0:0:0:
256,192,94160,1,8,0:0:0:0:
256,192,94354,1,0,0:0:0:0:
256,192,94548,1,0,0:0:0:0:
256,192,94935,1,8,0:0:0:0:
256,192,95323,1,8,0:0:0:0:
256,224,95711,1,8,0:0:0:0:
256,224,96099,1,0,0:0:0:0:
256,224,96293,1,0,0:0:0:0:
256,224,96487,1,8,0:0:0:0:
256,224,97262,1,8,0:0:0:0:
256,224,98813,1,4,0:0:0:0:
