osu file format v14

[General]
AudioFilename: audio.mp3
AudioLeadIn: 0
PreviewTime: 35558
Countdown: 0
SampleSet: Normal
StackLeniency: 0.7
Mode: 1
LetterboxInBreaks: 0
WidescreenStoryboard: 0

[Editor]
Bookmarks: 74132,82666,83830
DistanceSpacing: 1
BeatDivisor: 12
GridSize: 32
TimelineZoom: 2.4

[Metadata]
Title:BALD!
TitleUnicode:BALD!
Artist:JPEGMAFIA
ArtistUnicode:JPEGMAFIA
Creator:closed
Version:Bald
Source:
Tags:english hiphop hip-hop cloud rap trap peggy htbar how to build a relationship horiiizon
BeatmapID:2370384
BeatmapSetID:1134941

[Difficulty]
HPDrainRate:5
CircleSize:5
OverallDifficulty:5.5
ApproachRate:10
SliderMultiplier:1.4
SliderTickRate:1

[Events]
//Background and Video events
0,0,"8QzeUOx.png",0,0
//Break Periods
2,37924,39030
2,56539,58808
//Storyboard Layer 0 (Background)
//Storyboard Layer 1 (Fail)
//Storyboard Layer 2 (Pass)
//Storyboard Layer 3 (Foreground)
//Storyboard Layer 4 (Overlay)
//Storyboard Sound Samples

[TimingPoints]
149,761.904761904762,4,1,0,100,1,0
149,-200,4,1,0,20,0,0
1672,616.966580976864,4,1,0,100,1,8
1672,-166.666666666667,4,1,0,30,0,8
2905,781.758957654723,4,1,0,100,1,0
2905,-99.009900990099,4,1,0,40,0,0
3686,598.503740648379,4,1,0,100,1,8
3686,-114.942528735632,4,1,0,50,0,8
4284,489.795918367347,4,1,0,100,1,8
4284,-126.582278481013,4,1,0,60,0,8
4773,468.75,4,1,0,100,1,8
4773,-120.481927710843,4,1,0,70,0,8
5241,433.996383363472,4,1,0,100,1,0
5241,-119.047619047619,4,1,0,80,0,0
5674,423.280423280423,4,1,0,100,1,8
5674,-112.359550561798,4,1,0,80,0,8
6097,413.793103448276,4,1,0,100,1,8
6097,-107.52688172043,4,1,0,80,0,8
6510,396.039603960396,4,1,0,100,1,8
6510,-104.166666666667,4,1,0,80,0,8
6906,387.797311271975,4,1,0,100,1,0
6906,-100,4,1,0,80,0,0
39868,-100,4,1,0,40,0,0
59258,-100,4,1,0,60,0,0
60001,-100,4,1,0,70,0,0
60809,-100,4,1,0,90,0,0
61585,-100,4,1,0,100,0,0

[HitObjects]
256,192,149,5,0,0:0:0:0:
256,192,1672,1,8,0:0:0:0:
256,192,2905,1,8,0:0:0:0:
256,192,3686,1,0,0:0:0:0:
256,192,4284,1,8,0:0:0:0:
256,192,4773,1,8,0:0:0:0:
256,192,5241,1,0,0:0:0:0:
256,192,5674,1,8,0:0:0:0:
256,192,6097,5,8,0:0:0:0:
256,192,6510,1,8,0:0:0:0:
256,192,6906,1,0,0:0:0:0:
256,192,7293,5,8,0:0:0:0:
256,192,7681,1,8,0:0:0:0:
256,192,8069,1,0,0:0:0:0:
256,192,8263,1,8,0:0:0:0:
256,192,8457,1,0,0:0:0:0:
256,192,8554,1,8,0:0:0:0:
256,192,8651,1,8,0:0:0:0:
256,192,8844,1,8,0:0:0:0:
256,192,9038,1,8,0:0:0:0:
256,192,9232,1,0,0:0:0:0:
256,192,9426,1,8,0:0:0:0:
256,192,9523,1,0,0:0:0:0:
256,192,9620,1,0,0:0:0:0:
256,192,9717,1,0,0:0:0:0:
256,192,9814,1,8,0:0:0:0:
256,192,9911,1,8,0:0:0:0:
256,192,10008,1,0,0:0:0:0:
256,192,10396,1,8,0:0:0:0:
256,192,10493,1,0,0:0:0:0:
256,192,10590,1,8,0:0:0:0:
256,192,10784,1,8,0:0:0:0:
256,192,11171,1,0,0:0:0:0:
256,192,11559,1,0,0:0:0:0:
256,192,11947,1,8,0:0:0:0:
256,192,12044,1,0,0:0:0:0:
256,192,12141,1,0,0:0:0:0:
256,192,12335,1,8,0:0:0:0:
256,192,12723,1,8,0:0:0:0:
256,192,13110,1,0,0:0:0:0:
256,192,13304,1,0,0:0:0:0:
256,192,13498,1,8,0:0:0:0:
256,192,13886,1,8,0:0:0:0:
256,192,14080,1,8,0:0:0:0:
256,192,14274,1,0,0:0:0:0:
256,192,14468,1,8,0:0:0:0:
256,192,14855,1,0,0:0:0:0:
256,192,15049,1,8,0:0:0:0:
256,192,15146,1,0,0:0:0:0:
256,192,15243,1,0,0:0:0:0:
256,192,15437,1,8,0:0:0:0:
256,192,15631,1,0,0:0:0:0:
256,192,15825,1,8,0:0:0:0:
256,192,16083,1,0,0:0:0:0:
256,192,16213,1,8,0:0:0:0:
256,192,16600,1,8,0:0:0:0:
256,192,16794,1,0,0:0:0:0:
256,192,16988,1,8,0:0:0:0:
256,192,17085,1,0,0:0:0:0:
256,192,17182,1,0,0:0:0:0:
256,192,17376,1,8,0:0:0:0:
256,192,17570,1,8,0:0:0:0:
256,192,17764,1,0,0:0:0:0:
256,192,18152,1,0,0:0:0:0:
256,192,18346,1,0,0:0:0:0:
256,192,18539,1,8,0:0:0:0:
256,192,18733,1,0,0:0:0:0:
256,192,18927,1,8,0:0:0:0:
256,192,19121,1,8,0:0:0:0:
256,192,19218,1,8,0:0:0:0:
256,192,19315,1,0,0:0:0:0:
256,192,19509,1,0,0:0:0:0:
256,192,19703,1,8,0:0:0:0:
256,192,19800,1,0,0:0:0:0:
256,192,19994,1,0,0:0:0:0:
256,192,20091,1,8,0:0:0:0:
256,192,20285,1,0,0:0:0:0:
256,192,20478,1,8,0:0:0:0:
256,192,20575,1,8,0:0:0:0:
256,192,20672,1,0,0:0:0:0:
256,192,21060,1,8,0:0:0:0:
256,192,21254,1,8,0:0:0:0:
256,192,21351,1,0,0:0:0:0:
256,192,21448,1,8,0:0:0:0:
256,192,21642,1,8,0:0:0:0:
256,192,21836,1,0,0:0:0:0:
256,192,21933,1,0,0:0:0:0:
256,192,22030,1,8,0:0:0:0:
256,192,22224,1,8,0:0:0:0:
256,192,22272,1,8,0:3:0:0:
256,192,22320,1,8,0:3:0:0:
256,192,22417,1,0,0:0:0:0:
256,192,22611,1,0,0:0:0:0:
256,192,22805,1,8,0:0:0:0:
256,192,22999,1,0,0:0:0:0:
256,192,23193,1,8,0:0:0:0:
256,192,23290,1,0,0:0:0:0:
256,192,23387,1,8,0:0:0:0:
256,192,23581,1,8,0:0:0:0:
256,192,23775,1,0,0:0:0:0:
256,192,24163,1,0,0:0:0:0:
256,192,24356,1,8,0:0:0:0:
256,192,24453,1,0,0:0:0:0:
256,192,24550,1,0,0:0:0:0:
256,192,24744,1,8,0:0:0:0:
256,192,24938,1,0,0:0:0:0:
256,192,25132,1,8,0:0:0:0:
256,192,25326,1,8,0:0:0:0:
256,192,25520,1,0,0:0:0:0:
256,192,25714,1,0,0:0:0:0:
256,192,25908,1,8,0:0:0:0:
256,192,26295,1,8,0:0:0:0:
256,192,26683,1,0,0:0:0:0:
256,192,26877,1,0,0:0:0:0:
256,192,27071,1,8,0:0:0:0:
256,192,27265,1,0,0:0:0:0:
256,192,27459,1,8,0:0:0:0:
256,192,27653,1,0,0:0:0:0:
256,192,27847,1,8,0:0:0:0:
288,128,28041,1,8,0:0:0:0:
288,128,28234,1,8,0:0:0:0:
288,128,28331,1,0,0:0:0:0:
288,128,28428,1,8,0:0:0:0:
288,128,28525,1,8,0:0:0:0:
288,128,28622,1,0,0:0:0:0:
288,128,28816,1,0,0:0:0:0:
288,128,29010,1,8,0:0:0:0:
288,128,29204,1,0,0:0:0:0:
256,192,29398,1,8,0:0:0:0:
288,128,29592,1,0,0:0:0:0:
288,128,29786,1,0,0:0:0:0:
288,128,29979,1,0,0:0:0:0:
288,128,30173,1,8,0:0:0:0:
288,128,30367,1,0,0:0:0:0:
160,128,30464,1,0,0:0:0:0:
288,128,30561,1,8,0:0:0:0:
160,128,30658,1,8,0:0:0:0:
288,128,30755,1,0,0:0:0:0:
160,128,30949,1,8,0:0:0:0:
288,128,31143,1,0,0:0:0:0:
288,128,31337,1,0,0:0:0:0:
288,128,31531,1,8,0:0:0:0:
288,128,31725,1,8,0:0:0:0:
256,192,31918,1,0,0:0:0:0:
288,128,32015,1,0,0:0:0:0:
288,128,32112,1,8,0:0:0:0:
288,128,32500,1,8,0:0:0:0:
288,128,32694,1,8,0:0:0:0:
288,128,32791,1,0,0:0:0:0:
288,128,32888,1,8,0:0:0:0:
288,128,33082,1,8,0:0:0:0:
288,128,33276,1,8,0:0:0:0:
288,128,33470,1,0,0:0:0:0:
288,128,33664,1,8,0:0:0:0:
288,128,33857,1,0,0:0:0:0:
256,192,34051,1,8,0:0:0:0:
256,192,34245,1,8,0:0:0:0:
256,192,34342,1,0,0:0:0:0:
256,192,34439,1,0,0:0:0:0:
256,192,34536,1,8,0:0:0:0:
256,192,34633,1,8,0:0:0:0:
256,192,34730,1,0,0:0:0:0:
256,192,34827,1,8,0:0:0:0:
256,192,35021,1,8,0:0:0:0:
256,192,35215,1,8,0:0:0:0:
256,192,35409,1,0,0:0:0:0:
256,192,35990,1,4,0:0:0:0:
256,192,39480,5,0,0:0:0:0:
256,192,39674,1,8,0:0:0:0:
256,192,39868,5,0,0:0:0:0:
256,192,40644,5,8,0:0:0:0:
256,192,40838,1,0,0:0:0:0:
256,192,41032,1,8,0:0:0:0:
256,192,41323,1,8,0:0:0:0:
256,192,41420,1,0,0:0:0:0:
192,64,41807,1,8,0:0:0:0:
192,64,42001,1,0,0:0:0:0:
192,64,42195,1,8,0:0:0:0:
192,64,42389,1,8,0:0:0:0:
192,64,42583,1,0,0:0:0:0:
192,64,42874,1,8,0:0:0:0:
192,64,42971,1,0,0:0:0:0:
192,64,43358,1,8,0:0:0:0:
192,64,43552,1,0,0:0:0:0:
192,64,43746,1,8,0:0:0:0:
192,64,43940,1,0,0:0:0:0:
192,64,44134,1,8,0:0:0:0:
192,64,44425,1,0,0:0:0:0:
192,64,44522,1,0,0:0:0:0:
192,64,44910,1,8,0:0:0:0:
192,64,45104,1,0,0:0:0:0:
192,64,45297,1,8,0:0:0:0:
256,192,47236,1,0,0:0:0:0:
256,192,47624,1,8,0:0:0:0:
256,192,47818,1,0,0:0:0:0:
256,192,48012,1,8,0:0:0:0:
256,192,48109,1,0,0:0:0:0:
256,192,48206,1,0,0:0:0:0:
256,192,48400,1,8,0:0:0:0:
160,192,48594,1,0,0:0:0:0:
160,192,48788,1,0,0:0:0:0:
160,192,49175,1,8,0:0:0:0:
160,192,49563,1,0,0:0:0:0:
160,192,49757,1,8,0:0:0:0:
160,192,49854,1,8,0:0:0:0:
160,192,49951,1,0,0:0:0:0:
160,192,50145,1,8,0:0:0:0:
160,192,50727,1,0,0:0:0:0:
256,193,50920,1,8,0:0:0:0:
160,192,51114,1,8,0:0:0:0:
160,192,51211,1,8,0:0:0:0:
160,192,51308,1,0,0:0:0:0:
160,192,51502,1,8,0:0:0:0:
160,192,51696,1,0,0:0:0:0:
160,192,51890,1,8,0:0:0:0:
160,192,52278,1,0,0:0:0:0:
256,192,52569,1,8,0:0:0:0:
256,192,52666,1,0,0:0:0:0:
256,192,53053,1,8,0:0:0:0:
256,192,53247,1,0,0:0:0:0:
256,192,53441,1,0,0:0:0:0:
256,192,53732,1,0,0:0:0:0:
256,192,54023,1,8,0:0:0:0:
256,192,54314,1,0,0:0:0:0:
256,192,54605,1,0,0:0:0:0:
256,192,59258,5,0,0:0:0:0:
256,192,60001,1,0,0:0:0:0:
256,192,60809,1,8,0:0:0:0:
256,192,61584,1,8,0:0:0:0:
256,192,61681,1,0,0:0:0:0:
256,192,61778,1,0,0:0:0:0:
256,192,61972,1,8,0:0:0:0:
256,192,62166,1,0,0:0:0:0:
273,183,62360,1,8,0:0:0:0:
256,192,62409,1,8,0:0:0:0:
269,187,62457,1,8,0:0:0:0:
258,201,62553,1,0,0:0:0:0:
256,192,62747,1,8,0:0:0:0:
256,192,62942,1,0,0:0:0:0:
256,192,63135,1,8,0:0:0:0:
256,192,63329,1,0,0:0:0:0:
256,192,63523,1,8,0:0:0:0:
256,192,63620,1,0,0:0:0:0:
256,192,63717,1,0,0:0:0:0:
256,192,63911,1,8,0:0:0:0:
256,192,64105,1,8,0:0:0:0:
256,192,64299,1,0,0:0:0:0:
256,192,64493,1,0,0:0:0:0:
256,192,64686,1,0,0:0:0:0:
261,193,64783,1,0,0:0:0:0:
256,192,64880,1,0,0:0:0:0:
256,192,65074,1,8,0:0:0:0:
256,192,65268,1,0,0:0:0:0:
256,192,65462,1,8,0:0:0:0:
256,192,65656,1,8,0:0:0:0:
256,192,65753,1,8,0:0:0:0:
256,192,65850,1,0,0:0:0:0:
256,192,66238,1,8,0:0:0:0:
256,192,66334,1,0,0:0:0:0:
256,192,66528,1,0,0:0:0:0:
256,192,66625,1,8,0:0:0:0:
256,192,66819,1,0,0:0:0:0:
256,192,67013,1,8,0:0:0:0:
256,192,67110,1,8,0:0:0:0:
256,192,67207,1,0,0:0:0:0:
256,192,67402,1,8,0:0:0:0:
256,192,67595,1,8,0:0:0:0:
256,192,67789,1,8,0:0:0:0:
256,192,67886,1,0,0:0:0:0:
256,192,67983,1,8,0:0:0:0:
256,192,68177,1,8,0:0:0:0:
256,192,68370,1,0,0:0:0:0:
256,192,68467,1,0,0:0:0:0:
256,192,68564,1,8,0:0:0:0:
256,192,68758,1,8,0:3:0:0:
256,192,68855,1,8,0:3:0:0:
256,192,68952,1,0,0:0:0:0:
256,192,69146,1,0,0:0:0:0:
253,182,69340,1,8,0:0:0:0:
256,192,69534,1,0,0:0:0:0:
260,177,69728,1,8,0:0:0:0:
256,192,69922,1,8,0:0:0:0:
256,192,70116,1,0,0:0:0:0:
256,192,70309,1,8,0:0:0:0:
256,192,70504,1,8,0:0:0:0:
256,192,70697,1,0,0:0:0:0:
241,183,70891,1,8,0:0:0:0:
256,192,71085,1,0,0:0:0:0:
256,192,71279,1,8,0:0:0:0:
256,192,71473,1,0,0:0:0:0:
256,192,71667,1,8,0:0:0:0:
256,192,71861,1,8,0:0:0:0:
256,192,72054,1,0,0:0:0:0:
260,183,72151,1,0,0:0:0:0:
261,185,72248,1,8,0:0:0:0:
266,189,72442,1,8,0:0:0:0:
265,189,72636,1,0,0:0:0:0:
256,192,72831,1,8,0:0:0:0:
250,190,73024,1,8,0:0:0:0:
256,192,73218,1,0,0:0:0:0:
256,192,73412,1,0,0:0:0:0:
256,192,73606,1,8,0:0:0:0:
275,178,73703,1,8,0:0:0:0:
256,192,73800,1,0,0:0:0:0:
258,172,73993,1,0,0:0:0:0:
256,192,74187,1,0,0:0:0:0:
258,172,74381,1,8,0:0:0:0:
288,128,74575,1,8,0:0:0:0:
269,164,74769,1,0,0:0:0:0:
288,128,74963,1,8,0:0:0:0:
288,128,75157,1,0,0:0:0:0:
288,128,75351,1,0,0:0:0:0:
288,128,75545,1,8,0:0:0:0:
288,128,75739,1,0,0:0:0:0:
268,192,75932,1,8,0:0:0:0:
255,176,76126,1,8,0:0:0:0:
255,189,76223,1,8,0:0:0:0:
288,128,76320,1,0,0:0:0:0:
288,128,76514,1,0,0:0:0:0:
210,159,76611,1,0,0:0:0:0:
288,128,76708,1,8,0:0:0:0:
259,163,76805,1,8,0:0:0:0:
288,128,76902,1,0,0:0:0:0:
273,186,77096,1,0,0:0:0:0:
261,196,77290,1,0,0:0:0:0:
160,128,77484,1,8,0:0:0:0:
288,128,77678,1,0,0:0:0:0:
253,200,77775,1,8,0:0:0:0:
288,128,77871,1,0,0:0:0:0:
265,200,77968,1,8,0:0:0:0:
246,182,78065,1,0,0:0:0:0:
253,194,78162,1,0,0:0:0:0:
288,128,78259,1,8,0:0:0:0:
258,183,78356,1,8,0:0:0:0:
251,172,78453,1,0,0:0:0:0:
285,205,78647,1,0,0:0:0:0:
256,203,78841,1,0,0:0:0:0:
288,128,79035,1,8,0:0:0:0:
288,128,79229,1,8,0:0:0:0:
288,128,79326,1,0,0:0:0:0:
288,128,79423,1,8,0:0:0:0:
261,191,79520,1,8,0:0:0:0:
264,192,79617,1,0,0:0:0:0:
288,128,79810,1,0,0:0:0:0:
278,195,79907,1,8,0:0:0:0:
288,128,80004,1,8,0:0:0:0:
288,128,80198,1,8,0:0:0:0:
288,128,80392,1,0,0:0:0:0:
257,199,80587,1,8,0:0:0:0:
256,192,80780,1,8,0:0:0:0:
256,192,80877,1,0,0:0:0:0:
256,192,80974,1,0,0:0:0:0:
250,182,81168,1,8,0:0:0:0:
250,182,81265,1,8,0:0:0:0:
250,182,81362,1,0,0:0:0:0:
236,180,81556,1,0,0:0:0:0:
248,178,81749,1,8,0:0:0:0:
256,192,81943,1,0,0:0:0:0:
264,187,82137,1,8,0:0:0:0:
230,182,82331,1,0,0:0:0:0:
240,186,82525,1,8,0:0:0:0:
239,186,82622,1,0,0:0:0:0:
239,186,82719,1,8,0:0:0:0:
258,196,82913,1,8,0:0:0:0:
228,226,83107,1,0,0:0:0:0:
241,230,83301,1,0,0:0:0:0:
241,230,83495,1,0,0:0:0:0:
256,192,83689,1,8,0:0:0:0:
256,192,83882,5,8,0:0:0:0:
251,197,84076,1,0,0:0:0:0:
256,192,84270,1,8,0:0:0:0:
256,192,84367,1,0,0:0:0:0:
256,192,84464,1,0,0:0:0:0:
256,192,84658,1,8,0:0:0:0:
256,192,84852,1,0,0:0:0:0:
256,192,85046,1,0,0:0:0:0:
256,192,85241,1,8,0:0:0:0:
256,192,85337,1,8,0:0:0:0:
241,192,85434,5,0,0:0:0:0:
256,192,85627,1,8,0:0:0:0:
256,192,85821,1,0,0:0:0:0:
256,192,86015,1,8,0:0:0:0:
256,192,86209,1,0,0:0:0:0:
256,192,86403,1,8,0:0:0:0:
256,192,86597,1,0,0:0:0:0:
246,189,86694,1,0,0:0:0:0:
246,189,86791,1,8,0:0:0:0:
256,192,86985,1,0,0:0:0:0:
256,192,87179,1,8,0:0:0:0:
256,192,87228,1,8,0:0:0:0:
256,192,87276,1,8,0:0:0:0:
256,192,87372,1,0,0:0:0:0:
256,192,87566,1,0,0:0:0:0:
256,192,87663,1,8,0:0:0:0:
256,192,87760,1,0,0:0:0:0:
256,192,87954,1,8,0:0:0:0:
256,192,88148,1,0,0:0:0:0:
251,174,88342,1,8,0:0:0:0:
256,192,88536,1,8,0:0:0:0:
256,192,88730,1,8,0:0:0:0:
256,192,88827,1,8,0:0:0:0:
256,192,88924,1,0,0:0:0:0:
256,192,89118,1,8,0:0:0:0:
256,192,89215,1,8,0:0:0:0:
256,192,89311,1,0,0:0:0:0:
256,192,89408,1,0,0:0:0:0:
256,192,89505,1,8,0:0:0:0:
256,192,89699,1,0,0:0:0:0:
253,177,89893,1,8,0:0:0:0:
256,192,90281,1,8,0:0:0:0:
256,192,90475,1,8,0:0:0:0:
256,192,90572,1,8,0:0:0:0:
256,192,90669,1,0,0:0:0:0:
192,0,90863,1,0,0:0:0:0:
192,0,91057,1,8,0:0:0:0:
192,0,91250,1,0,0:0:0:0:
192,0,91444,1,8,0:0:0:0:
192,0,91638,1,8,0:0:0:0:
192,0,91832,1,0,0:0:0:0:
192,0,92026,1,8,0:0:0:0:
192,0,92220,1,0,0:0:0:0:
192,0,92414,1,0,0:0:0:0:
192,0,92608,1,8,0:0:0:0:
256,192,92706,1,8,0:0:0:0:
192,0,92802,1,0,0:0:0:0:
192,0,92996,1,8,0:0:0:0:
192,0,93189,1,8,0:0:0:0:
192,0,93383,1,8,0:0:0:0:
256,192,93578,1,0,0:0:0:0:
192,0,93772,1,8,0:0:0:0:
256,192,93869,1,0,0:0:0:0:
256,192,93966,1,0,0:0:0:0:
192,0,94159,1,8,0:0:0:0:
192,0,94353,1,0,0:0:0:0:
192,0,94547,1,8,0:0:0:0:
192,0,94741,1,8,0:0:0:0:
192,0,94935,1,8,0:0:0:0:
192,0,95128,1,0,0:0:0:0:
256,192,95225,1,8,0:0:0:0:
192,0,95322,1,0,0:0:0:0:
192,0,95516,1,0,0:0:0:0:
192,0,95710,1,8,0:0:0:0:
192,0,95904,1,0,0:0:0:0:
192,0,96098,1,0,0:0:0:0:
192,0,96292,1,0,0:0:0:0:
192,0,96486,1,8,0:0:0:0:
192,0,96874,1,0,0:0:0:0:
192,0,97261,1,8,0:0:0:0:
256,160,98813,1,4,0:0:0:0:
