osu file format v14

[General]
AudioFilename: audio.mp3
AudioLeadIn: 0
PreviewTime: 50018
Countdown: 0
SampleSet: Normal
StackLeniency: 0.7
Mode: 1
LetterboxInBreaks: 0
WidescreenStoryboard: 0

[Editor]
Bookmarks: 50516,75779,91963,101042,113674
DistanceSpacing: 2.1
BeatDivisor: 4
GridSize: 32
TimelineZoom: 1.4

[Metadata]
Title:1539 N. Calvert
TitleUnicode:1539 N. Calvert
Artist:JPEGMAFIA
ArtistUnicode:JPEGMAFIA
Creator:Kqrth
Version:Oni
Source:
Tags:english hiphop hip-hop cloud rap trap veteran damn peggy
BeatmapID:2293106
BeatmapSetID:1097401

[Difficulty]
HPDrainRate:5
CircleSize:5
OverallDifficulty:5
ApproachRate:5
SliderMultiplier:1.4
SliderTickRate:1

[Events]
//Background and Video events
0,0,"bg.jpeg",0,30
//Break Periods
//Storyboard Layer 0 (Background)
//Storyboard Layer 1 (Fail)
//Storyboard Layer 2 (Pass)
//Storyboard Layer 3 (Foreground)
//Storyboard Layer 4 (Overlay)
//Storyboard Sound Samples

[TimingPoints]
-14,394.736842105263,4,1,0,5,1,0
-14,-200.000000000001,4,1,0,5,0,0
50413,-142.857142857143,4,1,0,60,0,0
75676,-153.846153846154,4,1,0,60,0,0
76268,-157.89473767313,4,1,0,60,0,0
76466,-160,4,1,0,60,0,0
76762,-163.265306122449,4,1,0,60,0,0
77255,-166.666666666667,4,1,0,60,0,0
78242,-166.666666666667,4,1,0,60,0,0
88472,-181.818181818182,4,1,0,40,0,0
91466,-125,4,1,0,60,0,0
92025,-166.666666666667,4,1,0,60,0,0
98374,-173.913043478261,4,1,0,60,0,0
101137,-181.818181818182,4,1,0,50,0,0
110462,-181.818181818182,4,1,0,5,0,0
110610,-285.714285714286,4,1,0,5,0,0
113571,-166.666666666667,4,1,0,60,0,0
125808,-100,4,1,0,100,0,0

[HitObjects]
157,189,50512,5,8,0:0:0:0:
157,189,50709,1,8,0:0:0:0:
157,189,50907,1,0,0:0:0:0:
157,189,51104,1,0,0:0:0:0:
157,189,51301,1,8,0:0:0:0:
157,189,51696,1,8,0:0:0:0:
157,189,51893,1,8,0:0:0:0:
157,189,52091,1,0,0:0:0:0:
157,189,52189,1,0,0:0:0:0:
157,189,52288,1,0,0:0:0:0:
157,189,52683,1,0,0:0:0:0:
157,189,52880,1,8,0:0:0:0:
157,189,53275,1,0,0:0:0:0:
157,189,53472,1,8,0:0:0:0:
157,189,53571,1,8,0:0:0:0:
157,189,53670,1,0,0:0:0:0:
152,183,53867,1,0,0:0:0:0:
152,183,54064,1,0,0:0:0:0:
152,183,54459,1,8,0:0:0:0:
152,183,54854,1,0,0:0:0:0:
152,183,55051,1,8,0:0:0:0:
152,183,55150,1,8,0:0:0:0:
152,183,55249,1,0,0:0:0:0:
152,183,55347,1,0,0:0:0:0:
152,183,55446,1,0,0:0:0:0:
152,183,55841,1,0,0:0:0:0:
152,183,56038,1,8,0:0:0:0:
152,183,56433,1,8,0:0:0:0:
152,183,56630,1,0,0:0:0:0:
152,183,56729,1,0,0:0:0:0:
152,183,56828,1,0,0:0:0:0:
152,183,57025,1,0,0:0:0:0:
152,183,57222,1,8,0:0:0:0:
146,180,57617,1,8,0:0:0:0:
146,180,57814,1,0,0:0:0:0:
146,180,58012,1,8,0:0:0:0:
139,264,58209,1,8,0:0:0:0:
146,180,58407,1,0,0:0:0:0:
146,180,58505,1,0,0:0:0:0:
146,180,58604,1,0,0:0:0:0:
146,180,58999,1,0,0:0:0:0:
146,180,59196,1,8,0:0:0:0:
146,180,59591,1,0,0:0:0:0:
146,180,59788,1,8,0:0:0:0:
146,180,59887,1,8,0:0:0:0:
146,180,59985,1,0,0:0:0:0:
239,280,60380,1,0,0:0:0:0:
187,229,60578,1,0,0:0:0:0:
187,229,60775,1,8,0:0:0:0:
187,229,60972,1,0,0:0:0:0:
187,229,61170,1,8,0:0:0:0:
187,229,61367,1,8,0:0:0:0:
187,229,61466,1,8,0:0:0:0:
187,229,61564,1,0,0:0:0:0:
187,229,61663,1,0,0:0:0:0:
187,229,61762,1,0,0:0:0:0:
144,298,61959,1,8,0:0:0:0:
187,229,62354,1,0,0:0:0:0:
187,229,62453,1,0,0:0:0:0:
187,229,62551,1,0,0:0:0:0:
187,229,62749,1,8,0:0:0:0:
187,229,63143,1,0,0:0:0:0:
187,229,63341,1,8,0:0:0:0:
187,229,63538,1,0,0:0:0:0:
187,229,63735,1,0,0:0:0:0:
187,229,63933,1,8,0:0:0:0:
187,229,64328,1,8,0:0:0:0:
187,229,64525,1,8,0:0:0:0:
187,229,64722,1,0,0:0:0:0:
187,229,64821,1,0,0:0:0:0:
187,229,64920,1,0,0:0:0:0:
187,229,65117,1,0,0:0:0:0:
187,229,65314,1,0,0:0:0:0:
187,229,65512,1,8,0:0:0:0:
167,213,65907,1,8,0:0:0:0:
227,214,66104,1,8,0:0:0:0:
227,214,66203,1,8,0:0:0:0:
227,214,66301,1,0,0:0:0:0:
227,214,66499,1,0,0:0:0:0:
227,214,66696,1,8,0:0:0:0:
227,214,66893,1,0,0:0:0:0:
227,214,67091,1,8,0:0:0:0:
187,206,67485,1,8,0:0:0:0:
187,206,67683,1,8,0:0:0:0:
187,206,67782,1,8,0:0:0:0:
187,206,67880,1,0,0:0:0:0:
187,206,68078,1,0,0:0:0:0:
187,206,68374,1,0,0:0:0:0:
187,206,68472,1,0,0:0:0:0:
187,206,68670,1,8,0:0:0:0:
187,206,69064,1,8,0:0:0:0:
187,206,69163,1,8,0:0:0:0:
187,206,69262,1,8,0:0:0:0:
177,196,69360,1,0,0:0:0:0:
194,199,69854,1,0,0:0:0:0:
194,199,70051,1,0,0:0:0:0:
194,199,70249,1,8,0:0:0:0:
194,199,70446,1,0,0:0:0:0:
194,199,70643,1,8,0:0:0:0:
194,199,70841,1,8,0:0:0:0:
194,199,71038,1,0,0:0:0:0:
194,199,71137,1,0,0:0:0:0:
194,199,71235,1,0,0:0:0:0:
194,199,71630,1,0,0:0:0:0:
194,199,71828,1,8,0:0:0:0:
194,199,72222,1,0,0:0:0:0:
194,199,72420,1,8,0:0:0:0:
194,199,72518,1,8,0:0:0:0:
194,199,72617,1,0,0:0:0:0:
194,199,73012,1,8,0:0:0:0:
194,199,73209,1,0,0:0:0:0:
194,199,73407,1,8,0:0:0:0:
194,199,73604,1,8,0:0:0:0:
194,199,73703,1,8,0:0:0:0:
194,199,73801,1,0,0:0:0:0:
194,199,73999,1,0,0:0:0:0:
194,199,74097,1,0,0:0:0:0:
194,199,74196,1,8,0:0:0:0:
194,199,74393,1,8,0:0:0:0:
194,199,74591,1,0,0:0:0:0:
194,199,74788,1,0,0:0:0:0:
194,199,74985,1,8,0:0:0:0:
194,199,75380,1,8,0:0:0:0:
194,199,75775,1,0,0:0:0:0:
213,234,75874,1,0,0:0:0:0:
213,234,75972,1,0,0:0:0:0:
213,234,76071,1,0,0:0:0:0:
213,234,76170,1,0,0:0:0:0:
213,234,76367,1,0,0:0:0:0:
233,220,76564,1,0,0:0:0:0:
213,234,76959,1,0,0:0:0:0:
213,234,77354,1,8,0:0:0:0:
213,234,77551,1,0,0:0:0:0:
233,220,78341,1,0,0:0:0:0:
233,220,78538,1,0,0:0:0:0:
233,220,78735,1,0,0:0:0:0:
233,220,78933,1,0,0:0:0:0:
289,268,79032,1,0,0:0:0:0:
289,268,79130,1,0,0:0:0:0:
225,272,79328,1,8,0:0:0:0:
157,286,79525,1,0,0:0:0:0:
157,286,79722,1,8,0:0:0:0:
157,286,79854,1,0,0:0:0:0:
188,209,79985,1,0,0:0:0:0:
188,209,80117,1,8,0:0:0:0:
211,215,80512,1,0,0:0:0:0:
211,215,80610,1,0,0:0:0:0:
211,215,80709,1,0,0:0:0:0:
263,277,80907,1,8,0:0:0:0:
263,277,81104,1,0,0:0:0:0:
263,277,81301,1,8,0:0:0:0:
263,277,81433,1,8,0:0:0:0:
263,277,81564,1,0,0:0:0:0:
263,277,81696,1,8,0:0:0:0:
191,195,81893,1,8,0:0:0:0:
191,195,81992,1,8,0:0:0:0:
191,195,82091,1,0,0:0:0:0:
170,244,82485,1,8,0:0:0:0:
170,244,82683,1,0,0:0:0:0:
170,244,82782,1,8,0:0:0:0:
170,244,82979,1,8,0:0:0:0:
170,244,83176,1,0,0:0:0:0:
170,244,83275,1,8,0:0:0:0:
170,244,83472,1,8,0:0:0:0:
170,244,83571,1,8,0:0:0:0:
170,244,83670,1,0,0:0:0:0:
196,180,84064,1,8,0:0:0:0:
196,180,84262,1,8,0:0:0:0:
196,172,84360,1,8,0:0:0:0:
196,172,84459,1,0,0:0:0:0:
196,172,84558,1,0,0:0:0:0:
196,172,84657,1,8,0:0:0:0:
196,172,84854,1,8,0:0:0:0:
135,191,85051,1,0,0:0:0:0:
135,191,85150,1,0,0:0:0:0:
135,191,85249,1,8,0:0:0:0:
135,191,85643,1,8,0:0:0:0:
135,196,85841,1,0,0:0:0:0:
135,196,86038,1,8,0:0:0:0:
135,196,86170,1,0,0:0:0:0:
135,196,86301,1,0,0:0:0:0:
135,196,86433,1,8,0:0:0:0:
76,187,86630,1,8,0:0:0:0:
76,187,86828,1,0,0:0:0:0:
76,187,87222,1,8,0:0:0:0:
76,187,87420,1,0,0:0:0:0:
76,187,87518,1,8,0:0:0:0:
76,187,87716,1,8,0:0:0:0:
76,187,87913,1,0,0:0:0:0:
76,187,88012,1,8,0:0:0:0:
76,187,88209,1,8,0:0:0:0:
76,187,88308,1,8,0:0:0:0:
76,187,88407,1,0,0:0:0:0:
185,219,88801,1,0,0:0:0:0:
185,219,89196,1,8,0:0:0:0:
185,219,89591,1,0,0:0:0:0:
185,219,89985,1,0,0:0:0:0:
185,219,90183,1,0,0:0:0:0:
185,219,90380,1,8,0:0:0:0:
185,219,90775,1,0,0:0:0:0:
185,219,91170,1,8,0:0:0:0:
299,217,91564,1,0,0:0:0:0:
298,212,91663,1,0,0:0:0:0:
298,212,91762,1,0,0:0:0:0:
298,212,91860,1,0,0:0:0:0:
298,212,91959,1,8,0:0:0:0:
170,260,92354,1,8,0:0:0:0:
170,260,92551,1,0,0:0:0:0:
170,260,92749,1,8,0:0:0:0:
170,260,92946,1,8,0:0:0:0:
170,260,93143,1,0,0:0:0:0:
170,260,93242,1,0,0:0:0:0:
170,260,93341,1,0,0:0:0:0:
170,260,93735,1,0,0:0:0:0:
170,260,93933,1,8,0:0:0:0:
170,260,94328,1,8,0:0:0:0:
170,260,94525,1,8,0:0:0:0:
170,260,94624,1,8,0:0:0:0:
170,260,94722,1,0,0:0:0:0:
160,254,95117,1,0,0:0:0:0:
160,254,95314,1,0,0:0:0:0:
160,254,95512,1,8,0:0:0:0:
160,254,95709,1,8,0:0:0:0:
160,254,95907,1,0,0:0:0:0:
160,254,96104,1,0,0:0:0:0:
160,254,96203,1,8,0:0:0:0:
160,254,96301,1,0,0:0:0:0:
160,254,96499,1,0,0:0:0:0:
160,254,96795,1,0,0:0:0:0:
160,254,96893,1,0,0:0:0:0:
160,254,97091,1,8,0:0:0:0:
231,184,97288,1,0,0:0:0:0:
160,254,97485,1,0,0:0:0:0:
160,254,97584,1,8,0:0:0:0:
160,254,97683,1,8,0:0:0:0:
160,254,97782,1,0,0:0:0:0:
260,244,98472,1,0,0:0:0:0:
260,244,98670,1,8,0:0:0:0:
160,161,99064,1,8,0:0:0:0:
260,244,99262,1,8,0:0:0:0:
260,244,99459,1,0,0:0:0:0:
260,244,99558,1,0,0:0:0:0:
260,244,99657,1,0,0:0:0:0:
260,244,100051,1,0,0:0:0:0:
260,244,100249,1,8,0:0:0:0:
160,161,100643,1,0,0:0:0:0:
260,244,100841,1,8,0:0:0:0:
260,244,100939,1,8,0:0:0:0:
260,244,101038,1,0,0:0:0:0:
260,244,101630,1,0,0:0:0:0:
260,244,101828,1,8,0:0:0:0:
260,244,102222,1,0,0:0:0:0:
260,244,102420,1,8,0:0:0:0:
260,244,102617,1,0,0:0:0:0:
260,244,102814,1,0,0:0:0:0:
260,244,103110,1,0,0:0:0:0:
260,244,103209,1,0,0:0:0:0:
260,244,103407,1,8,0:0:0:0:
260,244,103801,1,0,0:0:0:0:
260,244,103900,1,8,0:0:0:0:
260,244,103999,1,8,0:0:0:0:
260,244,104097,1,0,0:0:0:0:
260,244,104591,1,8,0:0:0:0:
260,244,104788,1,8,0:0:0:0:
191,232,104985,1,0,0:0:0:0:
260,244,105380,1,8,0:0:0:0:
191,232,105775,1,0,0:0:0:0:
191,232,105972,1,0,0:0:0:0:
191,232,106170,1,0,0:0:0:0:
191,232,106466,1,0,0:0:0:0:
191,232,106564,1,0,0:0:0:0:
191,232,106762,1,8,0:0:0:0:
191,232,107157,1,8,0:0:0:0:
191,232,107255,1,8,0:0:0:0:
191,232,107354,1,0,0:0:0:0:
191,232,107749,1,0,0:0:0:0:
191,232,107946,1,0,0:0:0:0:
191,232,108143,1,8,0:0:0:0:
191,232,108538,1,0,0:0:0:0:
191,232,108735,1,8,0:0:0:0:
191,232,108933,1,0,0:0:0:0:
191,232,109130,1,0,0:0:0:0:
191,232,109426,1,0,0:0:0:0:
191,232,109525,1,0,0:0:0:0:
191,232,109722,1,8,0:0:0:0:
191,232,110117,1,0,0:0:0:0:
191,232,110216,1,8,0:0:0:0:
191,232,110314,1,8,0:0:0:0:
191,232,110413,1,0,0:0:0:0:
262,199,113670,1,0,0:0:0:0:
250,255,114064,1,8,0:0:0:0:
250,255,114262,1,0,0:0:0:0:
250,255,114360,1,8,0:0:0:0:
250,255,114558,1,8,0:0:0:0:
250,255,114755,1,0,0:0:0:0:
250,255,114854,1,8,0:0:0:0:
250,255,115051,1,8,0:0:0:0:
250,255,115249,1,0,0:0:0:0:
204,164,115643,1,8,0:0:0:0:
204,164,115841,1,0,0:0:0:0:
204,164,115939,1,0,0:0:0:0:
204,164,116038,1,8,0:0:0:0:
204,164,116137,1,0,0:0:0:0:
204,164,116334,1,0,0:0:0:0:
204,164,116433,1,8,0:0:0:0:
204,164,116630,1,8,0:0:0:0:
223,287,116828,1,0,0:0:0:0:
223,287,116926,1,0,0:0:0:0:
223,287,117025,1,0,0:0:0:0:
66,228,117222,1,8,0:0:0:0:
103,242,117420,1,0,0:0:0:0:
103,242,117518,1,8,0:0:0:0:
103,242,117716,1,0,0:0:0:0:
103,242,117913,1,0,0:0:0:0:
103,242,118012,1,8,0:0:0:0:
103,242,118209,1,8,0:0:0:0:
103,242,118407,1,0,0:0:0:0:
103,242,118801,1,8,0:0:0:0:
103,242,118999,1,0,0:0:0:0:
103,242,119097,1,8,0:0:0:0:
103,242,119295,1,8,0:0:0:0:
103,242,119393,1,0,0:0:0:0:
103,242,119591,1,8,0:0:0:0:
103,242,119788,1,0,0:0:0:0:
103,242,119985,1,0,0:0:0:0:
103,242,120380,1,8,0:0:0:0:
240,196,120479,1,0,0:0:0:0:
240,196,120676,1,8,0:0:0:0:
240,196,120874,1,8,0:0:0:0:
233,187,120972,1,0,0:0:0:0:
233,187,121170,1,8,0:0:0:0:
233,187,121367,1,8,0:0:0:0:
233,187,121564,1,0,0:0:0:0:
233,187,121959,1,0,0:0:0:0:
233,187,122157,1,8,0:0:0:0:
233,187,122255,1,8,0:0:0:0:
233,187,122354,1,0,0:0:0:0:
233,187,122551,1,0,0:0:0:0:
233,187,122749,1,8,0:0:0:0:
233,187,122946,1,8,0:0:0:0:
233,187,123045,1,8,0:0:0:0:
233,187,123143,1,0,0:0:0:0:
233,187,123538,1,0,0:0:0:0:
233,187,123735,1,0,0:0:0:0:
233,187,123834,1,0,0:0:0:0:
233,187,123933,1,8,0:0:0:0:
233,187,124130,1,0,0:0:0:0:
233,187,124328,1,8,0:0:0:0:
233,187,124525,1,8,0:0:0:0:
233,187,124624,1,8,0:0:0:0:
233,187,124722,1,0,0:0:0:0:
233,187,125117,1,8,0:0:0:0:
233,187,125314,1,0,0:0:0:0:
233,187,125413,1,8,0:0:0:0:
233,187,125610,1,8,0:0:0:0:
233,187,125709,1,0,0:0:0:0:
233,187,125907,1,12,0:0:0:0:
