osu file format v14

[General]
AudioFilename: audio.mp3
AudioLeadIn: 0
PreviewTime: 50018
Countdown: 0
SampleSet: Normal
StackLeniency: 0.7
Mode: 1
LetterboxInBreaks: 0
WidescreenStoryboard: 0

[Editor]
Bookmarks: 50516,75779,91963,101042,113674
DistanceSpacing: 2.1
BeatDivisor: 4
GridSize: 32
TimelineZoom: 1.399999

[Metadata]
Title:1539 N. Calvert
TitleUnicode:1539 N. Calvert
Artist:JPEGMAFIA
ArtistUnicode:JPEGMAFIA
Creator:Kqrth
Version:Muzukashii
Source:
Tags:english hiphop hip-hop cloud rap trap veteran damn peggy
BeatmapID:2293105
BeatmapSetID:1097401

[Difficulty]
HPDrainRate:6
CircleSize:5
OverallDifficulty:4.5
ApproachRate:5
SliderMultiplier:1.4
SliderTickRate:1

[Events]
//Background and Video events
0,0,"bg.jpeg",0,30
//Break Periods
//Storyboard Layer 0 (Background)
//Storyboard Layer 1 (Fail)
//Storyboard Layer 2 (Pass)
//Storyboard Layer 3 (Foreground)
//Storyboard Layer 4 (Overlay)
//Storyboard Sound Samples

[TimingPoints]
-14,394.736842105263,4,1,0,5,1,0
-14,-200.000000000001,4,1,0,5,0,0
50413,-125,4,1,0,60,0,0
75676,-133.333333333333,4,1,0,60,0,0
78242,-142.857142857143,4,1,0,60,0,0
88472,-166.666666666667,4,1,0,40,0,0
91466,-99.9999999999999,4,1,0,60,0,0
92025,-142.857142857143,4,1,0,60,0,0
98374,-148.148148148148,4,1,0,60,0,0
101137,-153.846153846154,4,1,0,50,0,0
110462,-153.846153846154,4,1,0,5,0,0
110610,-200,4,1,0,5,0,0
113571,-142.857142857143,4,1,0,60,0,0
125808,-142.857142857143,4,1,0,100,0,0

[HitObjects]
194,248,50512,5,8,0:0:0:0:
194,248,50907,1,0,0:0:0:0:
194,248,51104,1,0,0:0:0:0:
194,248,51301,1,8,0:0:0:0:
194,248,51696,1,8,0:0:0:0:
194,248,51893,1,8,0:0:0:0:
194,248,52091,1,0,0:0:0:0:
194,248,52189,1,0,0:0:0:0:
194,248,52288,1,0,0:0:0:0:
189,178,52683,1,0,0:0:0:0:
194,248,52880,1,8,0:0:0:0:
189,178,53275,1,8,0:0:0:0:
189,178,53472,1,8,0:0:0:0:
189,178,53670,1,0,0:0:0:0:
189,178,54064,1,0,0:0:0:0:
189,178,54459,1,8,0:0:0:0:
147,265,55051,1,0,0:0:0:0:
147,265,55249,1,0,0:0:0:0:
147,265,55347,1,0,0:0:0:0:
147,265,55446,1,0,0:0:0:0:
267,252,55841,1,0,0:0:0:0:
267,252,56038,1,8,0:0:0:0:
267,252,56433,1,8,0:0:0:0:
267,252,56630,1,8,0:0:0:0:
180,188,56828,1,0,0:0:0:0:
180,188,57222,1,8,0:0:0:0:
180,188,57617,1,0,0:0:0:0:
180,188,57814,1,8,0:0:0:0:
180,188,58012,1,0,0:0:0:0:
180,188,58407,1,0,0:0:0:0:
180,188,58505,1,0,0:0:0:0:
180,188,58604,1,0,0:0:0:0:
180,188,58999,1,0,0:0:0:0:
180,188,59196,1,8,0:0:0:0:
180,188,59591,1,8,0:0:0:0:
180,188,59788,1,8,0:0:0:0:
180,188,59985,1,0,0:0:0:0:
180,188,60380,1,0,0:0:0:0:
180,188,60578,1,0,0:0:0:0:
180,188,60775,1,8,0:0:0:0:
180,188,60972,1,8,0:0:0:0:
180,188,61170,1,0,0:0:0:0:
180,188,61564,1,0,0:0:0:0:
180,188,61663,1,0,0:0:0:0:
180,188,61762,1,0,0:0:0:0:
180,188,61959,1,8,0:0:0:0:
242,252,62354,1,0,0:0:0:0:
242,252,62749,1,8,0:0:0:0:
242,252,62946,1,8,0:0:0:0:
242,252,63143,1,0,0:0:0:0:
242,252,63538,1,0,0:0:0:0:
242,252,63735,1,0,0:0:0:0:
242,252,63933,1,8,0:0:0:0:
242,252,64328,1,8,0:0:0:0:
242,252,64722,1,0,0:0:0:0:
242,252,64821,1,0,0:0:0:0:
242,252,64920,1,0,0:0:0:0:
242,252,65117,1,0,0:0:0:0:
242,252,65314,1,0,0:0:0:0:
242,252,65512,1,8,0:0:0:0:
242,252,65907,1,8,0:0:0:0:
242,252,66104,1,8,0:0:0:0:
242,252,66301,1,0,0:0:0:0:
242,252,66499,1,0,0:0:0:0:
242,252,66893,1,0,0:0:0:0:
242,252,67091,1,8,0:0:0:0:
173,239,67485,1,0,0:0:0:0:
173,239,67683,1,8,0:0:0:0:
173,239,67880,1,0,0:0:0:0:
148,247,68078,1,0,0:0:0:0:
148,247,68374,1,0,0:0:0:0:
148,247,68472,1,0,0:0:0:0:
148,247,68670,1,8,0:0:0:0:
148,247,69064,1,8,0:0:0:0:
148,247,69262,1,8,0:0:0:0:
148,247,69459,1,0,0:0:0:0:
148,247,70051,1,0,0:0:0:0:
148,247,70249,1,8,0:0:0:0:
148,247,70643,1,8,0:0:0:0:
148,247,70841,1,8,0:0:0:0:
148,247,71038,1,0,0:0:0:0:
148,247,71137,1,0,0:0:0:0:
148,247,71235,1,0,0:0:0:0:
148,247,71630,1,0,0:0:0:0:
148,247,71828,1,8,0:0:0:0:
148,247,72222,1,8,0:0:0:0:
148,247,72420,1,8,0:0:0:0:
148,247,72518,1,8,0:0:0:0:
148,247,72617,1,8,0:0:0:0:
148,247,73012,1,0,0:0:0:0:
148,247,73407,1,8,0:0:0:0:
148,247,73604,1,0,0:0:0:0:
148,247,73801,1,8,0:0:0:0:
148,247,74196,1,0,0:0:0:0:
148,247,74393,1,0,0:0:0:0:
148,247,74591,1,8,0:0:0:0:
148,247,74788,1,0,0:0:0:0:
148,247,74985,1,8,0:0:0:0:
148,247,75380,1,8,0:0:0:0:
227,155,75775,1,0,0:0:0:0:
227,155,75874,1,0,0:0:0:0:
227,155,75972,1,0,0:0:0:0:
227,155,76170,1,0,0:0:0:0:
269,234,76367,1,0,0:0:0:0:
269,234,76959,1,0,0:0:0:0:
269,234,77354,1,8,0:0:0:0:
269,234,77551,1,0,0:0:0:0:
269,234,78341,1,0,0:0:0:0:
269,234,78538,1,0,0:0:0:0:
269,234,78735,1,0,0:0:0:0:
269,234,78933,1,0,0:0:0:0:
269,234,79032,1,0,0:0:0:0:
269,234,79130,1,0,0:0:0:0:
269,234,79525,1,0,0:0:0:0:
269,234,79722,1,8,0:0:0:0:
269,234,80117,1,0,0:0:0:0:
269,234,80314,1,0,0:0:0:0:
269,234,80512,1,0,0:0:0:0:
269,234,80610,1,0,0:0:0:0:
269,234,80709,1,0,0:0:0:0:
269,234,81104,1,0,0:0:0:0:
269,234,81301,1,8,0:0:0:0:
269,234,81696,1,8,0:0:0:0:
269,234,81893,1,8,0:0:0:0:
269,234,81992,1,8,0:0:0:0:
269,234,82091,1,8,0:0:0:0:
269,234,82683,1,0,0:0:0:0:
269,234,82880,1,8,0:0:0:0:
269,234,83275,1,8,0:0:0:0:
269,234,83472,1,8,0:0:0:0:
269,234,83571,1,8,0:0:0:0:
269,234,83670,1,8,0:0:0:0:
269,234,83867,1,0,0:0:0:0:
269,234,84262,1,0,0:0:0:0:
269,234,84459,1,8,0:0:0:0:
269,234,84854,1,0,0:0:0:0:
269,234,85051,1,0,0:0:0:0:
269,234,85150,1,0,0:0:0:0:
269,234,85249,1,0,0:0:0:0:
269,234,85841,1,0,0:0:0:0:
269,234,86038,1,8,0:0:0:0:
269,234,86433,1,0,0:0:0:0:
269,234,86630,1,0,0:0:0:0:
269,234,86828,1,0,0:0:0:0:
269,234,86926,1,0,0:0:0:0:
269,234,87025,1,0,0:0:0:0:
269,234,87420,1,0,0:0:0:0:
269,234,87617,1,8,0:0:0:0:
269,234,88012,1,8,0:0:0:0:
269,234,88209,1,8,0:0:0:0:
269,234,88308,1,8,0:0:0:0:
240,272,89196,1,0,0:0:0:0:
240,272,89985,1,0,0:0:0:0:
240,272,90775,1,0,0:0:0:0:
215,202,91564,1,0,0:0:0:0:
230,208,91663,1,0,0:0:0:0:
230,208,91762,1,0,0:0:0:0:
188,232,92354,1,8,0:0:0:0:
188,232,92749,1,8,0:0:0:0:
188,232,92946,1,8,0:0:0:0:
188,232,93143,1,0,0:0:0:0:
188,232,93242,1,0,0:0:0:0:
188,232,93341,1,0,0:0:0:0:
139,150,93538,1,8,0:0:0:0:
239,227,93933,1,0,0:0:0:0:
254,178,94525,1,8,0:0:0:0:
254,178,94624,1,8,0:0:0:0:
254,178,94722,1,8,0:0:0:0:
254,178,95117,1,0,0:0:0:0:
254,178,95314,1,0,0:0:0:0:
254,178,95512,1,8,0:0:0:0:
254,178,95709,1,0,0:0:0:0:
254,178,95907,1,8,0:0:0:0:
254,178,96104,1,8,0:0:0:0:
254,178,96301,1,0,0:0:0:0:
254,178,96499,1,0,0:0:0:0:
219,264,96795,1,0,0:0:0:0:
219,264,96893,1,0,0:0:0:0:
219,264,97091,1,8,0:0:0:0:
219,264,97485,1,8,0:0:0:0:
219,264,97584,1,8,0:0:0:0:
219,264,97683,1,8,0:0:0:0:
219,264,97880,1,0,0:0:0:0:
219,264,98472,1,0,0:0:0:0:
219,264,98670,1,8,0:0:0:0:
219,264,99262,1,8,0:0:0:0:
219,264,99459,1,0,0:0:0:0:
219,264,99558,1,0,0:0:0:0:
219,264,99657,1,0,0:0:0:0:
219,264,100051,1,0,0:0:0:0:
219,264,100249,1,8,0:0:0:0:
219,264,100643,1,0,0:0:0:0:
219,264,100841,1,8,0:0:0:0:
219,264,101038,1,0,0:0:0:0:
128,262,101630,1,0,0:0:0:0:
128,262,101828,1,8,0:0:0:0:
128,262,102222,1,0,0:0:0:0:
236,163,102420,1,8,0:0:0:0:
128,262,102617,1,0,0:0:0:0:
128,262,102814,1,0,0:0:0:0:
128,262,103110,1,0,0:0:0:0:
128,262,103209,1,0,0:0:0:0:
128,262,103407,1,8,0:0:0:0:
128,262,103900,1,8,0:0:0:0:
128,262,103999,1,8,0:0:0:0:
128,262,104196,1,0,0:0:0:0:
236,163,104788,1,8,0:0:0:0:
128,262,104985,1,0,0:0:0:0:
236,163,105578,1,8,0:0:0:0:
128,262,105775,1,0,0:0:0:0:
128,262,105972,1,0,0:0:0:0:
128,262,106170,1,0,0:0:0:0:
128,262,106466,1,0,0:0:0:0:
128,262,106564,1,0,0:0:0:0:
128,262,106762,1,8,0:0:0:0:
128,262,107157,1,8,0:0:0:0:
128,262,107255,1,8,0:0:0:0:
236,163,107749,1,0,0:0:0:0:
128,262,107946,1,0,0:0:0:0:
128,262,108143,1,8,0:0:0:0:
128,262,108538,1,0,0:0:0:0:
236,163,108735,1,8,0:0:0:0:
128,262,108933,1,0,0:0:0:0:
128,262,109130,1,0,0:0:0:0:
128,262,109426,1,0,0:0:0:0:
128,262,109525,1,0,0:0:0:0:
128,262,109722,1,8,0:0:0:0:
128,262,110117,1,8,0:0:0:0:
128,262,110216,1,8,0:0:0:0:
128,262,110314,1,8,0:0:0:0:
222,224,113670,1,0,0:0:0:0:
157,260,114064,1,8,0:0:0:0:
157,260,114262,1,0,0:0:0:0:
157,260,114360,1,0,0:0:0:0:
157,260,114657,1,0,0:0:0:0:
157,260,114854,1,8,0:0:0:0:
157,260,115249,1,0,0:0:0:0:
157,260,115643,1,8,0:0:0:0:
157,260,115841,1,8,0:0:0:0:
157,260,115939,1,8,0:0:0:0:
157,260,116235,1,0,0:0:0:0:
157,260,116433,1,8,0:0:0:0:
157,260,116630,1,0,0:0:0:0:
157,260,116729,1,0,0:0:0:0:
157,260,116828,1,0,0:0:0:0:
188,182,117222,1,0,0:0:0:0:
188,182,117518,1,0,0:0:0:0:
188,182,117716,1,0,0:0:0:0:
188,182,117913,1,8,0:0:0:0:
188,182,118012,1,8,0:0:0:0:
188,182,118407,1,0,0:0:0:0:
188,182,118801,1,8,0:0:0:0:
188,182,119097,1,8,0:0:0:0:
188,182,119295,1,8,0:0:0:0:
188,182,119393,1,8,0:0:0:0:
188,182,119591,1,0,0:0:0:0:
123,226,120380,1,8,0:0:0:0:
123,226,120676,1,0,0:0:0:0:
123,226,120874,1,0,0:0:0:0:
123,226,120972,1,0,0:0:0:0:
123,226,121170,1,8,0:0:0:0:
123,226,121564,1,0,0:0:0:0:
123,226,121959,1,8,0:0:0:0:
123,226,122157,1,8,0:0:0:0:
123,226,122255,1,8,0:0:0:0:
123,226,122551,1,0,0:0:0:0:
123,226,122749,1,8,0:0:0:0:
123,226,123143,1,0,0:0:0:0:
222,264,123538,1,0,0:0:0:0:
222,264,123735,1,8,0:0:0:0:
222,264,123834,1,8,0:0:0:0:
222,264,124130,1,0,0:0:0:0:
222,264,124328,1,8,0:0:0:0:
222,264,124722,1,0,0:0:0:0:
222,264,125117,1,8,0:0:0:0:
222,264,125413,1,8,0:0:0:0:
222,264,125610,1,0,0:0:0:0:
222,264,125709,1,0,0:0:0:0:
222,264,125907,1,12,0:0:0:0:
