osu file format v14

[General]
AudioFilename: audio.mp3
AudioLeadIn: 0
PreviewTime: 50018
Countdown: 0
SampleSet: Normal
StackLeniency: 0.7
Mode: 1
LetterboxInBreaks: 0
WidescreenStoryboard: 0

[Editor]
Bookmarks: 50516,75779,91963,101042,113674
DistanceSpacing: 2.1
BeatDivisor: 2
GridSize: 32
TimelineZoom: 0.9000001

[Metadata]
Title:1539 N. Calvert
TitleUnicode:1539 N. Calvert
Artist:JPEGMAFIA
ArtistUnicode:JPEGMAFIA
Creator:Kqrth
Version:Kantan
Source:
Tags:english hiphop hip-hop cloud rap trap veteran damn peggy
BeatmapID:2293104
BeatmapSetID:1097401

[Difficulty]
HPDrainRate:8
CircleSize:5
OverallDifficulty:3
ApproachRate:5
SliderMultiplier:1.4
SliderTickRate:1

[Events]
//Background and Video events
0,0,"bg.jpeg",0,30
//Break Periods
//Storyboard Layer 0 (Background)
//Storyboard Layer 1 (Fail)
//Storyboard Layer 2 (Pass)
//Storyboard Layer 3 (Foreground)
//Storyboard Layer 4 (Overlay)
//Storyboard Sound Samples

[TimingPoints]
-14,394.736842105263,4,1,0,5,1,0
-14,-111.111111111111,4,1,0,5,0,0
50413,-111.111111111111,4,1,0,60,0,0
88472,-111.111111111111,4,1,0,40,0,0
91466,-111.111111111111,4,1,0,60,0,0
101137,-111.111111111111,4,1,0,50,0,0
110462,-111.111111111111,4,1,0,5,0,0
113571,-111.111111111111,4,1,0,60,0,0
125808,-111.111111111111,4,1,0,100,0,0

[HitObjects]
223,249,50512,5,0,0:0:0:0:
223,249,50907,1,0,0:0:0:0:
223,249,51301,1,8,0:0:0:0:
223,249,52091,1,0,0:0:0:0:
223,249,52880,1,8,0:0:0:0:
223,249,53670,1,0,0:0:0:0:
223,249,54064,1,8,0:0:0:0:
223,249,54459,1,0,0:0:0:0:
223,249,55249,1,0,0:0:0:0:
223,249,56038,1,8,0:0:0:0:
223,249,56828,1,0,0:0:0:0:
223,249,58012,1,0,0:0:0:0:
223,249,58407,1,8,0:0:0:0:
223,249,59196,1,0,0:0:0:0:
223,249,59985,1,8,0:0:0:0:
223,249,60775,1,8,0:0:0:0:
223,249,61170,1,8,0:0:0:0:
223,249,61564,1,0,0:0:0:0:
223,249,62354,1,8,0:0:0:0:
223,249,63143,1,0,0:0:0:0:
223,249,64328,1,8,0:0:0:0:
223,249,64722,1,0,0:0:0:0:
223,249,65512,1,8,0:0:0:0:
223,249,66301,1,0,0:0:0:0:
223,249,66696,1,0,0:0:0:0:
223,249,67091,1,8,0:0:0:0:
223,249,67880,1,0,0:0:0:0:
223,249,68670,1,8,0:0:0:0:
223,249,69459,1,0,0:0:0:0:
223,249,70643,1,0,0:0:0:0:
223,249,71038,1,8,0:0:0:0:
223,249,71828,1,8,0:0:0:0:
223,249,72222,1,8,0:0:0:0:
223,249,72617,1,0,0:0:0:0:
223,249,73407,1,8,0:0:0:0:
223,249,74196,1,8,0:0:0:0:
223,249,74591,1,0,0:0:0:0:
223,249,74985,1,0,0:0:0:0:
223,249,75380,1,8,0:0:0:0:
223,249,75775,1,0,0:0:0:0:
223,249,77354,1,8,0:0:0:0:
204,252,78933,1,0,0:0:0:0:
173,243,79722,1,8,0:0:0:0:
167,241,80512,1,0,0:0:0:0:
167,241,80907,1,0,0:0:0:0:
297,256,81301,1,8,0:0:0:0:
297,256,82091,1,0,0:0:0:0:
297,256,82880,1,8,0:0:0:0:
297,256,83275,1,8,0:0:0:0:
297,256,83670,1,0,0:0:0:0:
297,256,84459,1,8,0:0:0:0:
297,256,85249,1,0,0:0:0:0:
297,256,86433,1,0,0:0:0:0:
297,256,86828,1,8,0:0:0:0:
297,256,87617,1,8,0:0:0:0:
297,256,88407,1,0,0:0:0:0:
209,229,89985,1,0,0:0:0:0:
193,244,91564,1,0,0:0:0:0:
193,244,92354,1,8,0:0:0:0:
193,244,93143,1,0,0:0:0:0:
131,248,93538,1,8,0:0:0:0:
131,248,93933,1,0,0:0:0:0:
131,248,94722,1,0,0:0:0:0:
131,248,95512,1,8,0:0:0:0:
131,248,96301,1,0,0:0:0:0:
131,248,96696,1,0,0:0:0:0:
131,248,97091,1,8,0:0:0:0:
131,248,97880,1,0,0:0:0:0:
131,248,99459,1,0,0:0:0:0:
131,248,100249,1,8,0:0:0:0:
131,248,101038,1,0,0:0:0:0:
312,236,101828,1,8,0:0:0:0:
312,236,102222,1,8,0:0:0:0:
131,248,102617,1,0,0:0:0:0:
312,236,103407,1,8,0:0:0:0:
131,248,104985,1,0,0:0:0:0:
131,248,105775,1,0,0:0:0:0:
131,248,106170,1,0,0:0:0:0:
131,248,106959,1,8,0:0:0:0:
131,248,107354,1,0,0:0:0:0:
226,239,108143,1,8,0:0:0:0:
312,236,108538,1,8,0:0:0:0:
226,239,108933,1,0,0:0:0:0:
165,247,109722,1,8,0:0:0:0:
165,247,113670,1,0,0:0:0:0:
165,247,114459,1,0,0:0:0:0:
256,270,114854,1,8,0:0:0:0:
256,270,115249,1,0,0:0:0:0:
212,186,116038,1,8,0:0:0:0:
212,186,116828,1,0,0:0:0:0:
160,272,117617,1,0,0:0:0:0:
212,186,118012,1,8,0:0:0:0:
212,186,118801,1,8,0:0:0:0:
212,186,119196,1,0,0:0:0:0:
212,186,119591,1,8,0:0:0:0:
165,247,120380,1,0,0:0:0:0:
212,186,120775,1,8,0:0:0:0:
212,186,121170,1,0,0:0:0:0:
212,186,121959,1,8,0:0:0:0:
212,186,122354,1,8,0:0:0:0:
212,186,122749,1,0,0:0:0:0:
212,186,123933,1,8,0:0:0:0:
212,186,124722,1,0,0:0:0:0:
212,186,125512,1,0,0:0:0:0:
212,186,125907,1,12,0:0:0:0:
