osu file format v14

[General]
AudioFilename: audio.mp3
AudioLeadIn: 0
PreviewTime: 50018
Countdown: 0
SampleSet: Normal
StackLeniency: 0.7
Mode: 1
LetterboxInBreaks: 0
WidescreenStoryboard: 0

[Editor]
Bookmarks: 50516,75779,91963,101042,113674
DistanceSpacing: 2.1
BeatDivisor: 8
GridSize: 32
TimelineZoom: 1.28

[Metadata]
Title:1539 N. Calvert
TitleUnicode:1539 N. Calvert
Artist:JPEGMAFIA
ArtistUnicode:JPEGMAFIA
Creator:Kqrth
Version:Inner Oni
Source:
Tags:english hiphop hip-hop cloud rap trap veteran damn peggy
BeatmapID:2293103
BeatmapSetID:1097401

[Difficulty]
HPDrainRate:5
CircleSize:5
OverallDifficulty:5.5
ApproachRate:5
SliderMultiplier:1.4
SliderTickRate:1

[Events]
//Background and Video events
0,0,"bg.jpeg",0,30
//Break Periods
//Storyboard Layer 0 (Background)
//Storyboard Layer 1 (Fail)
//Storyboard Layer 2 (Pass)
//Storyboard Layer 3 (Foreground)
//Storyboard Layer 4 (Overlay)
//Storyboard Sound Samples

[TimingPoints]
-14,394.736842105263,4,1,0,5,1,0
-14,-200.000000000001,4,1,0,5,0,0
50413,-142.857142857143,4,1,0,60,0,0
75676,-160,4,1,0,60,0,0
75808,-160.804020100503,4,1,0,60,0,0
75874,-161.616161616162,4,1,0,60,0,0
75939,-162.43654822335,4,1,0,60,0,0
76005,-163.265306122449,4,1,0,60,0,0
76071,-164.102564102564,4,1,0,60,0,0
76137,-164.948453608247,4,1,0,60,0,0
76268,-165.80310880829,4,1,0,60,0,0
76466,-166.666666666667,4,1,0,60,0,0
76762,-166.666666666667,4,1,0,60,0,0
77255,-166.666666666667,4,1,0,60,0,0
78242,-166.666666666667,4,1,0,60,0,0
88472,-200,4,1,0,40,0,0
91466,-125,4,1,0,60,0,0
92025,-166.666666666667,4,1,0,60,0,0
98374,-173.913043478261,4,1,0,60,0,0
101137,-181.818181818182,4,1,0,50,0,0
110462,-181.818181818182,4,1,0,5,0,0
110610,-285.714285714286,4,1,0,5,0,0
113571,-166.666666666667,4,1,0,60,0,0
125808,-100,4,1,0,100,0,0

[HitObjects]
225,210,50512,5,8,0:0:0:0:
225,210,50709,1,8,0:0:0:0:
225,210,50907,1,0,0:0:0:0:
225,210,51104,1,0,0:0:0:0:
225,210,51301,1,8,0:0:0:0:
225,210,51696,1,8,0:0:0:0:
225,210,51893,1,8,0:0:0:0:
225,210,52091,1,0,0:0:0:0:
225,210,52189,1,0,0:0:0:0:
225,210,52288,1,0,0:0:0:0:
225,210,52485,1,8,0:0:0:0:
225,210,52683,1,0,0:0:0:0:
225,210,52782,1,0,0:0:0:0:
225,210,52880,1,8,0:0:0:0:
225,210,53078,1,0,0:0:0:0:
225,210,53275,1,8,0:0:0:0:
225,210,53472,1,8,0:0:0:0:
225,210,53571,1,8,0:0:0:0:
225,210,53670,1,0,0:0:0:0:
245,149,53867,1,0,0:0:0:0:
245,149,54064,1,8,0:0:0:0:
245,149,54262,1,0,0:0:0:0:
245,149,54459,1,8,0:0:0:0:
245,149,54854,1,0,0:0:0:0:
245,149,55051,1,8,0:0:0:0:
245,149,55150,1,8,0:0:0:0:
240,141,55249,1,0,0:0:0:0:
240,141,55347,1,0,0:0:0:0:
240,141,55446,1,0,0:0:0:0:
240,141,55643,1,8,0:0:0:0:
240,141,55841,1,0,0:0:0:0:
240,141,56038,1,8,0:0:0:0:
240,141,56137,1,8,0:0:0:0:
240,141,56235,1,0,0:0:0:0:
240,141,56433,1,8,0:0:0:0:
240,141,56630,1,0,0:0:0:0:
240,141,56729,1,0,0:0:0:0:
197,170,56828,1,8,0:0:0:0:
197,170,56926,1,0,0:0:0:0:
240,141,57222,1,8,0:0:0:0:
175,206,57617,1,8,0:0:0:0:
288,208,57814,1,0,0:0:0:0:
197,170,58012,1,8,0:0:0:0:
175,206,58209,1,8,0:0:0:0:
175,206,58407,1,0,0:0:0:0:
175,206,58505,1,0,0:0:0:0:
175,206,58604,1,0,0:0:0:0:
175,206,58801,1,8,0:0:0:0:
175,206,58999,1,0,0:0:0:0:
175,206,59097,1,0,0:0:0:0:
175,206,59196,1,8,0:0:0:0:
288,209,59393,1,0,0:0:0:0:
175,206,59591,1,8,0:0:0:0:
175,206,59788,1,8,0:0:0:0:
175,206,59887,1,8,0:0:0:0:
175,206,59985,1,0,0:0:0:0:
288,209,60183,1,0,0:0:0:0:
246,251,60380,1,8,0:0:0:0:
197,170,60479,1,0,0:0:0:0:
197,170,60775,1,8,0:0:0:0:
197,170,60972,1,0,0:0:0:0:
197,170,61170,1,8,0:0:0:0:
197,170,61367,1,8,0:0:0:0:
197,170,61466,1,8,0:0:0:0:
197,170,61564,1,0,0:0:0:0:
197,170,61663,1,0,0:0:0:0:
197,170,61762,1,0,0:0:0:0:
197,170,61959,1,0,0:0:0:0:
197,170,62058,1,8,0:0:0:0:
197,170,62354,1,0,0:0:0:0:
197,170,62453,1,0,0:0:0:0:
197,170,62551,1,0,0:0:0:0:
197,170,62749,1,8,0:0:0:0:
197,170,62946,1,0,0:0:0:0:
197,170,63045,1,0,0:0:0:0:
197,170,63143,1,8,0:0:0:0:
273,210,63341,1,8,0:0:0:0:
273,210,63538,1,0,0:0:0:0:
273,210,63735,1,0,0:0:0:0:
273,210,63933,1,8,0:0:0:0:
273,210,64328,1,8,0:0:0:0:
273,210,64525,1,8,0:0:0:0:
273,210,64722,1,0,0:0:0:0:
273,210,64821,1,0,0:0:0:0:
273,210,64920,1,0,0:0:0:0:
273,210,65117,1,8,0:0:0:0:
273,210,65314,1,8,0:0:0:0:
273,210,65413,1,8,0:0:0:0:
273,210,65512,1,0,0:0:0:0:
273,210,65907,1,0,0:0:0:0:
273,210,66104,1,8,0:0:0:0:
273,210,66203,1,8,0:0:0:0:
273,210,66301,1,0,0:0:0:0:
273,210,66499,1,0,0:0:0:0:
273,210,66597,1,8,0:0:0:0:
273,210,66696,1,0,0:0:0:0:
273,210,66893,1,8,0:0:0:0:
273,210,67091,1,0,0:0:0:0:
273,210,67485,1,8,0:0:0:0:
273,210,67683,1,8,0:0:0:0:
273,210,67782,1,8,0:0:0:0:
273,210,67880,1,0,0:0:0:0:
273,210,68078,1,0,0:0:0:0:
273,210,68374,1,0,0:0:0:0:
273,210,68472,1,0,0:0:0:0:
273,210,68670,1,8,0:0:0:0:
273,210,68867,1,8,0:0:0:0:
273,210,69064,1,0,0:0:0:0:
273,210,69163,1,8,0:0:0:0:
273,210,69262,1,8,0:0:0:0:
273,210,69459,1,0,0:0:0:0:
273,210,69854,1,8,0:0:0:0:
193,170,70051,1,0,0:0:0:0:
195,182,70249,1,8,0:0:0:0:
195,182,70446,1,8,0:0:0:0:
195,182,70643,1,0,0:0:0:0:
195,182,70841,1,8,0:0:0:0:
195,182,71038,1,0,0:0:0:0:
195,182,71137,1,0,0:0:0:0:
195,182,71235,1,0,0:0:0:0:
195,182,71433,1,8,0:0:0:0:
195,182,71630,1,0,0:0:0:0:
195,182,71729,1,0,0:0:0:0:
195,182,71828,1,8,0:0:0:0:
195,182,72025,1,0,0:0:0:0:
195,182,72222,1,8,0:0:0:0:
195,182,72420,1,8,0:0:0:0:
195,182,72518,1,8,0:0:0:0:
195,182,72617,1,0,0:0:0:0:
195,182,73012,1,8,0:0:0:0:
195,182,73110,1,8,0:0:0:0:
195,182,73209,1,0,0:0:0:0:
195,182,73407,1,8,0:0:0:0:
195,182,73604,1,0,0:0:0:0:
195,182,73703,1,0,0:0:0:0:
195,182,73801,1,8,0:0:0:0:
195,182,73999,1,8,0:0:0:0:
195,182,74097,1,8,0:0:0:0:
195,182,74196,1,0,0:0:0:0:
195,182,74393,1,0,0:0:0:0:
195,182,74591,1,8,0:0:0:0:
273,210,74788,1,0,0:0:0:0:
195,182,74887,1,0,0:0:0:0:
195,182,74985,1,8,0:0:0:0:
195,182,75084,1,8,0:0:0:0:
195,182,75183,1,8,0:0:0:0:
195,182,75380,1,8,0:0:0:0:
195,182,75775,5,0,0:0:0:0:
4,9,75841,1,0,0:0:0:0:
504,371,75907,1,0,0:0:0:0:
4,9,75972,1,0,0:0:0:0:
504,362,76038,1,0,0:0:0:0:
11,15,76104,1,0,0:0:0:0:
507,350,76170,1,0,0:0:0:0:
135,225,76367,1,0,0:0:0:0:
135,225,76564,1,0,0:0:0:0:
135,225,76959,1,0,0:0:0:0:
135,225,77354,1,8,0:0:0:0:
135,225,77551,1,0,0:0:0:0:
229,157,78341,1,0,0:0:0:0:
229,157,78538,1,0,0:0:0:0:
229,157,78735,1,0,0:0:0:0:
229,157,78933,1,0,0:0:0:0:
229,157,79032,1,0,0:0:0:0:
229,157,79130,1,0,0:0:0:0:
152,136,79328,1,8,0:0:0:0:
152,136,79459,1,8,0:0:0:0:
152,136,79591,1,0,0:0:0:0:
152,136,79722,1,8,0:0:0:0:
152,136,79854,1,0,0:0:0:0:
152,136,79985,1,0,0:0:0:0:
152,136,80117,1,8,0:0:0:0:
152,136,80314,1,8,0:0:0:0:
152,136,80512,1,0,0:0:0:0:
152,136,80610,1,0,0:0:0:0:
152,136,80709,1,0,0:0:0:0:
242,230,80907,1,8,0:0:0:0:
242,230,81038,1,0,0:0:0:0:
242,230,81170,1,0,0:0:0:0:
242,230,81301,1,8,0:0:0:0:
242,230,81433,1,8,0:0:0:0:
242,230,81564,1,0,0:0:0:0:
242,230,81696,1,8,0:0:0:0:
97,143,81893,1,8,0:0:0:0:
97,143,81992,1,8,0:0:0:0:
97,143,82091,1,0,0:0:0:0:
252,184,82288,1,0,0:0:0:0:
252,184,82485,1,8,0:0:0:0:
242,184,82683,1,0,0:0:0:0:
242,184,82782,1,0,0:0:0:0:
242,184,82880,1,8,0:0:0:0:
242,184,82979,1,0,0:0:0:0:
242,184,83176,1,0,0:0:0:0:
242,184,83275,1,8,0:0:0:0:
242,184,83472,1,8,0:0:0:0:
242,184,83571,1,8,0:0:0:0:
242,184,83670,1,0,0:0:0:0:
242,184,83768,1,0,0:0:0:0:
242,184,83867,1,0,0:0:0:0:
242,184,84064,1,8,0:0:0:0:
242,184,84262,1,0,0:0:0:0:
242,184,84360,1,0,0:0:0:0:
242,184,84459,1,8,0:0:0:0:
242,184,84558,1,8,0:0:0:0:
242,184,84657,1,0,0:0:0:0:
247,164,84854,1,8,0:0:0:0:
247,164,85051,1,0,0:0:0:0:
247,164,85150,1,0,0:0:0:0:
247,164,85249,1,8,0:0:0:0:
247,164,85643,1,8,0:0:0:0:
247,164,85775,1,0,0:0:0:0:
247,164,85907,1,8,0:0:0:0:
182,174,86038,1,8,0:0:0:0:
182,174,86170,1,0,0:0:0:0:
247,164,86301,1,0,0:0:0:0:
182,174,86433,1,8,0:0:0:0:
182,174,86630,1,8,0:0:0:0:
182,174,86828,1,0,0:0:0:0:
182,174,86926,1,0,0:0:0:0:
182,174,87025,1,0,0:0:0:0:
182,174,87222,1,8,0:0:0:0:
182,174,87420,1,0,0:0:0:0:
182,174,87518,1,0,0:0:0:0:
182,174,87617,1,8,0:0:0:0:
182,174,87716,1,0,0:0:0:0:
182,174,87913,1,0,0:0:0:0:
182,174,88012,1,8,0:0:0:0:
182,174,88209,1,8,0:0:0:0:
182,174,88308,1,8,0:0:0:0:
182,174,88801,1,0,0:0:0:0:
182,174,89196,1,8,0:0:0:0:
182,174,89591,1,0,0:0:0:0:
182,174,89788,1,8,0:0:0:0:
182,174,89985,1,0,0:0:0:0:
182,174,90183,1,0,0:0:0:0:
182,174,90380,1,8,0:0:0:0:
182,174,90578,1,8,0:0:0:0:
182,174,90775,1,0,0:0:0:0:
182,174,91170,1,8,0:0:0:0:
182,174,91564,1,0,0:0:0:0:
173,200,91630,1,0,0:0:0:0:
173,200,91696,1,0,0:0:0:0:
173,200,91762,1,0,0:0:0:0:
173,200,91828,1,0,0:0:0:0:
173,200,91893,1,0,0:0:0:0:
174,197,91959,1,8,0:0:0:0:
254,220,92354,1,8,0:0:0:0:
254,220,92551,1,0,0:0:0:0:
254,220,92749,1,8,0:0:0:0:
254,220,92946,1,8,0:0:0:0:
254,220,93143,1,0,0:0:0:0:
254,220,93242,1,0,0:0:0:0:
254,220,93341,1,0,0:0:0:0:
254,220,93538,1,8,0:0:0:0:
254,220,93933,1,0,0:0:0:0:
254,220,94328,1,0,0:0:0:0:
254,220,94525,1,8,0:0:0:0:
254,220,94624,1,8,0:0:0:0:
254,220,94722,1,0,0:0:0:0:
219,222,94920,1,0,0:0:0:0:
219,222,95117,1,8,0:0:0:0:
219,222,95314,1,0,0:0:0:0:
219,222,95512,1,8,0:0:0:0:
219,222,95709,1,8,0:0:0:0:
219,222,95907,1,0,0:0:0:0:
219,222,96104,1,0,0:0:0:0:
219,222,96203,1,8,0:0:0:0:
219,222,96301,1,0,0:0:0:0:
219,222,96499,1,0,0:0:0:0:
219,222,96696,1,8,0:0:0:0:
219,222,96795,1,0,0:0:0:0:
219,222,96893,1,0,0:0:0:0:
219,222,97091,1,8,0:0:0:0:
219,222,97189,1,8,0:0:0:0:
219,222,97288,1,8,0:0:0:0:
219,222,97485,1,0,0:0:0:0:
219,222,97584,1,8,0:0:0:0:
219,222,97683,1,8,0:0:0:0:
219,222,97782,1,0,0:0:0:0:
219,222,98472,1,0,0:0:0:0:
219,222,98670,1,8,0:0:0:0:
219,222,99064,1,8,0:0:0:0:
219,222,99262,1,8,0:0:0:0:
219,222,99459,1,0,0:0:0:0:
219,222,99558,1,0,0:0:0:0:
219,222,99657,1,0,0:0:0:0:
219,222,99854,1,8,0:0:0:0:
219,222,100051,1,0,0:0:0:0:
219,222,100150,1,0,0:0:0:0:
219,222,100249,1,8,0:0:0:0:
219,222,100446,1,0,0:0:0:0:
219,222,100643,1,8,0:0:0:0:
219,222,100841,1,8,0:0:0:0:
219,222,100939,1,8,0:0:0:0:
219,222,101038,1,0,0:0:0:0:
219,222,101630,1,0,0:0:0:0:
219,222,101828,1,8,0:0:0:0:
219,222,102222,1,0,0:0:0:0:
219,222,102420,1,8,0:0:0:0:
219,222,102617,1,0,0:0:0:0:
219,222,102814,1,0,0:0:0:0:
219,222,103110,1,0,0:0:0:0:
219,222,103209,1,0,0:0:0:0:
219,222,103407,1,8,0:0:0:0:
219,222,103505,1,8,0:0:0:0:
219,222,103604,1,8,0:0:0:0:
219,222,103801,1,0,0:0:0:0:
219,222,103900,1,8,0:0:0:0:
219,222,103999,1,8,0:0:0:0:
219,222,104097,1,0,0:0:0:0:
219,222,104393,1,0,0:0:0:0:
219,222,104591,1,8,0:0:0:0:
219,222,104788,1,8,0:0:0:0:
219,222,104985,1,0,0:0:0:0:
219,222,105183,1,8,0:0:0:0:
219,222,105380,1,8,0:0:0:0:
219,222,105578,1,8,0:0:0:0:
219,222,105775,1,0,0:0:0:0:
219,222,105874,1,8,0:0:0:0:
219,222,105972,1,0,0:0:0:0:
219,222,106170,1,0,0:0:0:0:
219,222,106367,1,8,0:0:0:0:
219,222,106466,1,0,0:0:0:0:
219,222,106564,1,0,0:0:0:0:
219,222,106663,1,8,0:0:0:0:
219,222,106762,1,8,0:0:0:0:
219,222,106959,1,0,0:0:0:0:
219,222,107157,1,8,0:0:0:0:
219,222,107255,1,8,0:0:0:0:
219,222,107354,1,0,0:0:0:0:
219,222,107749,1,0,0:0:0:0:
219,222,107946,1,0,0:0:0:0:
219,222,108143,1,8,0:0:0:0:
219,222,108538,1,0,0:0:0:0:
219,222,108735,1,8,0:0:0:0:
219,222,108933,1,0,0:0:0:0:
219,222,109130,1,0,0:0:0:0:
219,222,109426,1,0,0:0:0:0:
219,222,109525,1,0,0:0:0:0:
219,222,109722,1,8,0:0:0:0:
219,222,109821,1,8,0:0:0:0:
219,222,109920,1,8,0:0:0:0:
219,222,110117,1,0,0:0:0:0:
219,222,110216,1,8,0:0:0:0:
219,222,110314,1,8,0:0:0:0:
219,222,110413,1,0,0:0:0:0:
262,199,113670,1,0,0:0:0:0:
250,255,113867,1,0,0:0:0:0:
250,255,114064,1,8,0:0:0:0:
250,255,114262,1,0,0:0:0:0:
250,255,114360,1,8,0:0:0:0:
250,255,114558,1,8,0:0:0:0:
250,255,114755,1,0,0:0:0:0:
250,255,114854,1,8,0:0:0:0:
250,255,115051,1,8,0:0:0:0:
250,255,115249,1,0,0:0:0:0:
250,255,115347,1,0,0:0:0:0:
250,255,115446,1,0,0:0:0:0:
204,164,115643,1,8,0:0:0:0:
204,164,115841,1,0,0:0:0:0:
204,164,115939,1,0,0:0:0:0:
204,164,116038,1,8,0:0:0:0:
204,164,116137,1,0,0:0:0:0:
204,164,116334,1,0,0:0:0:0:
204,164,116433,1,8,0:0:0:0:
204,164,116630,1,8,0:0:0:0:
204,164,116729,1,8,0:0:0:0:
223,287,116828,1,0,0:0:0:0:
174,249,116893,1,0,0:0:0:0:
223,287,116959,1,0,0:0:0:0:
223,287,117025,1,0,0:0:0:0:
66,228,117222,1,8,0:0:0:0:
103,242,117420,1,0,0:0:0:0:
103,242,117518,1,8,0:0:0:0:
103,242,117716,1,0,0:0:0:0:
103,242,117913,1,0,0:0:0:0:
103,242,118012,1,8,0:0:0:0:
103,242,118209,1,8,0:0:0:0:
103,242,118308,1,8,0:0:0:0:
103,242,118407,1,0,0:0:0:0:
103,242,118505,1,0,0:0:0:0:
103,242,118604,1,0,0:0:0:0:
103,242,118801,1,8,0:0:0:0:
103,242,118999,1,0,0:0:0:0:
103,242,119097,1,8,0:0:0:0:
103,242,119196,1,8,0:0:0:0:
103,242,119295,1,8,0:0:0:0:
103,242,119393,1,0,0:0:0:0:
103,242,119591,1,8,0:0:0:0:
103,242,119788,1,0,0:0:0:0:
103,242,119887,1,0,0:0:0:0:
240,196,120183,1,0,0:0:0:0:
103,242,120380,1,8,0:0:0:0:
240,196,120479,1,0,0:0:0:0:
240,196,120676,1,8,0:0:0:0:
240,196,120874,1,8,0:0:0:0:
233,187,120972,1,0,0:0:0:0:
233,187,121170,1,8,0:0:0:0:
233,187,121367,1,0,0:0:0:0:
233,187,121564,1,0,0:0:0:0:
233,187,121663,1,0,0:0:0:0:
233,187,121762,1,0,0:0:0:0:
233,187,121959,1,8,0:0:0:0:
233,187,122157,1,0,0:0:0:0:
233,187,122255,1,0,0:0:0:0:
233,187,122354,1,8,0:0:0:0:
233,187,122551,1,0,0:0:0:0:
233,187,122749,1,8,0:0:0:0:
233,187,122946,1,8,0:0:0:0:
233,187,123045,1,8,0:0:0:0:
233,187,123143,1,0,0:0:0:0:
233,187,123242,1,0,0:0:0:0:
233,187,123341,1,0,0:0:0:0:
233,187,123538,1,0,0:0:0:0:
233,187,123637,1,8,0:0:0:0:
233,187,123735,1,0,0:0:0:0:
233,187,123834,1,0,0:0:0:0:
233,187,123933,1,8,0:0:0:0:
233,187,124130,1,0,0:0:0:0:
233,187,124328,1,8,0:0:0:0:
233,187,124525,1,8,0:0:0:0:
233,187,124624,1,8,0:0:0:0:
233,187,124722,1,0,0:0:0:0:
233,187,124821,1,0,0:0:0:0:
233,187,124920,1,0,0:0:0:0:
233,187,125117,1,8,0:0:0:0:
233,187,125314,1,0,0:0:0:0:
233,187,125413,1,0,0:0:0:0:
233,187,125512,1,8,0:0:0:0:
233,187,125610,1,0,0:0:0:0:
233,187,125709,1,0,0:0:0:0:
233,187,125907,1,12,0:0:0:0:
