osu file format v14

[General]
AudioFilename: audio.mp3
AudioLeadIn: 0
PreviewTime: -1
Countdown: 1
SampleSet: None
StackLeniency: 0.7
Mode: 0
LetterboxInBreaks: 0
WidescreenStoryboard: 0

[Editor]
DistanceSpacing: 0.8
BeatDivisor: 4
GridSize: 32
TimelineZoom: 1

[Metadata]
Title:High
TitleUnicode:High
Artist:JPB
ArtistUnicode:JPB
Creator:Knawner
Version:Easy
Source:
Tags:
BeatmapID:1362653
BeatmapSetID:642751

[Difficulty]
HPDrainRate:0
CircleSize:2
OverallDifficulty:0
ApproachRate:2
SliderMultiplier:1.4
SliderTickRate:1

[Events]
//Background and Video events
0,0,"High.jpg",0,0
//Break Periods
2,200,3940
2,6700,11190
2,69825,88065
2,89825,94440
2,96200,100440
//Storyboard Layer 0 (Background)
//Storyboard Layer 1 (Fail)
//Storyboard Layer 2 (Pass)
//Storyboard Layer 3 (Foreground)
//Storyboard Sound Samples

[TimingPoints]
0,500,4,1,0,100,1,0

[HitObjects]
256,192,0,5,0,0:0:0:0:
160,192,5500,5,0,0:0:0:0:
256,192,5875,1,0,0:0:0:0:
256,64,6500,1,0,0:0:0:0:
64,352,12750,6,0,L|448:32,1,490
448,32,14500,2,0,L|96:128,1,350
110,124,16000,1,0,0:0:0:0:
256,192,19250,12,0,24000,0:0:0:0:
192,192,24500,6,0,L|320:192,1,105
480,192,25625,1,0,0:0:0:0:
320,64,26500,1,0,0:0:0:0:
160,64,27250,1,0,0:0:0:0:
64,192,28000,1,0,0:0:0:0:
256,192,28875,1,0,0:0:0:0:
416,192,29625,1,0,0:0:0:0:
256,64,30500,1,0,0:0:0:0:
128,192,31250,2,0,L|352:192,1,210
128,192,32875,1,0,0:0:0:0:
256,320,33625,1,0,0:0:0:0:
416,192,34500,1,0,0:0:0:0:
256,192,35250,5,0,0:0:0:0:
256,32,36000,1,0,0:0:0:0:
256,192,36875,1,0,0:0:0:0:
256,192,38375,1,0,0:0:0:0:
256,192,39250,1,0,0:0:0:0:
256,192,40875,1,0,0:0:0:0:
256,192,42375,1,0,0:0:0:0:
32,32,44000,1,0,0:0:0:0:
480,32,45625,1,0,0:0:0:0:
480,352,47250,1,0,0:0:0:0:
32,352,48750,1,0,0:0:0:0:
32,352,48875,2,0,P|256:192|352:128,1,385
256,192,51250,1,0,0:0:0:0:
480,192,51875,1,0,0:0:0:0:
480,32,52375,1,0,0:0:0:0:
32,32,52875,1,0,0:0:0:0:
32,352,53375,1,0,0:0:0:0:
256,192,54000,1,0,0:0:0:0:
480,352,54375,1,0,0:0:0:0:
32,32,55000,1,0,0:0:0:0:
480,32,55625,1,0,0:0:0:0:
224,288,56000,2,0,P|160:256|256:192,1,210
32,32,57250,1,0,0:0:0:0:
480,32,57625,1,0,0:0:0:0:
32,352,58250,1,0,0:0:0:0:
256,192,58750,1,0,0:0:0:0:
480,352,59250,1,0,0:0:0:0:
32,32,59875,2,0,L|160:128,1,140
480,352,60875,2,0,L|352:256,2,140
256,192,62375,1,0,0:0:0:0:
256,192,64000,2,0,L|128:64,2,175
480,352,65625,1,0,0:0:0:0:
128,288,66250,2,0,L|384:96,3,315
256,192,89625,5,0,0:0:0:0:
256,192,96000,5,0,0:0:0:0:
256,192,102000,5,0,0:0:0:0:
256,192,102250,1,0,0:0:0:0:
