osu file format v14

[General]
AudioFilename: audio.ogg
AudioLeadIn: 0
PreviewTime: 75866
Countdown: 0
SampleSet: Normal
StackLeniency: 0.7
Mode: 3
LetterboxInBreaks: 0
SpecialStyle: 0
WidescreenStoryboard: 1

[Editor]
Bookmarks: 986,16346,24026,27866,29786,31706,43226,47066,52826,54746,58586,62426,64346,66266,68186,70106,72026,73946,77786,83546,85466,89306,94346,95066,96026,110426,118106,125786,141146,148826,152666,154586,156506,158426,162266,164186,169946,171866,177626,179546,181466,183386,185306,187226,192986,194906,198746,202586
DistanceSpacing: 0.8
BeatDivisor: 9
GridSize: 16
TimelineZoom: 1.5

[Metadata]
Title:ON FIRE
TitleUnicode:ON FIRE
Artist:JOYRYDE
ArtistUnicode:JOYRYDE
Creator:RandomeLoL
Version:EMBER [INSANE]
Source:
Tags:Electronic English Instrumental BRAVE John Ford Hard Recs House
BeatmapID:3808274
BeatmapSetID:1843271

[Difficulty]
HPDrainRate:8
CircleSize:4
OverallDifficulty:7.8
ApproachRate:5
SliderMultiplier:1.4
SliderTickRate:1

[Events]
//Background and Video events
0,0,"fueguito.jpg",0,0
//Break Periods
//Storyboard Layer 0 (Background)
//Storyboard Layer 1 (Fail)
//Storyboard Layer 2 (Pass)
//Storyboard Layer 3 (Foreground)
//Storyboard Layer 4 (Overlay)
//Storyboard Sound Samples

[TimingPoints]
986,480,4,1,1,60,1,0
62426,-100,4,1,1,60,0,1
64346,-100,4,1,1,60,0,0
66266,-100,4,1,1,60,0,1
68186,-100,4,1,1,60,0,0
70106,-100,4,1,1,60,0,1
72026,-100,4,1,1,60,0,0
73946,-100,4,1,1,60,0,1
75866,-100,4,1,1,60,0,0
77786,-100,4,1,1,60,0,1
83546,-100,4,1,1,60,0,0
85466,-100,4,1,1,60,0,1
89306,-100,4,1,1,60,0,0
162506,-100,4,1,1,60,0,1
163706,-100,4,1,1,60,0,0
177626,-100,4,1,1,60,0,1
179546,-100,4,1,1,60,0,0
181466,-100,4,1,1,60,0,1
183386,-100,4,1,1,60,0,0
187226,-100,4,1,1,60,0,1
192986,-100,4,1,1,60,0,0
194906,-100,4,1,1,60,0,1
198746,-100,4,1,1,60,0,0

[HitObjects]
64,192,986,5,0,0:0:0:0:
192,192,986,1,0,0:0:0:0:
448,192,1106,1,0,0:0:0:0:
448,192,1466,1,0,0:0:0:0:
192,192,1466,1,0,0:0:0:0:
320,192,1586,1,0,0:0:0:0:
64,192,1706,1,0,0:0:0:0:
448,192,1946,1,0,0:0:0:0:
192,192,1946,1,0,0:0:0:0:
64,192,2006,1,0,0:0:0:0:
320,192,2066,1,0,0:0:0:0:
192,192,2186,1,0,0:0:0:0:
320,192,2246,1,0,0:0:0:0:
64,192,2426,1,0,0:0:0:0:
192,192,2426,1,0,0:0:0:0:
448,192,2486,1,0,0:0:0:0:
320,192,2546,1,0,0:0:0:0:
64,192,2606,1,0,0:0:0:0:
448,192,2666,1,0,0:0:0:0:
192,192,2726,1,0,0:0:0:0:
320,192,2786,1,0,0:0:0:0:
64,192,2846,1,0,0:0:0:0:
320,192,2906,1,0,0:0:0:0:
448,192,2906,1,0,0:0:0:0:
192,192,3026,1,0,0:0:0:0:
64,192,3386,1,0,0:0:0:0:
192,192,3386,1,0,0:0:0:0:
320,192,3506,1,0,0:0:0:0:
448,192,3626,1,0,0:0:0:0:
64,192,3866,1,0,0:0:0:0:
448,192,3866,1,0,0:0:0:0:
192,192,3926,1,0,0:0:0:0:
320,192,3986,1,0,0:0:0:0:
448,192,4106,1,0,0:0:0:0:
192,192,4166,1,0,0:0:0:0:
64,192,4346,1,0,0:0:0:0:
320,192,4346,1,0,0:0:0:0:
192,192,4406,1,0,0:0:0:0:
448,192,4586,1,0,0:0:0:0:
320,192,4646,1,0,0:0:0:0:
192,192,4706,1,0,0:0:0:0:
64,192,4706,1,0,0:0:0:0:
448,192,4826,1,0,0:0:0:0:
64,192,4826,1,0,0:0:0:0:
320,192,4946,1,0,0:0:0:0:
64,192,5306,1,0,0:0:0:0:
448,192,5306,1,0,0:0:0:0:
192,192,5426,1,0,0:0:0:0:
320,192,5546,1,0,0:0:0:0:
448,192,5786,1,0,0:0:0:0:
192,192,5786,1,0,0:0:0:0:
320,192,5846,1,0,0:0:0:0:
64,192,5906,1,0,0:0:0:0:
192,192,6026,1,0,0:0:0:0:
448,192,6086,1,0,0:0:0:0:
320,192,6266,1,0,0:0:0:0:
448,192,6266,1,0,0:0:0:0:
64,192,6326,1,0,0:0:0:0:
192,192,6386,1,0,0:0:0:0:
448,192,6446,1,0,0:0:0:0:
64,192,6506,1,0,0:0:0:0:
320,192,6566,1,0,0:0:0:0:
192,192,6626,1,0,0:0:0:0:
64,192,6686,1,0,0:0:0:0:
320,192,6746,1,0,0:0:0:0:
448,192,6746,1,0,0:0:0:0:
192,192,6866,1,0,0:0:0:0:
448,192,7226,1,0,0:0:0:0:
192,192,7226,1,0,0:0:0:0:
320,192,7346,1,0,0:0:0:0:
64,192,7466,1,0,0:0:0:0:
64,192,7706,1,0,0:0:0:0:
320,192,7706,1,0,0:0:0:0:
192,192,7766,1,0,0:0:0:0:
448,192,7826,1,0,0:0:0:0:
192,192,7946,1,0,0:0:0:0:
64,192,8006,1,0,0:0:0:0:
448,192,8186,1,0,0:0:0:0:
320,192,8186,1,0,0:0:0:0:
192,192,8246,1,0,0:0:0:0:
320,192,8306,1,0,0:0:0:0:
64,192,8306,1,0,0:0:0:0:
192,192,8426,1,0,0:0:0:0:
320,192,8486,1,0,0:0:0:0:
448,192,8546,1,0,0:0:0:0:
192,192,8546,1,0,0:0:0:0:
320,192,8666,1,0,0:0:0:0:
448,192,8666,1,0,0:0:0:0:
64,192,8786,1,0,0:0:0:0:
64,192,9146,1,0,0:0:0:0:
320,192,9146,1,0,0:0:0:0:
192,192,9266,1,0,0:0:0:0:
448,192,9386,1,0,0:0:0:0:
64,192,9626,1,0,0:0:0:0:
192,192,9626,1,0,0:0:0:0:
320,192,9686,1,0,0:0:0:0:
448,192,9746,1,0,0:0:0:0:
320,192,9866,1,0,0:0:0:0:
64,192,9926,1,0,0:0:0:0:
448,192,10106,1,0,0:0:0:0:
320,192,10106,1,0,0:0:0:0:
64,192,10166,1,0,0:0:0:0:
192,192,10226,1,0,0:0:0:0:
448,192,10286,1,0,0:0:0:0:
64,192,10346,1,0,0:0:0:0:
320,192,10406,1,0,0:0:0:0:
192,192,10466,1,0,0:0:0:0:
448,192,10526,1,0,0:0:0:0:
192,192,10586,1,0,0:0:0:0:
64,192,10586,1,0,0:0:0:0:
320,192,10706,1,0,0:0:0:0:
448,192,11066,1,0,0:0:0:0:
320,192,11066,1,0,0:0:0:0:
192,192,11186,1,0,0:0:0:0:
64,192,11306,1,0,0:0:0:0:
448,192,11546,1,0,0:0:0:0:
64,192,11546,1,0,0:0:0:0:
320,192,11606,1,0,0:0:0:0:
192,192,11666,1,0,0:0:0:0:
64,192,11786,1,0,0:0:0:0:
320,192,11846,1,0,0:0:0:0:
448,192,12026,1,0,0:0:0:0:
192,192,12026,1,0,0:0:0:0:
320,192,12086,1,0,0:0:0:0:
64,192,12266,1,0,0:0:0:0:
192,192,12326,1,0,0:0:0:0:
320,192,12386,1,0,0:0:0:0:
448,192,12386,1,0,0:0:0:0:
64,192,12506,1,0,0:0:0:0:
448,192,12506,1,0,0:0:0:0:
192,192,12626,1,0,0:0:0:0:
448,192,12986,1,0,0:0:0:0:
64,192,12986,1,0,0:0:0:0:
320,192,13106,1,0,0:0:0:0:
192,192,13226,1,0,0:0:0:0:
64,192,13466,1,0,0:0:0:0:
320,192,13466,1,0,0:0:0:0:
192,192,13526,1,0,0:0:0:0:
448,192,13586,1,0,0:0:0:0:
320,192,13706,1,0,0:0:0:0:
64,192,13766,1,0,0:0:0:0:
192,192,13946,1,0,0:0:0:0:
64,192,13946,1,0,0:0:0:0:
448,192,14006,1,0,0:0:0:0:
320,192,14066,1,0,0:0:0:0:
64,192,14126,1,0,0:0:0:0:
448,192,14186,1,0,0:0:0:0:
192,192,14246,1,0,0:0:0:0:
320,192,14306,1,0,0:0:0:0:
448,192,14366,1,0,0:0:0:0:
192,192,14426,1,0,0:0:0:0:
64,192,14426,1,0,0:0:0:0:
320,192,14546,1,0,0:0:0:0:
64,192,14906,1,0,0:0:0:0:
320,192,14906,1,0,0:0:0:0:
192,192,15026,1,0,0:0:0:0:
448,192,15146,1,0,0:0:0:0:
448,192,15386,1,0,0:0:0:0:
320,192,15386,1,0,0:0:0:0:
192,192,15446,1,0,0:0:0:0:
64,192,15506,1,0,0:0:0:0:
320,192,15626,1,0,0:0:0:0:
448,192,15686,1,0,0:0:0:0:
64,192,15866,1,0,0:0:0:0:
192,192,15866,1,0,0:0:0:0:
320,192,15926,1,0,0:0:0:0:
192,192,15986,1,0,0:0:0:0:
448,192,15986,1,0,0:0:0:0:
320,192,16106,1,0,0:0:0:0:
192,192,16166,1,0,0:0:0:0:
64,192,16226,1,0,0:0:0:0:
320,192,16226,1,0,0:0:0:0:
192,192,16346,1,0,0:0:0:0:
64,192,16346,1,0,0:0:0:0:
192,192,16506,1,0,0:0:0:0:
448,192,16586,1,0,0:0:0:0:
320,192,16706,1,0,0:0:0:0:
320,192,16826,1,0,0:0:0:0:
448,192,16826,1,0,0:0:0:0:
192,192,16886,1,0,0:0:0:0:
64,192,16946,1,0,0:0:0:0:
448,192,17006,1,0,0:0:0:0:
320,192,17066,1,0,0:0:0:0:
64,192,17126,1,0,0:0:0:0:
192,192,17186,1,0,0:0:0:0:
448,192,17246,1,0,0:0:0:0:
192,192,17306,1,0,0:0:0:0:
320,192,17366,1,0,0:0:0:0:
448,192,17426,1,0,0:0:0:0:
64,192,17486,1,0,0:0:0:0:
192,192,17546,1,0,0:0:0:0:
448,192,17606,1,0,0:0:0:0:
320,192,17666,1,0,0:0:0:0:
64,192,17726,1,0,0:0:0:0:
320,192,17786,1,0,0:0:0:0:
192,192,17846,1,0,0:0:0:0:
64,192,17906,1,0,0:0:0:0:
448,192,17966,1,0,0:0:0:0:
320,192,18026,1,0,0:0:0:0:
64,192,18086,1,0,0:0:0:0:
192,192,18146,1,0,0:0:0:0:
448,192,18206,1,0,0:0:0:0:
192,192,18266,1,0,0:0:0:0:
64,192,18266,1,0,0:0:0:0:
320,192,18334,1,0,0:0:0:0:
448,192,18403,1,0,0:0:0:0:
64,192,18506,1,0,0:0:0:0:
192,192,18746,1,0,0:0:0:0:
448,192,18746,1,0,0:0:0:0:
64,192,18866,1,0,0:0:0:0:
320,192,18986,1,0,0:0:0:0:
64,192,19226,1,0,0:0:0:0:
192,192,19226,1,0,0:0:0:0:
320,192,19286,1,0,0:0:0:0:
448,192,19466,1,0,0:0:0:0:
320,192,19526,1,0,0:0:0:0:
64,192,19706,1,0,0:0:0:0:
448,192,19706,1,0,0:0:0:0:
192,192,19766,1,0,0:0:0:0:
320,192,19946,1,0,0:0:0:0:
192,192,20006,1,0,0:0:0:0:
320,192,20186,1,0,0:0:0:0:
448,192,20186,1,0,0:0:0:0:
320,192,20346,1,0,0:0:0:0:
64,192,20426,1,0,0:0:0:0:
192,192,20546,1,0,0:0:0:0:
192,192,20666,1,0,0:0:0:0:
448,192,20666,1,0,0:0:0:0:
320,192,20726,1,0,0:0:0:0:
64,192,20786,1,0,0:0:0:0:
448,192,20846,1,0,0:0:0:0:
192,192,20906,1,0,0:0:0:0:
320,192,20966,1,0,0:0:0:0:
64,192,21026,1,0,0:0:0:0:
192,192,21086,1,0,0:0:0:0:
64,192,21146,1,0,0:0:0:0:
320,192,21206,1,0,0:0:0:0:
448,192,21266,1,0,0:0:0:0:
64,192,21326,1,0,0:0:0:0:
320,192,21386,1,0,0:0:0:0:
192,192,21446,1,0,0:0:0:0:
448,192,21506,1,0,0:0:0:0:
320,192,21566,1,0,0:0:0:0:
448,192,21626,1,0,0:0:0:0:
192,192,21686,1,0,0:0:0:0:
64,192,21746,1,0,0:0:0:0:
448,192,21806,1,0,0:0:0:0:
192,192,21866,1,0,0:0:0:0:
320,192,21926,1,0,0:0:0:0:
64,192,21986,1,0,0:0:0:0:
192,192,22046,1,0,0:0:0:0:
64,192,22106,1,0,0:0:0:0:
448,192,22106,1,0,0:0:0:0:
320,192,22174,1,0,0:0:0:0:
192,192,22243,1,0,0:0:0:0:
64,192,22346,1,0,0:0:0:0:
320,192,22586,1,0,0:0:0:0:
448,192,22586,1,0,0:0:0:0:
64,192,22706,1,0,0:0:0:0:
192,192,22826,1,0,0:0:0:0:
448,192,23066,1,0,0:0:0:0:
64,192,23066,1,0,0:0:0:0:
320,192,23126,1,0,0:0:0:0:
192,192,23306,1,0,0:0:0:0:
448,192,23366,1,0,0:0:0:0:
64,192,23546,1,0,0:0:0:0:
192,192,23546,1,0,0:0:0:0:
320,192,23666,1,0,0:0:0:0:
448,192,23746,1,0,0:0:0:0:
64,192,23866,1,0,0:0:0:0:
320,192,23906,1,0,0:0:0:0:
320,192,24026,1,0,0:0:0:0:
448,192,24026,1,0,0:0:0:0:
64,192,24163,1,0,0:0:0:0:
64,192,24266,1,0,0:0:0:0:
192,192,24399,1,0,0:0:0:0:
320,192,24506,1,0,0:0:0:0:
448,192,24506,1,0,0:0:0:0:
192,192,24643,1,0,0:0:0:0:
192,192,24746,1,0,0:0:0:0:
448,192,24879,1,0,0:0:0:0:
192,192,24986,1,0,0:0:0:0:
64,192,24986,1,0,0:0:0:0:
448,192,25123,1,0,0:0:0:0:
448,192,25226,1,0,0:0:0:0:
64,192,25359,1,0,0:0:0:0:
320,192,25466,1,0,0:0:0:0:
448,192,25466,1,0,0:0:0:0:
64,192,25603,1,0,0:0:0:0:
64,192,25706,1,0,0:0:0:0:
320,192,25839,1,0,0:0:0:0:
192,192,25946,1,0,0:0:0:0:
64,192,25946,1,0,0:0:0:0:
320,192,26083,1,0,0:0:0:0:
320,192,26186,1,0,0:0:0:0:
192,192,26319,1,0,0:0:0:0:
448,192,26426,1,0,0:0:0:0:
320,192,26426,1,0,0:0:0:0:
192,192,26563,1,0,0:0:0:0:
192,192,26666,1,0,0:0:0:0:
448,192,26799,1,0,0:0:0:0:
192,192,26906,1,0,0:0:0:0:
64,192,26906,1,0,0:0:0:0:
448,192,27043,1,0,0:0:0:0:
448,192,27146,1,0,0:0:0:0:
320,192,27279,1,0,0:0:0:0:
192,192,27386,1,0,0:0:0:0:
64,192,27386,1,0,0:0:0:0:
320,192,27523,1,0,0:0:0:0:
64,192,27626,1,0,0:0:0:0:
320,192,27626,1,0,0:0:0:0:
192,192,27759,1,0,0:0:0:0:
320,192,27866,1,0,0:0:0:0:
448,192,27866,1,0,0:0:0:0:
320,192,27986,1,0,0:0:0:0:
448,192,28106,1,0,0:0:0:0:
64,192,28106,1,0,0:0:0:0:
64,192,28226,1,0,0:0:0:0:
192,192,28346,1,0,0:0:0:0:
320,192,28346,1,0,0:0:0:0:
192,192,28466,1,0,0:0:0:0:
320,192,28586,1,0,0:0:0:0:
448,192,28586,1,0,0:0:0:0:
320,192,28706,1,0,0:0:0:0:
64,192,28826,1,0,0:0:0:0:
192,192,28826,1,0,0:0:0:0:
64,192,28946,1,0,0:0:0:0:
192,192,29066,1,0,0:0:0:0:
448,192,29066,1,0,0:0:0:0:
448,192,29186,1,0,0:0:0:0:
320,192,29306,1,0,0:0:0:0:
192,192,29306,1,0,0:0:0:0:
320,192,29426,1,0,0:0:0:0:
64,192,29546,1,0,0:0:0:0:
448,192,29546,1,0,0:0:0:0:
64,192,29666,1,0,0:0:0:0:
320,192,29786,1,0,0:0:0:0:
448,192,29786,1,0,0:0:0:0:
192,192,29786,1,0,0:0:0:0:
64,192,29906,1,0,0:0:0:0:
448,192,30026,1,0,0:0:0:0:
64,192,30146,1,0,0:0:0:0:
192,192,30206,1,0,0:0:0:0:
320,192,30266,1,0,0:0:0:0:
192,192,30386,1,0,0:0:0:0:
448,192,30506,1,0,0:0:0:0:
320,192,30566,1,0,0:0:0:0:
64,192,30626,1,0,0:0:0:0:
448,192,30686,1,0,0:0:0:0:
192,192,30746,1,0,0:0:0:0:
320,192,30786,1,0,0:0:0:0:
448,192,30866,1,0,0:0:0:0:
64,192,30986,1,0,0:0:0:0:
320,192,31106,1,0,0:0:0:0:
192,192,31226,1,0,0:0:0:0:
448,192,31346,1,0,0:0:0:0:
192,192,31466,1,0,0:0:0:0:
64,192,31526,1,0,0:0:0:0:
448,192,31586,1,0,0:0:0:0:
192,192,31646,1,0,0:0:0:0:
320,192,31706,1,0,0:0:0:0:
448,192,31706,1,0,0:0:0:0:
320,192,31826,1,0,0:0:0:0:
64,192,31826,1,0,0:0:0:0:
64,192,32186,1,0,0:0:0:0:
192,192,32186,1,0,0:0:0:0:
448,192,32306,1,0,0:0:0:0:
192,192,32366,1,0,0:0:0:0:
320,192,32426,1,0,0:0:0:0:
448,192,32426,1,0,0:0:0:0:
64,192,32546,1,0,0:0:0:0:
320,192,32606,1,0,0:0:0:0:
192,192,32666,1,0,0:0:0:0:
64,192,32666,1,0,0:0:0:0:
448,192,32706,1,0,0:0:0:0:
320,192,32746,1,0,0:0:0:0:
192,192,32786,1,0,0:0:0:0:
64,192,32906,1,0,0:0:0:0:
448,192,32906,1,0,0:0:0:0:
192,192,32946,1,0,0:0:0:0:
320,192,32986,1,0,0:0:0:0:
64,192,33146,1,0,0:0:0:0:
448,192,33146,1,0,0:0:0:0:
320,192,33266,1,0,0:0:0:0:
192,192,33306,1,0,0:0:0:0:
64,192,33386,1,0,0:0:0:0:
320,192,33386,1,0,0:0:0:0:
448,192,33446,1,0,0:0:0:0:
192,192,33506,1,0,0:0:0:0:
64,192,33626,1,0,0:0:0:0:
192,192,33626,1,0,0:0:0:0:
64,192,33746,1,0,0:0:0:0:
448,192,33746,1,0,0:0:0:0:
448,192,34106,1,0,0:0:0:0:
320,192,34106,1,0,0:0:0:0:
192,192,34226,1,0,0:0:0:0:
448,192,34286,1,0,0:0:0:0:
320,192,34346,1,0,0:0:0:0:
64,192,34346,1,0,0:0:0:0:
64,192,34466,1,0,0:0:0:0:
192,192,34526,1,0,0:0:0:0:
320,192,34586,1,0,0:0:0:0:
448,192,34586,1,0,0:0:0:0:
192,192,34626,1,0,0:0:0:0:
64,192,34666,1,0,0:0:0:0:
448,192,34706,1,0,0:0:0:0:
320,192,34746,1,0,0:0:0:0:
64,192,34799,1,0,0:0:0:0:
192,192,34852,1,0,0:0:0:0:
448,192,34906,1,0,0:0:0:0:
320,192,35066,1,0,0:0:0:0:
64,192,35066,1,0,0:0:0:0:
448,192,35186,1,0,0:0:0:0:
320,192,35226,1,0,0:0:0:0:
192,192,35306,1,0,0:0:0:0:
64,192,35306,1,0,0:0:0:0:
448,192,35346,1,0,0:0:0:0:
192,192,35426,1,0,0:0:0:0:
320,192,35546,1,0,0:0:0:0:
448,192,35546,1,0,0:0:0:0:
64,192,35666,1,0,0:0:0:0:
320,192,35666,1,0,0:0:0:0:
64,192,36026,1,0,0:0:0:0:
448,192,36026,1,0,0:0:0:0:
320,192,36146,1,0,0:0:0:0:
192,192,36206,1,0,0:0:0:0:
64,192,36266,1,0,0:0:0:0:
320,192,36266,1,0,0:0:0:0:
192,192,36386,1,0,0:0:0:0:
320,192,36446,1,0,0:0:0:0:
192,192,36506,1,0,0:0:0:0:
64,192,36506,1,0,0:0:0:0:
448,192,36546,1,0,0:0:0:0:
320,192,36586,1,0,0:0:0:0:
64,192,36626,1,0,0:0:0:0:
192,192,36666,1,0,0:0:0:0:
448,192,36719,1,0,0:0:0:0:
320,192,36772,1,0,0:0:0:0:
64,192,36826,1,0,0:0:0:0:
320,192,36986,1,0,0:0:0:0:
448,192,36986,1,0,0:0:0:0:
192,192,37106,1,0,0:0:0:0:
448,192,37146,1,0,0:0:0:0:
320,192,37226,1,0,0:0:0:0:
64,192,37226,1,0,0:0:0:0:
192,192,37286,1,0,0:0:0:0:
320,192,37346,1,0,0:0:0:0:
64,192,37466,1,0,0:0:0:0:
192,192,37466,1,0,0:0:0:0:
64,192,37586,1,0,0:0:0:0:
448,192,37586,1,0,0:0:0:0:
192,192,37946,1,0,0:0:0:0:
448,192,37946,1,0,0:0:0:0:
64,192,38066,1,0,0:0:0:0:
192,192,38126,1,0,0:0:0:0:
320,192,38186,1,0,0:0:0:0:
448,192,38186,1,0,0:0:0:0:
320,192,38266,1,0,0:0:0:0:
192,192,38306,1,0,0:0:0:0:
64,192,38426,1,0,0:0:0:0:
192,192,38426,1,0,0:0:0:0:
192,192,38506,1,0,0:0:0:0:
320,192,38546,1,0,0:0:0:0:
64,192,38666,1,0,0:0:0:0:
448,192,38666,1,0,0:0:0:0:
320,192,38706,1,0,0:0:0:0:
192,192,38746,1,0,0:0:0:0:
448,192,38906,1,0,0:0:0:0:
64,192,38906,1,0,0:0:0:0:
192,192,38959,1,0,0:0:0:0:
64,192,39012,1,0,0:0:0:0:
192,192,39146,1,0,0:0:0:0:
448,192,39146,1,0,0:0:0:0:
320,192,39186,1,0,0:0:0:0:
64,192,39266,1,0,0:0:0:0:
192,192,39346,1,0,0:0:0:0:
320,192,39386,1,0,0:0:0:0:
448,192,39386,1,0,0:0:0:0:
64,192,39506,1,0,0:0:0:0:
448,192,39506,1,0,0:0:0:0:
64,192,39866,1,0,0:0:0:0:
320,192,39866,1,0,0:0:0:0:
192,192,39986,1,0,0:0:0:0:
448,192,40046,1,0,0:0:0:0:
320,192,40106,1,0,0:0:0:0:
64,192,40106,1,0,0:0:0:0:
192,192,40166,1,0,0:0:0:0:
448,192,40226,1,0,0:0:0:0:
320,192,40346,1,0,0:0:0:0:
64,192,40346,1,0,0:0:0:0:
448,192,40386,1,0,0:0:0:0:
192,192,40426,1,0,0:0:0:0:
64,192,40466,1,0,0:0:0:0:
320,192,40506,1,0,0:0:0:0:
192,192,40559,1,0,0:0:0:0:
448,192,40612,1,0,0:0:0:0:
320,192,40666,1,0,0:0:0:0:
64,192,40826,1,0,0:0:0:0:
192,192,40826,1,0,0:0:0:0:
448,192,40946,1,0,0:0:0:0:
192,192,40986,1,0,0:0:0:0:
320,192,41066,1,0,0:0:0:0:
64,192,41066,1,0,0:0:0:0:
448,192,41126,1,0,0:0:0:0:
320,192,41186,1,0,0:0:0:0:
192,192,41306,1,0,0:0:0:0:
64,192,41306,1,0,0:0:0:0:
448,192,41426,1,0,0:0:0:0:
192,192,41426,1,0,0:0:0:0:
64,192,41786,1,0,0:0:0:0:
448,192,41786,1,0,0:0:0:0:
320,192,41906,1,0,0:0:0:0:
64,192,41966,1,0,0:0:0:0:
192,192,42026,1,0,0:0:0:0:
448,192,42026,1,0,0:0:0:0:
320,192,42086,1,0,0:0:0:0:
64,192,42146,1,0,0:0:0:0:
320,192,42266,1,0,0:0:0:0:
448,192,42266,1,0,0:0:0:0:
64,192,42306,1,0,0:0:0:0:
192,192,42346,1,0,0:0:0:0:
448,192,42386,1,0,0:0:0:0:
64,192,42426,1,0,0:0:0:0:
320,192,42479,1,0,0:0:0:0:
192,192,42532,1,0,0:0:0:0:
448,192,42586,1,0,0:0:0:0:
192,192,42746,1,0,0:0:0:0:
64,192,42746,1,0,0:0:0:0:
320,192,42866,1,0,0:0:0:0:
192,192,42906,1,0,0:0:0:0:
64,192,42986,1,0,0:0:0:0:
320,192,42986,1,0,0:0:0:0:
192,192,43046,1,0,0:0:0:0:
448,192,43106,1,0,0:0:0:0:
192,192,43226,1,0,0:0:0:0:
64,192,43226,1,0,0:0:0:0:
320,192,43306,1,0,0:0:0:0:
448,192,43386,1,0,0:0:0:0:
64,192,43466,1,0,0:0:0:0:
192,192,43546,1,0,0:0:0:0:
448,192,43626,1,0,0:0:0:0:
64,192,43706,1,0,0:0:0:0:
320,192,43706,1,0,0:0:0:0:
192,192,43786,1,0,0:0:0:0:
448,192,43866,1,0,0:0:0:0:
320,192,43946,1,0,0:0:0:0:
64,192,44026,1,0,0:0:0:0:
448,192,44106,1,0,0:0:0:0:
192,192,44186,1,0,0:0:0:0:
64,192,44186,1,0,0:0:0:0:
320,192,44266,1,0,0:0:0:0:
448,192,44346,1,0,0:0:0:0:
192,192,44426,1,0,0:0:0:0:
320,192,44506,1,0,0:0:0:0:
64,192,44586,1,0,0:0:0:0:
448,192,44666,1,0,0:0:0:0:
192,192,44666,1,0,0:0:0:0:
320,192,44746,1,0,0:0:0:0:
192,192,44826,1,0,0:0:0:0:
64,192,44906,1,0,0:0:0:0:
448,192,44986,1,0,0:0:0:0:
320,192,45066,1,0,0:0:0:0:
64,192,45146,1,0,0:0:0:0:
448,192,45146,1,0,0:0:0:0:
192,192,45266,1,0,0:0:0:0:
320,192,45386,1,0,0:0:0:0:
64,192,45386,1,0,0:0:0:0:
64,192,45506,1,0,0:0:0:0:
320,192,45626,1,0,0:0:0:0:
448,192,45626,1,0,0:0:0:0:
192,192,45746,1,0,0:0:0:0:
448,192,45866,1,0,0:0:0:0:
64,192,45866,1,0,0:0:0:0:
448,192,45986,1,0,0:0:0:0:
320,192,46106,1,0,0:0:0:0:
64,192,46106,1,0,0:0:0:0:
192,192,46226,1,0,0:0:0:0:
320,192,46346,1,0,0:0:0:0:
448,192,46346,1,0,0:0:0:0:
320,192,46466,1,0,0:0:0:0:
192,192,46586,1,0,0:0:0:0:
64,192,46586,1,0,0:0:0:0:
320,192,46706,1,0,0:0:0:0:
448,192,46706,1,0,0:0:0:0:
192,192,46826,1,0,0:0:0:0:
64,192,46826,1,0,0:0:0:0:
320,192,46886,1,0,0:0:0:0:
192,192,46946,1,0,0:0:0:0:
320,192,47006,1,0,0:0:0:0:
192,192,47066,1,0,0:0:0:0:
64,192,47066,1,0,0:0:0:0:
448,192,47066,1,0,0:0:0:0:
320,192,47186,1,0,0:0:0:0:
448,192,47186,1,0,0:0:0:0:
64,192,47306,1,0,0:0:0:0:
320,192,47426,1,0,0:0:0:0:
192,192,47546,1,0,0:0:0:0:
64,192,47546,1,0,0:0:0:0:
448,192,47666,1,0,0:0:0:0:
192,192,47726,1,0,0:0:0:0:
320,192,47786,1,0,0:0:0:0:
64,192,47786,1,0,0:0:0:0:
448,192,47866,1,0,0:0:0:0:
320,192,47946,1,0,0:0:0:0:
192,192,48026,1,0,0:0:0:0:
64,192,48026,1,0,0:0:0:0:
448,192,48086,1,0,0:0:0:0:
64,192,48146,1,0,0:0:0:0:
192,192,48206,1,0,0:0:0:0:
320,192,48266,1,0,0:0:0:0:
448,192,48266,1,0,0:0:0:0:
192,192,48426,1,0,0:0:0:0:
64,192,48506,1,0,0:0:0:0:
448,192,48506,1,0,0:0:0:0:
320,192,48546,1,0,0:0:0:0:
192,192,48626,1,0,0:0:0:0:
320,192,48666,1,0,0:0:0:0:
64,192,48746,1,0,0:0:0:0:
192,192,48746,1,0,0:0:0:0:
448,192,48806,1,0,0:0:0:0:
64,192,48866,1,0,0:0:0:0:
192,192,48926,1,0,0:0:0:0:
320,192,48986,1,0,0:0:0:0:
448,192,48986,1,0,0:0:0:0:
320,192,49106,1,0,0:0:0:0:
64,192,49106,1,0,0:0:0:0:
192,192,49226,1,0,0:0:0:0:
448,192,49346,1,0,0:0:0:0:
192,192,49466,1,0,0:0:0:0:
64,192,49466,1,0,0:0:0:0:
320,192,49586,1,0,0:0:0:0:
192,192,49646,1,0,0:0:0:0:
64,192,49706,1,0,0:0:0:0:
448,192,49706,1,0,0:0:0:0:
192,192,49786,1,0,0:0:0:0:
320,192,49866,1,0,0:0:0:0:
192,192,49946,1,0,0:0:0:0:
448,192,49946,1,0,0:0:0:0:
192,192,50026,1,0,0:0:0:0:
320,192,50066,1,0,0:0:0:0:
448,192,50186,1,0,0:0:0:0:
64,192,50186,1,0,0:0:0:0:
192,192,50346,1,0,0:0:0:0:
320,192,50426,1,0,0:0:0:0:
64,192,50426,1,0,0:0:0:0:
320,192,50506,1,0,0:0:0:0:
192,192,50546,1,0,0:0:0:0:
64,192,50666,1,0,0:0:0:0:
448,192,50666,1,0,0:0:0:0:
320,192,50706,1,0,0:0:0:0:
192,192,50786,1,0,0:0:0:0:
448,192,50866,1,0,0:0:0:0:
192,192,50906,1,0,0:0:0:0:
64,192,50906,1,0,0:0:0:0:
320,192,51026,1,0,0:0:0:0:
64,192,51026,1,0,0:0:0:0:
448,192,51146,1,0,0:0:0:0:
192,192,51266,1,0,0:0:0:0:
320,192,51386,1,0,0:0:0:0:
448,192,51386,1,0,0:0:0:0:
64,192,51506,1,0,0:0:0:0:
320,192,51566,1,0,0:0:0:0:
192,192,51626,1,0,0:0:0:0:
448,192,51626,1,0,0:0:0:0:
64,192,51706,1,0,0:0:0:0:
320,192,51786,1,0,0:0:0:0:
192,192,51866,1,0,0:0:0:0:
64,192,51866,1,0,0:0:0:0:
448,192,51906,1,0,0:0:0:0:
320,192,51946,1,0,0:0:0:0:
192,192,51986,1,0,0:0:0:0:
320,192,52106,1,0,0:0:0:0:
448,192,52106,1,0,0:0:0:0:
64,192,52146,1,0,0:0:0:0:
192,192,52186,1,0,0:0:0:0:
320,192,52226,1,0,0:0:0:0:
64,192,52346,1,0,0:0:0:0:
448,192,52346,1,0,0:0:0:0:
320,192,52386,1,0,0:0:0:0:
192,192,52466,1,0,0:0:0:0:
320,192,52506,1,0,0:0:0:0:
64,192,52586,1,0,0:0:0:0:
448,192,52586,1,0,0:0:0:0:
320,192,52646,1,0,0:0:0:0:
192,192,52706,1,0,0:0:0:0:
320,192,52826,1,0,0:0:0:0:
448,192,52826,1,0,0:0:0:0:
448,192,52946,1,0,0:0:0:0:
64,192,52946,1,0,0:0:0:0:
192,192,53066,1,0,0:0:0:0:
192,192,53306,1,0,0:0:0:0:
64,192,53306,1,0,0:0:0:0:
320,192,53426,1,0,0:0:0:0:
192,192,53546,1,0,0:0:0:0:
448,192,53666,1,0,0:0:0:0:
192,192,53786,1,0,0:0:0:0:
64,192,53786,1,0,0:0:0:0:
320,192,53906,1,0,0:0:0:0:
192,192,54026,1,0,0:0:0:0:
448,192,54146,1,0,0:0:0:0:
192,192,54266,1,0,0:0:0:0:
64,192,54266,1,0,0:0:0:0:
320,192,54386,1,0,0:0:0:0:
64,192,54506,1,0,0:0:0:0:
448,192,54506,1,0,0:0:0:0:
192,192,54586,1,0,0:0:0:0:
320,192,54666,1,0,0:0:0:0:
64,192,54746,1,0,0:0:0:0:
192,192,54746,1,0,0:0:0:0:
64,192,54866,1,0,0:0:0:0:
448,192,54866,1,0,0:0:0:0:
320,192,54986,1,0,0:0:0:0:
192,192,55106,1,0,0:0:0:0:
320,192,55226,1,0,0:0:0:0:
64,192,55226,1,0,0:0:0:0:
448,192,55346,1,0,0:0:0:0:
320,192,55406,1,0,0:0:0:0:
192,192,55466,1,0,0:0:0:0:
64,192,55466,1,0,0:0:0:0:
448,192,55546,1,0,0:0:0:0:
192,192,55626,1,0,0:0:0:0:
448,192,55706,1,0,0:0:0:0:
320,192,55706,1,0,0:0:0:0:
64,192,55766,1,0,0:0:0:0:
448,192,55826,1,0,0:0:0:0:
320,192,55886,1,0,0:0:0:0:
64,192,55946,1,0,0:0:0:0:
192,192,55946,1,0,0:0:0:0:
192,192,56106,1,0,0:0:0:0:
448,192,56186,1,0,0:0:0:0:
64,192,56186,1,0,0:0:0:0:
320,192,56226,1,0,0:0:0:0:
192,192,56306,1,0,0:0:0:0:
320,192,56346,1,0,0:0:0:0:
64,192,56426,1,0,0:0:0:0:
192,192,56426,1,0,0:0:0:0:
448,192,56486,1,0,0:0:0:0:
320,192,56546,1,0,0:0:0:0:
64,192,56606,1,0,0:0:0:0:
320,192,56666,1,0,0:0:0:0:
448,192,56666,1,0,0:0:0:0:
448,192,56786,1,0,0:0:0:0:
192,192,56786,1,0,0:0:0:0:
320,192,56906,1,0,0:0:0:0:
64,192,57026,1,0,0:0:0:0:
320,192,57146,1,0,0:0:0:0:
448,192,57146,1,0,0:0:0:0:
192,192,57266,1,0,0:0:0:0:
320,192,57326,1,0,0:0:0:0:
448,192,57386,1,0,0:0:0:0:
64,192,57386,1,0,0:0:0:0:
320,192,57466,1,0,0:0:0:0:
192,192,57546,1,0,0:0:0:0:
320,192,57626,1,0,0:0:0:0:
64,192,57626,1,0,0:0:0:0:
320,192,57706,1,0,0:0:0:0:
192,192,57746,1,0,0:0:0:0:
64,192,57866,1,0,0:0:0:0:
448,192,57866,1,0,0:0:0:0:
320,192,58026,1,0,0:0:0:0:
192,192,58106,1,0,0:0:0:0:
448,192,58106,1,0,0:0:0:0:
192,192,58186,1,0,0:0:0:0:
320,192,58226,1,0,0:0:0:0:
448,192,58346,1,0,0:0:0:0:
64,192,58346,1,0,0:0:0:0:
192,192,58386,1,0,0:0:0:0:
320,192,58466,1,0,0:0:0:0:
64,192,58546,1,0,0:0:0:0:
320,192,58586,1,0,0:0:0:0:
448,192,58586,1,0,0:0:0:0:
64,192,58826,1,0,0:0:0:0:
448,192,58946,1,0,0:0:0:0:
192,192,59066,1,0,0:0:0:0:
64,192,59066,1,0,0:0:0:0:
320,192,59186,1,0,0:0:0:0:
192,192,59306,1,0,0:0:0:0:
320,192,59546,1,0,0:0:0:0:
448,192,59786,1,0,0:0:0:0:
64,192,59906,1,0,0:0:0:0:
320,192,60026,1,0,0:0:0:0:
448,192,60026,1,0,0:0:0:0:
192,192,60146,1,0,0:0:0:0:
320,192,60266,1,0,0:0:0:0:
192,192,60506,1,0,0:0:0:0:
64,192,60506,1,0,0:0:0:0:
448,192,60746,1,0,0:0:0:0:
192,192,60866,1,0,0:0:0:0:
320,192,60986,1,0,0:0:0:0:
448,192,60986,1,0,0:0:0:0:
64,192,61226,1,0,0:0:0:0:
320,192,61346,1,0,0:0:0:0:
192,192,61466,1,0,0:0:0:0:
64,192,61466,1,0,0:0:0:0:
448,192,61706,1,0,0:0:0:0:
320,192,61826,1,0,0:0:0:0:
192,192,61946,1,0,0:0:0:0:
64,192,61946,1,0,0:0:0:0:
320,192,62026,1,0,0:0:0:0:
192,192,62106,1,0,0:0:0:0:
64,192,62186,1,0,0:0:0:0:
320,192,62186,1,0,0:0:0:0:
448,192,62186,1,0,0:0:0:0:
192,192,62426,1,0,0:0:0:0:
64,192,62426,1,0,0:0:0:0:
448,192,62426,1,0,0:0:0:0:
320,192,62486,1,0,0:0:0:0:
448,192,62546,1,0,0:0:0:0:
64,192,62606,1,0,0:0:0:0:
192,192,62666,1,0,0:0:0:0:
448,192,62726,1,0,0:0:0:0:
64,192,62786,1,0,0:0:0:0:
320,192,62846,1,0,0:0:0:0:
192,192,62906,1,0,0:0:0:0:
64,192,62906,1,0,0:0:0:0:
320,192,62966,1,0,0:0:0:0:
448,192,63026,1,0,0:0:0:0:
192,192,63086,1,0,0:0:0:0:
320,192,63146,1,0,0:0:0:0:
64,192,63206,1,0,0:0:0:0:
192,192,63266,1,0,0:0:0:0:
320,192,63326,1,0,0:0:0:0:
448,192,63386,1,0,0:0:0:0:
64,192,63386,1,0,0:0:0:0:
320,192,63446,1,0,0:0:0:0:
192,192,63506,1,0,0:0:0:0:
448,192,63566,1,0,0:0:0:0:
320,192,63626,1,0,0:0:0:0:
64,192,63686,1,0,0:0:0:0:
448,192,63746,1,0,0:0:0:0:
192,192,63806,1,0,0:0:0:0:
64,192,63866,1,0,0:0:0:0:
320,192,63866,1,0,0:0:0:0:
448,192,63926,1,0,0:0:0:0:
192,192,63986,1,0,0:0:0:0:
64,192,64046,1,0,0:0:0:0:
320,192,64106,1,0,0:0:0:0:
448,192,64106,1,0,0:0:0:0:
448,192,64226,1,0,0:0:0:0:
64,192,64226,1,0,0:0:0:0:
64,192,64346,1,0,0:0:0:0:
192,192,64346,1,0,0:0:0:0:
320,192,64346,1,0,0:0:0:0:
192,192,64466,1,0,0:0:0:0:
448,192,64466,1,0,0:0:0:0:
320,192,64586,1,0,0:0:0:0:
192,192,64706,1,0,0:0:0:0:
320,192,64826,1,0,0:0:0:0:
448,192,64826,1,0,0:0:0:0:
64,192,64946,1,0,0:0:0:0:
448,192,65066,1,0,0:0:0:0:
320,192,65100,1,0,0:0:0:0:
192,192,65168,1,0,0:0:0:0:
64,192,65306,1,0,0:0:0:0:
192,192,65306,1,0,0:0:0:0:
192,192,65386,1,0,0:0:0:0:
320,192,65426,1,0,0:0:0:0:
448,192,65546,1,0,0:0:0:0:
64,192,65546,1,0,0:0:0:0:
192,192,65706,1,0,0:0:0:0:
448,192,65786,1,0,0:0:0:0:
320,192,65786,1,0,0:0:0:0:
320,192,65866,1,0,0:0:0:0:
192,192,65906,1,0,0:0:0:0:
64,192,66026,1,0,0:0:0:0:
448,192,66026,1,0,0:0:0:0:
320,192,66066,1,0,0:0:0:0:
192,192,66146,1,0,0:0:0:0:
320,192,66266,1,0,0:0:0:0:
448,192,66266,1,0,0:0:0:0:
64,192,66266,1,0,0:0:0:0:
192,192,66326,1,0,0:0:0:0:
64,192,66386,1,0,0:0:0:0:
448,192,66446,1,0,0:0:0:0:
320,192,66506,1,0,0:0:0:0:
64,192,66566,1,0,0:0:0:0:
448,192,66626,1,0,0:0:0:0:
192,192,66686,1,0,0:0:0:0:
320,192,66746,1,0,0:0:0:0:
448,192,66746,1,0,0:0:0:0:
192,192,66806,1,0,0:0:0:0:
64,192,66866,1,0,0:0:0:0:
320,192,66926,1,0,0:0:0:0:
192,192,66986,1,0,0:0:0:0:
448,192,67046,1,0,0:0:0:0:
320,192,67106,1,0,0:0:0:0:
192,192,67166,1,0,0:0:0:0:
64,192,67226,1,0,0:0:0:0:
448,192,67226,1,0,0:0:0:0:
192,192,67286,1,0,0:0:0:0:
320,192,67346,1,0,0:0:0:0:
64,192,67406,1,0,0:0:0:0:
192,192,67466,1,0,0:0:0:0:
448,192,67526,1,0,0:0:0:0:
64,192,67586,1,0,0:0:0:0:
320,192,67646,1,0,0:0:0:0:
448,192,67706,1,0,0:0:0:0:
192,192,67706,1,0,0:0:0:0:
64,192,67766,1,0,0:0:0:0:
320,192,67826,1,0,0:0:0:0:
448,192,67886,1,0,0:0:0:0:
192,192,67946,1,0,0:0:0:0:
64,192,67946,1,0,0:0:0:0:
64,192,68066,1,0,0:0:0:0:
448,192,68066,1,0,0:0:0:0:
448,192,68186,1,0,0:0:0:0:
320,192,68186,1,0,0:0:0:0:
192,192,68186,1,0,0:0:0:0:
64,192,68306,1,0,0:0:0:0:
320,192,68306,1,0,0:0:0:0:
192,192,68426,1,0,0:0:0:0:
320,192,68486,1,0,0:0:0:0:
448,192,68546,1,0,0:0:0:0:
64,192,68666,1,0,0:0:0:0:
192,192,68666,1,0,0:0:0:0:
448,192,68726,1,0,0:0:0:0:
320,192,68786,1,0,0:0:0:0:
64,192,68906,1,0,0:0:0:0:
192,192,68966,1,0,0:0:0:0:
64,192,69026,1,0,0:0:0:0:
320,192,69086,1,0,0:0:0:0:
64,192,69146,1,0,0:0:0:0:
448,192,69146,1,0,0:0:0:0:
192,192,69206,1,0,0:0:0:0:
320,192,69266,1,0,0:0:0:0:
64,192,69386,1,0,0:0:0:0:
448,192,69386,1,0,0:0:0:0:
320,192,69446,1,0,0:0:0:0:
192,192,69506,1,0,0:0:0:0:
64,192,69626,1,0,0:0:0:0:
448,192,69626,1,0,0:0:0:0:
192,192,69686,1,0,0:0:0:0:
320,192,69746,1,0,0:0:0:0:
64,192,69866,1,0,0:0:0:0:
192,192,69866,1,0,0:0:0:0:
448,192,69866,1,0,0:0:0:0:
192,192,69986,1,0,0:0:0:0:
320,192,69986,1,0,0:0:0:0:
64,192,70106,1,0,0:0:0:0:
320,192,70106,1,0,0:0:0:0:
448,192,70106,1,0,0:0:0:0:
192,192,70166,1,0,0:0:0:0:
448,192,70226,1,0,0:0:0:0:
64,192,70286,1,0,0:0:0:0:
320,192,70346,1,0,0:0:0:0:
448,192,70406,1,0,0:0:0:0:
192,192,70466,1,0,0:0:0:0:
320,192,70526,1,0,0:0:0:0:
64,192,70586,1,0,0:0:0:0:
448,192,70586,1,0,0:0:0:0:
192,192,70646,1,0,0:0:0:0:
448,192,70706,1,0,0:0:0:0:
192,192,70766,1,0,0:0:0:0:
320,192,70826,1,0,0:0:0:0:
64,192,70886,1,0,0:0:0:0:
192,192,70946,1,0,0:0:0:0:
448,192,71006,1,0,0:0:0:0:
320,192,71066,1,0,0:0:0:0:
64,192,71066,1,0,0:0:0:0:
192,192,71126,1,0,0:0:0:0:
448,192,71186,1,0,0:0:0:0:
320,192,71246,1,0,0:0:0:0:
64,192,71306,1,0,0:0:0:0:
448,192,71366,1,0,0:0:0:0:
192,192,71426,1,0,0:0:0:0:
64,192,71486,1,0,0:0:0:0:
320,192,71546,1,0,0:0:0:0:
448,192,71546,1,0,0:0:0:0:
192,192,71606,1,0,0:0:0:0:
64,192,71666,1,0,0:0:0:0:
320,192,71726,1,0,0:0:0:0:
192,192,71786,1,0,0:0:0:0:
448,192,71786,1,0,0:0:0:0:
64,192,71906,1,0,0:0:0:0:
448,192,71906,1,0,0:0:0:0:
320,192,72026,1,0,0:0:0:0:
192,192,72026,1,0,0:0:0:0:
64,192,72026,1,0,0:0:0:0:
192,192,72146,1,0,0:0:0:0:
448,192,72146,1,0,0:0:0:0:
64,192,72266,1,0,0:0:0:0:
320,192,72386,1,0,0:0:0:0:
192,192,72506,1,0,0:0:0:0:
64,192,72506,1,0,0:0:0:0:
448,192,72626,1,0,0:0:0:0:
64,192,72746,1,0,0:0:0:0:
192,192,72780,1,0,0:0:0:0:
320,192,72848,1,0,0:0:0:0:
192,192,72986,1,0,0:0:0:0:
448,192,72986,1,0,0:0:0:0:
192,192,73066,1,0,0:0:0:0:
320,192,73106,1,0,0:0:0:0:
64,192,73226,1,0,0:0:0:0:
448,192,73226,1,0,0:0:0:0:
192,192,73386,1,0,0:0:0:0:
320,192,73466,1,0,0:0:0:0:
64,192,73466,1,0,0:0:0:0:
320,192,73546,1,0,0:0:0:0:
192,192,73586,1,0,0:0:0:0:
448,192,73706,1,0,0:0:0:0:
320,192,73706,1,0,0:0:0:0:
64,192,73746,1,0,0:0:0:0:
192,192,73826,1,0,0:0:0:0:
64,192,73946,1,0,0:0:0:0:
192,192,73946,1,0,0:0:0:0:
448,192,73946,1,0,0:0:0:0:
320,192,74006,1,0,0:0:0:0:
64,192,74066,1,0,0:0:0:0:
448,192,74126,1,0,0:0:0:0:
192,192,74186,1,0,0:0:0:0:
64,192,74246,1,0,0:0:0:0:
320,192,74306,1,0,0:0:0:0:
192,192,74366,1,0,0:0:0:0:
448,192,74426,1,0,0:0:0:0:
64,192,74426,1,0,0:0:0:0:
320,192,74486,1,0,0:0:0:0:
64,192,74546,1,0,0:0:0:0:
320,192,74606,1,0,0:0:0:0:
192,192,74666,1,0,0:0:0:0:
448,192,74726,1,0,0:0:0:0:
320,192,74786,1,0,0:0:0:0:
64,192,74846,1,0,0:0:0:0:
192,192,74906,1,0,0:0:0:0:
448,192,74906,1,0,0:0:0:0:
320,192,74966,1,0,0:0:0:0:
64,192,75026,1,0,0:0:0:0:
192,192,75086,1,0,0:0:0:0:
448,192,75146,1,0,0:0:0:0:
64,192,75206,1,0,0:0:0:0:
320,192,75266,1,0,0:0:0:0:
448,192,75326,1,0,0:0:0:0:
192,192,75386,1,0,0:0:0:0:
64,192,75386,1,0,0:0:0:0:
320,192,75446,1,0,0:0:0:0:
448,192,75506,1,0,0:0:0:0:
192,192,75566,1,0,0:0:0:0:
320,192,75626,1,0,0:0:0:0:
64,192,75626,1,0,0:0:0:0:
64,192,75866,1,0,0:0:0:0:
320,192,75866,1,0,0:0:0:0:
448,192,75866,1,0,0:0:0:0:
192,192,76106,1,0,0:0:0:0:
320,192,76346,1,0,0:0:0:0:
448,192,76346,1,0,0:0:0:0:
192,192,76466,1,0,0:0:0:0:
320,192,76586,1,0,0:0:0:0:
64,192,76706,1,0,0:0:0:0:
320,192,76826,1,0,0:0:0:0:
448,192,76826,1,0,0:0:0:0:
192,192,76946,1,0,0:0:0:0:
64,192,76946,1,0,0:0:0:0:
320,192,77066,1,0,0:0:0:0:
448,192,77066,1,0,0:0:0:0:
192,192,77306,1,0,0:0:0:0:
64,192,77306,1,0,0:0:0:0:
64,192,77546,1,0,0:0:0:0:
448,192,77546,1,0,0:0:0:0:
448,192,77786,1,0,0:0:0:0:
320,192,77786,1,0,0:0:0:0:
64,192,77786,1,0,0:0:0:0:
192,192,77846,1,0,0:0:0:0:
320,192,77906,1,0,0:0:0:0:
192,192,77966,1,0,0:0:0:0:
320,192,78026,1,0,0:0:0:0:
448,192,78086,1,0,0:0:0:0:
64,192,78146,1,0,0:0:0:0:
320,192,78206,1,0,0:0:0:0:
448,192,78266,1,0,0:0:0:0:
192,192,78266,1,0,0:0:0:0:
64,192,78326,1,0,0:0:0:0:
320,192,78386,1,0,0:0:0:0:
448,192,78446,1,0,0:0:0:0:
64,192,78506,1,0,0:0:0:0:
320,192,78566,1,0,0:0:0:0:
448,192,78626,1,0,0:0:0:0:
192,192,78686,1,0,0:0:0:0:
448,192,78746,1,0,0:0:0:0:
64,192,78746,1,0,0:0:0:0:
320,192,78806,1,0,0:0:0:0:
64,192,78866,1,0,0:0:0:0:
448,192,78926,1,0,0:0:0:0:
192,192,78986,1,0,0:0:0:0:
64,192,79046,1,0,0:0:0:0:
448,192,79106,1,0,0:0:0:0:
320,192,79166,1,0,0:0:0:0:
192,192,79226,1,0,0:0:0:0:
64,192,79226,1,0,0:0:0:0:
448,192,79286,1,0,0:0:0:0:
320,192,79346,1,0,0:0:0:0:
64,192,79406,1,0,0:0:0:0:
192,192,79466,1,0,0:0:0:0:
320,192,79466,1,0,0:0:0:0:
448,192,79586,1,0,0:0:0:0:
64,192,79586,1,0,0:0:0:0:
448,192,79706,1,0,0:0:0:0:
320,192,79706,1,0,0:0:0:0:
64,192,79706,1,0,0:0:0:0:
64,192,79946,1,0,0:0:0:0:
320,192,80006,1,0,0:0:0:0:
192,192,80066,1,0,0:0:0:0:
448,192,80126,1,0,0:0:0:0:
320,192,80186,1,0,0:0:0:0:
64,192,80186,1,0,0:0:0:0:
192,192,80246,1,0,0:0:0:0:
448,192,80306,1,0,0:0:0:0:
320,192,80366,1,0,0:0:0:0:
64,192,80426,1,0,0:0:0:0:
192,192,80486,1,0,0:0:0:0:
320,192,80546,1,0,0:0:0:0:
192,192,80606,1,0,0:0:0:0:
320,192,80666,1,0,0:0:0:0:
64,192,80666,1,0,0:0:0:0:
448,192,80726,1,0,0:0:0:0:
192,192,80786,1,0,0:0:0:0:
320,192,80846,1,0,0:0:0:0:
64,192,80906,1,0,0:0:0:0:
192,192,80966,1,0,0:0:0:0:
448,192,81026,1,0,0:0:0:0:
320,192,81086,1,0,0:0:0:0:
192,192,81146,1,0,0:0:0:0:
64,192,81146,1,0,0:0:0:0:
448,192,81206,1,0,0:0:0:0:
320,192,81266,1,0,0:0:0:0:
64,192,81326,1,0,0:0:0:0:
448,192,81386,1,0,0:0:0:0:
192,192,81386,1,0,0:0:0:0:
192,192,81506,1,0,0:0:0:0:
320,192,81506,1,0,0:0:0:0:
64,192,81626,1,0,0:0:0:0:
320,192,81626,1,0,0:0:0:0:
448,192,81626,1,0,0:0:0:0:
192,192,81866,1,0,0:0:0:0:
320,192,81926,1,0,0:0:0:0:
64,192,81986,1,0,0:0:0:0:
448,192,82046,1,0,0:0:0:0:
320,192,82106,1,0,0:0:0:0:
64,192,82106,1,0,0:0:0:0:
192,192,82166,1,0,0:0:0:0:
448,192,82226,1,0,0:0:0:0:
64,192,82286,1,0,0:0:0:0:
192,192,82346,1,0,0:0:0:0:
320,192,82406,1,0,0:0:0:0:
64,192,82466,1,0,0:0:0:0:
448,192,82526,1,0,0:0:0:0:
192,192,82586,1,0,0:0:0:0:
64,192,82586,1,0,0:0:0:0:
320,192,82646,1,0,0:0:0:0:
448,192,82706,1,0,0:0:0:0:
192,192,82766,1,0,0:0:0:0:
64,192,82826,1,0,0:0:0:0:
448,192,82886,1,0,0:0:0:0:
320,192,82946,1,0,0:0:0:0:
192,192,83006,1,0,0:0:0:0:
64,192,83066,1,0,0:0:0:0:
448,192,83066,1,0,0:0:0:0:
320,192,83126,1,0,0:0:0:0:
192,192,83186,1,0,0:0:0:0:
320,192,83246,1,0,0:0:0:0:
448,192,83306,1,0,0:0:0:0:
64,192,83306,1,0,0:0:0:0:
320,192,83426,1,0,0:0:0:0:
192,192,83426,1,0,0:0:0:0:
320,192,83546,1,0,0:0:0:0:
64,192,83546,1,0,0:0:0:0:
448,192,83786,1,0,0:0:0:0:
192,192,83906,1,0,0:0:0:0:
320,192,84026,1,0,0:0:0:0:
448,192,84026,1,0,0:0:0:0:
64,192,84146,1,0,0:0:0:0:
192,192,84266,1,0,0:0:0:0:
64,192,84506,1,0,0:0:0:0:
448,192,84506,1,0,0:0:0:0:
320,192,84546,1,0,0:0:0:0:
192,192,84586,1,0,0:0:0:0:
448,192,84746,1,0,0:0:0:0:
192,192,84806,1,0,0:0:0:0:
320,192,84866,1,0,0:0:0:0:
64,192,84986,1,0,0:0:0:0:
448,192,84986,1,0,0:0:0:0:
192,192,85026,1,0,0:0:0:0:
320,192,85066,1,0,0:0:0:0:
192,192,85226,1,0,0:0:0:0:
320,192,85226,1,0,0:0:0:0:
64,192,85466,1,0,0:0:0:0:
192,192,85466,1,0,0:0:0:0:
448,192,85466,1,0,0:0:0:0:
320,192,85526,1,0,0:0:0:0:
192,192,85586,1,0,0:0:0:0:
320,192,85646,1,0,0:0:0:0:
192,192,85706,1,0,0:0:0:0:
64,192,85766,1,0,0:0:0:0:
448,192,85826,1,0,0:0:0:0:
192,192,85886,1,0,0:0:0:0:
64,192,85946,1,0,0:0:0:0:
320,192,85946,1,0,0:0:0:0:
448,192,86006,1,0,0:0:0:0:
192,192,86066,1,0,0:0:0:0:
64,192,86126,1,0,0:0:0:0:
448,192,86186,1,0,0:0:0:0:
320,192,86246,1,0,0:0:0:0:
64,192,86306,1,0,0:0:0:0:
320,192,86366,1,0,0:0:0:0:
64,192,86426,1,0,0:0:0:0:
448,192,86426,1,0,0:0:0:0:
192,192,86486,1,0,0:0:0:0:
448,192,86546,1,0,0:0:0:0:
64,192,86606,1,0,0:0:0:0:
320,192,86666,1,0,0:0:0:0:
448,192,86726,1,0,0:0:0:0:
64,192,86786,1,0,0:0:0:0:
192,192,86846,1,0,0:0:0:0:
320,192,86906,1,0,0:0:0:0:
448,192,86906,1,0,0:0:0:0:
64,192,86966,1,0,0:0:0:0:
192,192,87026,1,0,0:0:0:0:
448,192,87086,1,0,0:0:0:0:
320,192,87146,1,0,0:0:0:0:
192,192,87146,1,0,0:0:0:0:
64,192,87266,1,0,0:0:0:0:
448,192,87266,1,0,0:0:0:0:
64,192,87386,1,0,0:0:0:0:
192,192,87386,1,0,0:0:0:0:
448,192,87386,1,0,0:0:0:0:
448,192,87626,1,0,0:0:0:0:
192,192,87686,1,0,0:0:0:0:
320,192,87746,1,0,0:0:0:0:
64,192,87806,1,0,0:0:0:0:
192,192,87866,1,0,0:0:0:0:
448,192,87866,1,0,0:0:0:0:
320,192,87926,1,0,0:0:0:0:
64,192,87986,1,0,0:0:0:0:
192,192,88046,1,0,0:0:0:0:
448,192,88106,1,0,0:0:0:0:
320,192,88166,1,0,0:0:0:0:
192,192,88226,1,0,0:0:0:0:
320,192,88286,1,0,0:0:0:0:
192,192,88346,1,0,0:0:0:0:
448,192,88346,1,0,0:0:0:0:
64,192,88406,1,0,0:0:0:0:
320,192,88466,1,0,0:0:0:0:
192,192,88526,1,0,0:0:0:0:
448,192,88586,1,0,0:0:0:0:
320,192,88646,1,0,0:0:0:0:
64,192,88706,1,0,0:0:0:0:
192,192,88766,1,0,0:0:0:0:
320,192,88826,1,0,0:0:0:0:
448,192,88826,1,0,0:0:0:0:
64,192,88886,1,0,0:0:0:0:
192,192,88946,1,0,0:0:0:0:
448,192,89006,1,0,0:0:0:0:
64,192,89066,1,0,0:0:0:0:
320,192,89066,1,0,0:0:0:0:
320,192,89186,1,0,0:0:0:0:
192,192,89186,1,0,0:0:0:0:
448,192,89306,1,0,0:0:0:0:
192,192,89306,1,0,0:0:0:0:
64,192,89306,1,0,0:0:0:0:
192,192,89546,1,0,0:0:0:0:
320,192,89666,1,0,0:0:0:0:
192,192,89786,1,0,0:0:0:0:
448,192,89906,1,0,0:0:0:0:
64,192,90026,1,0,0:0:0:0:
64,192,90266,1,0,0:0:0:0:
192,192,90506,1,0,0:0:0:0:
448,192,90626,1,0,0:0:0:0:
64,192,90746,1,0,0:0:0:0:
320,192,91106,1,0,0:0:0:0:
192,192,91226,1,0,0:0:0:0:
64,192,91226,1,0,0:0:0:0:
320,192,91466,1,0,0:0:0:0:
192,192,91586,1,0,0:0:0:0:
320,192,91706,1,0,0:0:0:0:
64,192,91826,1,0,0:0:0:0:
448,192,91946,1,0,0:0:0:0:
192,192,92186,1,0,0:0:0:0:
192,192,92306,1,0,0:0:0:0:
320,192,92426,1,0,0:0:0:0:
192,192,92666,1,0,0:0:0:0:
192,192,92786,1,0,0:0:0:0:
320,192,92906,1,0,0:0:0:0:
192,192,93146,1,0,0:0:0:0:
448,192,93266,1,0,0:0:0:0:
320,192,93386,1,0,0:0:0:0:
192,192,93626,1,0,0:0:0:0:
448,192,93746,1,0,0:0:0:0:
192,192,94346,1,0,0:0:0:0:
64,192,94346,1,0,0:0:0:0:
320,192,94466,1,0,0:0:0:0:
448,192,94466,1,0,0:0:0:0:
192,192,94586,1,0,0:0:0:0:
64,192,94586,1,0,0:0:0:0:
64,192,94826,1,0,0:0:0:0:
448,192,94826,1,0,0:0:0:0:
448,192,95066,1,0,0:0:0:0:
320,192,95066,1,0,0:0:0:0:
64,192,95066,1,0,0:0:0:0:
192,192,95186,1,0,0:0:0:0:
448,192,95546,1,0,0:0:0:0:
320,192,95666,1,0,0:0:0:0:
64,192,95786,1,0,0:0:0:0:
64,192,96026,1,0,0:0:0:0:
448,192,96026,1,0,0:0:0:0:
192,192,96086,1,0,0:0:0:0:
320,192,96146,1,0,0:0:0:0:
448,192,96266,1,0,0:0:0:0:
192,192,96326,1,0,0:0:0:0:
448,192,96506,1,0,0:0:0:0:
320,192,96506,1,0,0:0:0:0:
64,192,96566,1,0,0:0:0:0:
192,192,96626,1,0,0:0:0:0:
448,192,96686,1,0,0:0:0:0:
64,192,96746,1,0,0:0:0:0:
320,192,96806,1,0,0:0:0:0:
192,192,96866,1,0,0:0:0:0:
448,192,96926,1,0,0:0:0:0:
192,192,96986,1,0,0:0:0:0:
64,192,96986,1,0,0:0:0:0:
320,192,97106,1,0,0:0:0:0:
448,192,97466,1,0,0:0:0:0:
320,192,97466,1,0,0:0:0:0:
192,192,97586,1,0,0:0:0:0:
64,192,97706,1,0,0:0:0:0:
448,192,97946,1,0,0:0:0:0:
192,192,97946,1,0,0:0:0:0:
64,192,98006,1,0,0:0:0:0:
320,192,98066,1,0,0:0:0:0:
448,192,98186,1,0,0:0:0:0:
192,192,98246,1,0,0:0:0:0:
448,192,98426,1,0,0:0:0:0:
192,192,98426,1,0,0:0:0:0:
320,192,98486,1,0,0:0:0:0:
64,192,98666,1,0,0:0:0:0:
192,192,98726,1,0,0:0:0:0:
320,192,98786,1,0,0:0:0:0:
448,192,98786,1,0,0:0:0:0:
64,192,98906,1,0,0:0:0:0:
448,192,98906,1,0,0:0:0:0:
192,192,99026,1,0,0:0:0:0:
448,192,99386,1,0,0:0:0:0:
64,192,99386,1,0,0:0:0:0:
320,192,99506,1,0,0:0:0:0:
192,192,99626,1,0,0:0:0:0:
64,192,99866,1,0,0:0:0:0:
320,192,99866,1,0,0:0:0:0:
192,192,99926,1,0,0:0:0:0:
448,192,99986,1,0,0:0:0:0:
320,192,100106,1,0,0:0:0:0:
64,192,100166,1,0,0:0:0:0:
192,192,100346,1,0,0:0:0:0:
64,192,100346,1,0,0:0:0:0:
448,192,100406,1,0,0:0:0:0:
320,192,100466,1,0,0:0:0:0:
64,192,100526,1,0,0:0:0:0:
448,192,100586,1,0,0:0:0:0:
192,192,100646,1,0,0:0:0:0:
320,192,100706,1,0,0:0:0:0:
448,192,100766,1,0,0:0:0:0:
192,192,100826,1,0,0:0:0:0:
64,192,100826,1,0,0:0:0:0:
320,192,100946,1,0,0:0:0:0:
64,192,101306,1,0,0:0:0:0:
320,192,101306,1,0,0:0:0:0:
192,192,101426,1,0,0:0:0:0:
448,192,101546,1,0,0:0:0:0:
448,192,101786,1,0,0:0:0:0:
192,192,101786,1,0,0:0:0:0:
320,192,101846,1,0,0:0:0:0:
64,192,101906,1,0,0:0:0:0:
320,192,102026,1,0,0:0:0:0:
448,192,102086,1,0,0:0:0:0:
64,192,102266,1,0,0:0:0:0:
192,192,102266,1,0,0:0:0:0:
320,192,102326,1,0,0:0:0:0:
192,192,102386,1,0,0:0:0:0:
448,192,102386,1,0,0:0:0:0:
320,192,102506,1,0,0:0:0:0:
192,192,102566,1,0,0:0:0:0:
64,192,102626,1,0,0:0:0:0:
320,192,102626,1,0,0:0:0:0:
192,192,102746,1,0,0:0:0:0:
64,192,102746,1,0,0:0:0:0:
448,192,102866,1,0,0:0:0:0:
448,192,103226,1,0,0:0:0:0:
192,192,103226,1,0,0:0:0:0:
320,192,103346,1,0,0:0:0:0:
64,192,103466,1,0,0:0:0:0:
448,192,103706,1,0,0:0:0:0:
64,192,103706,1,0,0:0:0:0:
320,192,103766,1,0,0:0:0:0:
192,192,103826,1,0,0:0:0:0:
64,192,103946,1,0,0:0:0:0:
320,192,104006,1,0,0:0:0:0:
64,192,104186,1,0,0:0:0:0:
192,192,104186,1,0,0:0:0:0:
448,192,104246,1,0,0:0:0:0:
320,192,104306,1,0,0:0:0:0:
64,192,104366,1,0,0:0:0:0:
448,192,104426,1,0,0:0:0:0:
192,192,104486,1,0,0:0:0:0:
320,192,104546,1,0,0:0:0:0:
64,192,104606,1,0,0:0:0:0:
320,192,104666,1,0,0:0:0:0:
448,192,104666,1,0,0:0:0:0:
192,192,104786,1,0,0:0:0:0:
64,192,105146,1,0,0:0:0:0:
192,192,105146,1,0,0:0:0:0:
320,192,105266,1,0,0:0:0:0:
448,192,105386,1,0,0:0:0:0:
448,192,105626,1,0,0:0:0:0:
192,192,105626,1,0,0:0:0:0:
64,192,105686,1,0,0:0:0:0:
320,192,105746,1,0,0:0:0:0:
448,192,105866,1,0,0:0:0:0:
192,192,105926,1,0,0:0:0:0:
64,192,106106,1,0,0:0:0:0:
320,192,106106,1,0,0:0:0:0:
192,192,106166,1,0,0:0:0:0:
448,192,106346,1,0,0:0:0:0:
320,192,106406,1,0,0:0:0:0:
192,192,106466,1,0,0:0:0:0:
64,192,106466,1,0,0:0:0:0:
448,192,106586,1,0,0:0:0:0:
64,192,106586,1,0,0:0:0:0:
320,192,106706,1,0,0:0:0:0:
64,192,107066,1,0,0:0:0:0:
448,192,107066,1,0,0:0:0:0:
192,192,107186,1,0,0:0:0:0:
320,192,107306,1,0,0:0:0:0:
448,192,107546,1,0,0:0:0:0:
192,192,107546,1,0,0:0:0:0:
320,192,107606,1,0,0:0:0:0:
64,192,107666,1,0,0:0:0:0:
192,192,107786,1,0,0:0:0:0:
448,192,107846,1,0,0:0:0:0:
320,192,108026,1,0,0:0:0:0:
448,192,108026,1,0,0:0:0:0:
64,192,108086,1,0,0:0:0:0:
192,192,108146,1,0,0:0:0:0:
448,192,108206,1,0,0:0:0:0:
64,192,108266,1,0,0:0:0:0:
320,192,108326,1,0,0:0:0:0:
192,192,108386,1,0,0:0:0:0:
64,192,108446,1,0,0:0:0:0:
320,192,108506,1,0,0:0:0:0:
448,192,108506,1,0,0:0:0:0:
192,192,108626,1,0,0:0:0:0:
448,192,108986,1,0,0:0:0:0:
192,192,108986,1,0,0:0:0:0:
320,192,109106,1,0,0:0:0:0:
64,192,109226,1,0,0:0:0:0:
192,192,109466,1,0,0:0:0:0:
64,192,109466,1,0,0:0:0:0:
320,192,109526,1,0,0:0:0:0:
448,192,109586,1,0,0:0:0:0:
192,192,109706,1,0,0:0:0:0:
64,192,109766,1,0,0:0:0:0:
448,192,109946,1,0,0:0:0:0:
320,192,109946,1,0,0:0:0:0:
192,192,110006,1,0,0:0:0:0:
320,192,110066,1,0,0:0:0:0:
64,192,110066,1,0,0:0:0:0:
192,192,110186,1,0,0:0:0:0:
320,192,110246,1,0,0:0:0:0:
448,192,110306,1,0,0:0:0:0:
192,192,110306,1,0,0:0:0:0:
320,192,110426,1,0,0:0:0:0:
448,192,110426,1,0,0:0:0:0:
192,192,110546,1,0,0:0:0:0:
448,192,110906,1,0,0:0:0:0:
320,192,111026,1,0,0:0:0:0:
64,192,111146,1,0,0:0:0:0:
192,192,111386,1,0,0:0:0:0:
320,192,111426,1,0,0:0:0:0:
448,192,111466,1,0,0:0:0:0:
64,192,111626,1,0,0:0:0:0:
192,192,111866,1,0,0:0:0:0:
448,192,111926,1,0,0:0:0:0:
320,192,111986,1,0,0:0:0:0:
64,192,112046,1,0,0:0:0:0:
448,192,112106,1,0,0:0:0:0:
192,192,112166,1,0,0:0:0:0:
320,192,112226,1,0,0:0:0:0:
448,192,112286,1,0,0:0:0:0:
192,192,112346,1,0,0:0:0:0:
64,192,112346,1,0,0:0:0:0:
320,192,112466,1,0,0:0:0:0:
192,192,112826,1,0,0:0:0:0:
320,192,112946,1,0,0:0:0:0:
448,192,113066,1,0,0:0:0:0:
320,192,113306,1,0,0:0:0:0:
192,192,113346,1,0,0:0:0:0:
64,192,113386,1,0,0:0:0:0:
448,192,113546,1,0,0:0:0:0:
64,192,113786,1,0,0:0:0:0:
448,192,114026,1,0,0:0:0:0:
64,192,114266,1,0,0:0:0:0:
192,192,114266,1,0,0:0:0:0:
320,192,114386,1,0,0:0:0:0:
448,192,114746,1,0,0:0:0:0:
192,192,114866,1,0,0:0:0:0:
64,192,114986,1,0,0:0:0:0:
448,192,115226,1,0,0:0:0:0:
320,192,115266,1,0,0:0:0:0:
192,192,115306,1,0,0:0:0:0:
64,192,115466,1,0,0:0:0:0:
320,192,115706,1,0,0:0:0:0:
448,192,115766,1,0,0:0:0:0:
192,192,115826,1,0,0:0:0:0:
320,192,115886,1,0,0:0:0:0:
64,192,115946,1,0,0:0:0:0:
192,192,116006,1,0,0:0:0:0:
448,192,116066,1,0,0:0:0:0:
64,192,116126,1,0,0:0:0:0:
320,192,116186,1,0,0:0:0:0:
448,192,116186,1,0,0:0:0:0:
192,192,116306,1,0,0:0:0:0:
64,192,116666,1,0,0:0:0:0:
320,192,116786,1,0,0:0:0:0:
448,192,116906,1,0,0:0:0:0:
64,192,117146,1,0,0:0:0:0:
192,192,117186,1,0,0:0:0:0:
320,192,117226,1,0,0:0:0:0:
192,192,117386,1,0,0:0:0:0:
320,192,117626,1,0,0:0:0:0:
320,192,117746,1,0,0:0:0:0:
192,192,117986,1,0,0:0:0:0:
192,192,118106,1,0,0:0:0:0:
64,192,118106,1,0,0:0:0:0:
64,192,118266,1,0,0:0:0:0:
448,192,118346,1,0,0:0:0:0:
320,192,118466,1,0,0:0:0:0:
320,192,118586,1,0,0:0:0:0:
448,192,118586,1,0,0:0:0:0:
192,192,118646,1,0,0:0:0:0:
64,192,118706,1,0,0:0:0:0:
448,192,118766,1,0,0:0:0:0:
320,192,118826,1,0,0:0:0:0:
64,192,118886,1,0,0:0:0:0:
192,192,118946,1,0,0:0:0:0:
448,192,119006,1,0,0:0:0:0:
192,192,119066,1,0,0:0:0:0:
320,192,119126,1,0,0:0:0:0:
448,192,119186,1,0,0:0:0:0:
64,192,119246,1,0,0:0:0:0:
192,192,119306,1,0,0:0:0:0:
448,192,119366,1,0,0:0:0:0:
320,192,119426,1,0,0:0:0:0:
64,192,119486,1,0,0:0:0:0:
320,192,119546,1,0,0:0:0:0:
192,192,119606,1,0,0:0:0:0:
64,192,119666,1,0,0:0:0:0:
448,192,119726,1,0,0:0:0:0:
320,192,119786,1,0,0:0:0:0:
64,192,119846,1,0,0:0:0:0:
192,192,119906,1,0,0:0:0:0:
448,192,119966,1,0,0:0:0:0:
192,192,120026,1,0,0:0:0:0:
64,192,120026,1,0,0:0:0:0:
320,192,120094,1,0,0:0:0:0:
448,192,120163,1,0,0:0:0:0:
64,192,120266,1,0,0:0:0:0:
320,192,120386,1,0,0:0:0:0:
192,192,120506,1,0,0:0:0:0:
64,192,120506,1,0,0:0:0:0:
448,192,120626,1,0,0:0:0:0:
192,192,120746,1,0,0:0:0:0:
64,192,120986,1,0,0:0:0:0:
192,192,121026,1,0,0:0:0:0:
448,192,121066,1,0,0:0:0:0:
320,192,121226,1,0,0:0:0:0:
64,192,121346,1,0,0:0:0:0:
320,192,121466,1,0,0:0:0:0:
448,192,121466,1,0,0:0:0:0:
192,192,121586,1,0,0:0:0:0:
448,192,121706,1,0,0:0:0:0:
320,192,121766,1,0,0:0:0:0:
192,192,121826,1,0,0:0:0:0:
64,192,121886,1,0,0:0:0:0:
320,192,121946,1,0,0:0:0:0:
448,192,121946,1,0,0:0:0:0:
448,192,122106,1,0,0:0:0:0:
64,192,122186,1,0,0:0:0:0:
192,192,122306,1,0,0:0:0:0:
192,192,122426,1,0,0:0:0:0:
448,192,122426,1,0,0:0:0:0:
320,192,122486,1,0,0:0:0:0:
64,192,122546,1,0,0:0:0:0:
448,192,122606,1,0,0:0:0:0:
192,192,122666,1,0,0:0:0:0:
320,192,122726,1,0,0:0:0:0:
64,192,122786,1,0,0:0:0:0:
192,192,122846,1,0,0:0:0:0:
64,192,122906,1,0,0:0:0:0:
320,192,122966,1,0,0:0:0:0:
448,192,123026,1,0,0:0:0:0:
64,192,123086,1,0,0:0:0:0:
320,192,123146,1,0,0:0:0:0:
192,192,123206,1,0,0:0:0:0:
448,192,123266,1,0,0:0:0:0:
320,192,123326,1,0,0:0:0:0:
448,192,123386,1,0,0:0:0:0:
192,192,123446,1,0,0:0:0:0:
64,192,123506,1,0,0:0:0:0:
448,192,123566,1,0,0:0:0:0:
192,192,123626,1,0,0:0:0:0:
320,192,123686,1,0,0:0:0:0:
64,192,123746,1,0,0:0:0:0:
192,192,123806,1,0,0:0:0:0:
64,192,123866,1,0,0:0:0:0:
448,192,123866,1,0,0:0:0:0:
320,192,123934,1,0,0:0:0:0:
192,192,124003,1,0,0:0:0:0:
64,192,124106,1,0,0:0:0:0:
448,192,124226,1,0,0:0:0:0:
192,192,124346,1,0,0:0:0:0:
64,192,124346,1,0,0:0:0:0:
320,192,124466,1,0,0:0:0:0:
64,192,124586,1,0,0:0:0:0:
448,192,124826,1,0,0:0:0:0:
320,192,124866,1,0,0:0:0:0:
64,192,124906,1,0,0:0:0:0:
192,192,125066,1,0,0:0:0:0:
320,192,125186,1,0,0:0:0:0:
192,192,125306,1,0,0:0:0:0:
64,192,125306,1,0,0:0:0:0:
448,192,125426,1,0,0:0:0:0:
64,192,125546,1,0,0:0:0:0:
192,192,125606,1,0,0:0:0:0:
320,192,125666,1,0,0:0:0:0:
448,192,125726,1,0,0:0:0:0:
192,192,125786,1,0,0:0:0:0:
64,192,125786,1,0,0:0:0:0:
320,192,126026,1,0,0:0:0:0:
192,192,126146,1,0,0:0:0:0:
192,192,126266,1,0,0:0:0:0:
64,192,126266,1,0,0:0:0:0:
320,192,126334,1,0,0:0:0:0:
448,192,126403,1,0,0:0:0:0:
192,192,126471,1,0,0:0:0:0:
64,192,126540,1,0,0:0:0:0:
320,192,126608,1,0,0:0:0:0:
64,192,126677,1,0,0:0:0:0:
192,192,126746,1,0,0:0:0:0:
448,192,126746,1,0,0:0:0:0:
320,192,126814,1,0,0:0:0:0:
448,192,126883,1,0,0:0:0:0:
192,192,126951,1,0,0:0:0:0:
320,192,127020,1,0,0:0:0:0:
192,192,127088,1,0,0:0:0:0:
64,192,127157,1,0,0:0:0:0:
320,192,127226,1,0,0:0:0:0:
448,192,127226,1,0,0:0:0:0:
192,192,127286,1,0,0:0:0:0:
64,192,127346,1,0,0:0:0:0:
320,192,127406,1,0,0:0:0:0:
192,192,127466,1,0,0:0:0:0:
320,192,127526,1,0,0:0:0:0:
448,192,127586,1,0,0:0:0:0:
64,192,127646,1,0,0:0:0:0:
320,192,127706,1,0,0:0:0:0:
192,192,127706,1,0,0:0:0:0:
64,192,128186,1,0,0:0:0:0:
448,192,128186,1,0,0:0:0:0:
64,192,128666,1,0,0:0:0:0:
192,192,128666,1,0,0:0:0:0:
320,192,128706,1,0,0:0:0:0:
448,192,128746,1,0,0:0:0:0:
320,192,129146,1,0,0:0:0:0:
64,192,129146,1,0,0:0:0:0:
320,192,129626,1,0,0:0:0:0:
448,192,129626,1,0,0:0:0:0:
192,192,129866,1,0,0:0:0:0:
320,192,129986,1,0,0:0:0:0:
320,192,130106,1,0,0:0:0:0:
448,192,130106,1,0,0:0:0:0:
192,192,130174,1,0,0:0:0:0:
64,192,130243,1,0,0:0:0:0:
320,192,130311,1,0,0:0:0:0:
448,192,130380,1,0,0:0:0:0:
192,192,130448,1,0,0:0:0:0:
448,192,130517,1,0,0:0:0:0:
320,192,130586,1,0,0:0:0:0:
64,192,130586,1,0,0:0:0:0:
192,192,130654,1,0,0:0:0:0:
64,192,130723,1,0,0:0:0:0:
320,192,130791,1,0,0:0:0:0:
192,192,130860,1,0,0:0:0:0:
320,192,130928,1,0,0:0:0:0:
448,192,130997,1,0,0:0:0:0:
192,192,131066,1,0,0:0:0:0:
64,192,131066,1,0,0:0:0:0:
320,192,131126,1,0,0:0:0:0:
448,192,131186,1,0,0:0:0:0:
192,192,131246,1,0,0:0:0:0:
320,192,131306,1,0,0:0:0:0:
192,192,131366,1,0,0:0:0:0:
64,192,131426,1,0,0:0:0:0:
448,192,131486,1,0,0:0:0:0:
192,192,131546,1,0,0:0:0:0:
320,192,131546,1,0,0:0:0:0:
448,192,132026,1,0,0:0:0:0:
64,192,132026,1,0,0:0:0:0:
448,192,132506,1,0,0:0:0:0:
320,192,132506,1,0,0:0:0:0:
192,192,132546,1,0,0:0:0:0:
64,192,132586,1,0,0:0:0:0:
448,192,132986,1,0,0:0:0:0:
192,192,132986,1,0,0:0:0:0:
192,192,133466,1,0,0:0:0:0:
64,192,133466,1,0,0:0:0:0:
320,192,133706,1,0,0:0:0:0:
192,192,133826,1,0,0:0:0:0:
192,192,133946,1,0,0:0:0:0:
64,192,133946,1,0,0:0:0:0:
320,192,134014,1,0,0:0:0:0:
448,192,134083,1,0,0:0:0:0:
192,192,134151,1,0,0:0:0:0:
64,192,134220,1,0,0:0:0:0:
320,192,134288,1,0,0:0:0:0:
64,192,134357,1,0,0:0:0:0:
192,192,134426,1,0,0:0:0:0:
448,192,134426,1,0,0:0:0:0:
320,192,134494,1,0,0:0:0:0:
448,192,134563,1,0,0:0:0:0:
192,192,134631,1,0,0:0:0:0:
320,192,134700,1,0,0:0:0:0:
192,192,134768,1,0,0:0:0:0:
64,192,134837,1,0,0:0:0:0:
320,192,134906,1,0,0:0:0:0:
448,192,134906,1,0,0:0:0:0:
192,192,134966,1,0,0:0:0:0:
64,192,135026,1,0,0:0:0:0:
320,192,135086,1,0,0:0:0:0:
192,192,135146,1,0,0:0:0:0:
320,192,135206,1,0,0:0:0:0:
448,192,135266,1,0,0:0:0:0:
64,192,135326,1,0,0:0:0:0:
320,192,135386,1,0,0:0:0:0:
192,192,135386,1,0,0:0:0:0:
64,192,135866,1,0,0:0:0:0:
448,192,135866,1,0,0:0:0:0:
64,192,136346,1,0,0:0:0:0:
192,192,136346,1,0,0:0:0:0:
320,192,136386,1,0,0:0:0:0:
448,192,136426,1,0,0:0:0:0:
192,192,136826,1,0,0:0:0:0:
448,192,136826,1,0,0:0:0:0:
320,192,137306,1,0,0:0:0:0:
448,192,137306,1,0,0:0:0:0:
192,192,137546,1,0,0:0:0:0:
320,192,137666,1,0,0:0:0:0:
320,192,137786,1,0,0:0:0:0:
448,192,137786,1,0,0:0:0:0:
192,192,137854,1,0,0:0:0:0:
64,192,137923,1,0,0:0:0:0:
320,192,137991,1,0,0:0:0:0:
448,192,138060,1,0,0:0:0:0:
192,192,138128,1,0,0:0:0:0:
448,192,138197,1,0,0:0:0:0:
320,192,138266,1,0,0:0:0:0:
64,192,138266,1,0,0:0:0:0:
192,192,138334,1,0,0:0:0:0:
64,192,138403,1,0,0:0:0:0:
320,192,138471,1,0,0:0:0:0:
192,192,138540,1,0,0:0:0:0:
320,192,138608,1,0,0:0:0:0:
448,192,138677,1,0,0:0:0:0:
192,192,138746,1,0,0:0:0:0:
64,192,138746,1,0,0:0:0:0:
320,192,138806,1,0,0:0:0:0:
448,192,138866,1,0,0:0:0:0:
192,192,138926,1,0,0:0:0:0:
320,192,138986,1,0,0:0:0:0:
192,192,139046,1,0,0:0:0:0:
64,192,139106,1,0,0:0:0:0:
448,192,139166,1,0,0:0:0:0:
192,192,139226,1,0,0:0:0:0:
320,192,139226,1,0,0:0:0:0:
448,192,139706,1,0,0:0:0:0:
64,192,139706,1,0,0:0:0:0:
448,192,140186,1,0,0:0:0:0:
320,192,140186,1,0,0:0:0:0:
192,192,140666,1,0,0:0:0:0:
64,192,140666,1,0,0:0:0:0:
448,192,141146,1,0,0:0:0:0:
320,192,141146,1,0,0:0:0:0:
64,192,141146,1,0,0:0:0:0:
320,192,141386,1,0,0:0:0:0:
192,192,141466,1,0,0:0:0:0:
448,192,141546,1,0,0:0:0:0:
192,192,141626,1,0,0:0:0:0:
64,192,141626,1,0,0:0:0:0:
320,192,141706,1,0,0:0:0:0:
448,192,141786,1,0,0:0:0:0:
64,192,141866,1,0,0:0:0:0:
320,192,141946,1,0,0:0:0:0:
192,192,141999,1,0,0:0:0:0:
320,192,142106,1,0,0:0:0:0:
448,192,142106,1,0,0:0:0:0:
448,192,142266,1,0,0:0:0:0:
64,192,142426,1,0,0:0:0:0:
64,192,142586,1,0,0:0:0:0:
192,192,142586,1,0,0:0:0:0:
448,192,142706,1,0,0:0:0:0:
320,192,142826,1,0,0:0:0:0:
64,192,142946,1,0,0:0:0:0:
320,192,143066,1,0,0:0:0:0:
448,192,143066,1,0,0:0:0:0:
448,192,143306,1,0,0:0:0:0:
192,192,143426,1,0,0:0:0:0:
320,192,143546,1,0,0:0:0:0:
64,192,143546,1,0,0:0:0:0:
448,192,143666,1,0,0:0:0:0:
192,192,143786,1,0,0:0:0:0:
320,192,144026,1,0,0:0:0:0:
448,192,144026,1,0,0:0:0:0:
64,192,144266,1,0,0:0:0:0:
320,192,144386,1,0,0:0:0:0:
192,192,144506,1,0,0:0:0:0:
448,192,144506,1,0,0:0:0:0:
64,192,144626,1,0,0:0:0:0:
448,192,144746,1,0,0:0:0:0:
320,192,144806,1,0,0:0:0:0:
192,192,144866,1,0,0:0:0:0:
64,192,144926,1,0,0:0:0:0:
320,192,144986,1,0,0:0:0:0:
448,192,144986,1,0,0:0:0:0:
192,192,145106,1,0,0:0:0:0:
448,192,145226,1,0,0:0:0:0:
64,192,145466,1,0,0:0:0:0:
192,192,145466,1,0,0:0:0:0:
320,192,145586,1,0,0:0:0:0:
320,192,145826,1,0,0:0:0:0:
192,192,145946,1,0,0:0:0:0:
64,192,145946,1,0,0:0:0:0:
448,192,146066,1,0,0:0:0:0:
192,192,146186,1,0,0:0:0:0:
64,192,146426,1,0,0:0:0:0:
448,192,146426,1,0,0:0:0:0:
320,192,146546,1,0,0:0:0:0:
320,192,146786,1,0,0:0:0:0:
192,192,146906,1,0,0:0:0:0:
64,192,146906,1,0,0:0:0:0:
448,192,147026,1,0,0:0:0:0:
64,192,147146,1,0,0:0:0:0:
192,192,147386,1,0,0:0:0:0:
448,192,147386,1,0,0:0:0:0:
64,192,147506,1,0,0:0:0:0:
64,192,147746,1,0,0:0:0:0:
320,192,147866,1,0,0:0:0:0:
448,192,147866,1,0,0:0:0:0:
192,192,147986,1,0,0:0:0:0:
64,192,148106,1,0,0:0:0:0:
448,192,148226,1,0,0:0:0:0:
192,192,148346,1,0,0:0:0:0:
64,192,148346,1,0,0:0:0:0:
320,192,148466,1,0,0:0:0:0:
320,192,148706,1,0,0:0:0:0:
64,192,148826,1,0,0:0:0:0:
192,192,148826,1,0,0:0:0:0:
448,192,148826,1,0,0:0:0:0:
192,192,148946,1,0,0:0:0:0:
320,192,149066,1,0,0:0:0:0:
448,192,149066,1,0,0:0:0:0:
448,192,149186,1,0,0:0:0:0:
320,192,149306,1,0,0:0:0:0:
64,192,149306,1,0,0:0:0:0:
64,192,149426,1,0,0:0:0:0:
192,192,149546,1,0,0:0:0:0:
320,192,149546,1,0,0:0:0:0:
320,192,149666,1,0,0:0:0:0:
64,192,149786,1,0,0:0:0:0:
192,192,149786,1,0,0:0:0:0:
448,192,149786,1,0,0:0:0:0:
64,192,149906,1,0,0:0:0:0:
192,192,150026,1,0,0:0:0:0:
448,192,150026,1,0,0:0:0:0:
448,192,150146,1,0,0:0:0:0:
320,192,150266,1,0,0:0:0:0:
64,192,150266,1,0,0:0:0:0:
320,192,150386,1,0,0:0:0:0:
192,192,150506,1,0,0:0:0:0:
64,192,150506,1,0,0:0:0:0:
320,192,150586,1,0,0:0:0:0:
192,192,150666,1,0,0:0:0:0:
64,192,150746,1,0,0:0:0:0:
448,192,150746,1,0,0:0:0:0:
64,192,150866,1,0,0:0:0:0:
192,192,150986,1,0,0:0:0:0:
448,192,150986,1,0,0:0:0:0:
448,192,151106,1,0,0:0:0:0:
320,192,151226,1,0,0:0:0:0:
192,192,151226,1,0,0:0:0:0:
320,192,151346,1,0,0:0:0:0:
64,192,151466,1,0,0:0:0:0:
448,192,151466,1,0,0:0:0:0:
64,192,151586,1,0,0:0:0:0:
192,192,151706,1,0,0:0:0:0:
320,192,151706,1,0,0:0:0:0:
448,192,151706,1,0,0:0:0:0:
192,192,151826,1,0,0:0:0:0:
448,192,151946,1,0,0:0:0:0:
320,192,151946,1,0,0:0:0:0:
448,192,152066,1,0,0:0:0:0:
64,192,152186,1,0,0:0:0:0:
320,192,152186,1,0,0:0:0:0:
64,192,152306,1,0,0:0:0:0:
192,192,152426,1,0,0:0:0:0:
448,192,152426,1,0,0:0:0:0:
320,192,152486,1,0,0:0:0:0:
192,192,152546,1,0,0:0:0:0:
320,192,152606,1,0,0:0:0:0:
192,192,152666,1,0,0:0:0:0:
64,192,152666,1,0,0:0:0:0:
448,192,152746,1,0,0:0:0:0:
320,192,152826,1,0,0:0:0:0:
64,192,152906,1,0,0:0:0:0:
448,192,152986,1,0,0:0:0:0:
192,192,153066,1,0,0:0:0:0:
64,192,153146,1,0,0:0:0:0:
320,192,153146,1,0,0:0:0:0:
448,192,153226,1,0,0:0:0:0:
192,192,153306,1,0,0:0:0:0:
320,192,153386,1,0,0:0:0:0:
448,192,153466,1,0,0:0:0:0:
64,192,153546,1,0,0:0:0:0:
448,192,153626,1,0,0:0:0:0:
320,192,153626,1,0,0:0:0:0:
192,192,153686,1,0,0:0:0:0:
64,192,153746,1,0,0:0:0:0:
320,192,153806,1,0,0:0:0:0:
192,192,153866,1,0,0:0:0:0:
448,192,153926,1,0,0:0:0:0:
320,192,153986,1,0,0:0:0:0:
64,192,154046,1,0,0:0:0:0:
192,192,154106,1,0,0:0:0:0:
448,192,154166,1,0,0:0:0:0:
192,192,154226,1,0,0:0:0:0:
320,192,154286,1,0,0:0:0:0:
64,192,154346,1,0,0:0:0:0:
192,192,154406,1,0,0:0:0:0:
448,192,154466,1,0,0:0:0:0:
320,192,154526,1,0,0:0:0:0:
192,192,154586,1,0,0:0:0:0:
64,192,154586,1,0,0:0:0:0:
320,192,154826,1,0,0:0:0:0:
192,192,154946,1,0,0:0:0:0:
320,192,155066,1,0,0:0:0:0:
192,192,155306,1,0,0:0:0:0:
320,192,155426,1,0,0:0:0:0:
192,192,155546,1,0,0:0:0:0:
320,192,155666,1,0,0:0:0:0:
192,192,155786,1,0,0:0:0:0:
320,192,156026,1,0,0:0:0:0:
64,192,156086,1,0,0:0:0:0:
192,192,156146,1,0,0:0:0:0:
448,192,156206,1,0,0:0:0:0:
320,192,156266,1,0,0:0:0:0:
192,192,156326,1,0,0:0:0:0:
320,192,156386,1,0,0:0:0:0:
192,192,156446,1,0,0:0:0:0:
64,192,156506,1,0,0:0:0:0:
448,192,156506,1,0,0:0:0:0:
320,192,156586,1,0,0:0:0:0:
192,192,156666,1,0,0:0:0:0:
448,192,156746,1,0,0:0:0:0:
64,192,156986,1,0,0:0:0:0:
320,192,156986,1,0,0:0:0:0:
192,192,157226,1,0,0:0:0:0:
320,192,157306,1,0,0:0:0:0:
64,192,157466,1,0,0:0:0:0:
192,192,157466,1,0,0:0:0:0:
320,192,157546,1,0,0:0:0:0:
448,192,157626,1,0,0:0:0:0:
64,192,157706,1,0,0:0:0:0:
448,192,157946,1,0,0:0:0:0:
320,192,157946,1,0,0:0:0:0:
192,192,158026,1,0,0:0:0:0:
64,192,158186,1,0,0:0:0:0:
192,192,158186,1,0,0:0:0:0:
448,192,158186,1,0,0:0:0:0:
320,192,158426,1,0,0:0:0:0:
448,192,158426,1,0,0:0:0:0:
192,192,158486,1,0,0:0:0:0:
64,192,158546,1,0,0:0:0:0:
448,192,158606,1,0,0:0:0:0:
320,192,158666,1,0,0:0:0:0:
64,192,158906,1,0,0:0:0:0:
192,192,158906,1,0,0:0:0:0:
448,192,159146,1,0,0:0:0:0:
192,192,159206,1,0,0:0:0:0:
320,192,159266,1,0,0:0:0:0:
448,192,159386,1,0,0:0:0:0:
64,192,159386,1,0,0:0:0:0:
320,192,159446,1,0,0:0:0:0:
192,192,159506,1,0,0:0:0:0:
448,192,159566,1,0,0:0:0:0:
320,192,159626,1,0,0:0:0:0:
64,192,159866,1,0,0:0:0:0:
192,192,159866,1,0,0:0:0:0:
320,192,159926,1,0,0:0:0:0:
448,192,160106,1,0,0:0:0:0:
320,192,160146,1,0,0:0:0:0:
192,192,160186,1,0,0:0:0:0:
64,192,160346,1,0,0:0:0:0:
320,192,160346,1,0,0:0:0:0:
192,192,160426,1,0,0:0:0:0:
448,192,160506,1,0,0:0:0:0:
320,192,160586,1,0,0:0:0:0:
448,192,160826,1,0,0:0:0:0:
320,192,160826,1,0,0:0:0:0:
192,192,160886,5,0,0:0:0:0:
64,192,161066,1,0,0:0:0:0:
320,192,161146,1,0,0:0:0:0:
192,192,161306,1,0,0:0:0:0:
448,192,161306,1,0,0:0:0:0:
192,192,161386,1,0,0:0:0:0:
320,192,161466,1,0,0:0:0:0:
64,192,161546,1,0,0:0:0:0:
320,192,161786,1,0,0:0:0:0:
448,192,161786,1,0,0:0:0:0:
320,192,161866,1,0,0:0:0:0:
192,192,161946,1,0,0:0:0:0:
64,192,162026,5,0,0:0:0:0:
448,192,162026,1,0,0:0:0:0:
192,192,162266,1,0,0:0:0:0:
320,192,162266,1,0,0:0:0:0:
448,192,162506,1,0,0:0:0:0:
64,192,162566,1,0,0:0:0:0:
448,192,162626,1,0,0:0:0:0:
64,192,162686,1,0,0:0:0:0:
320,192,162746,1,0,0:0:0:0:
192,192,162806,1,0,0:0:0:0:
320,192,162866,1,0,0:0:0:0:
192,192,162926,1,0,0:0:0:0:
448,192,162986,1,0,0:0:0:0:
64,192,163046,1,0,0:0:0:0:
448,192,163106,1,0,0:0:0:0:
64,192,163166,1,0,0:0:0:0:
320,192,163226,1,0,0:0:0:0:
192,192,163286,1,0,0:0:0:0:
320,192,163346,1,0,0:0:0:0:
192,192,163406,1,0,0:0:0:0:
448,192,163466,1,0,0:0:0:0:
64,192,163526,1,0,0:0:0:0:
448,192,163586,1,0,0:0:0:0:
64,192,163646,1,0,0:0:0:0:
448,192,163706,1,0,0:0:0:0:
320,192,163766,1,0,0:0:0:0:
64,192,163946,1,0,0:0:0:0:
192,192,163986,1,0,0:0:0:0:
320,192,164026,1,0,0:0:0:0:
448,192,164186,1,0,0:0:0:0:
320,192,164186,1,0,0:0:0:0:
64,192,164246,1,0,0:0:0:0:
192,192,164306,1,0,0:0:0:0:
448,192,164366,1,0,0:0:0:0:
320,192,164426,1,0,0:0:0:0:
192,192,164666,1,0,0:0:0:0:
448,192,164666,1,0,0:0:0:0:
64,192,164906,1,0,0:0:0:0:
320,192,164966,1,0,0:0:0:0:
192,192,165026,1,0,0:0:0:0:
448,192,165146,1,0,0:0:0:0:
64,192,165146,1,0,0:0:0:0:
192,192,165206,1,0,0:0:0:0:
320,192,165266,1,0,0:0:0:0:
448,192,165326,1,0,0:0:0:0:
192,192,165386,1,0,0:0:0:0:
64,192,165626,1,0,0:0:0:0:
192,192,165626,1,0,0:0:0:0:
320,192,165686,1,0,0:0:0:0:
64,192,165866,1,0,0:0:0:0:
192,192,165906,1,0,0:0:0:0:
320,192,165946,1,0,0:0:0:0:
448,192,166106,1,0,0:0:0:0:
192,192,166106,1,0,0:0:0:0:
320,192,166186,1,0,0:0:0:0:
64,192,166266,1,0,0:0:0:0:
448,192,166346,1,0,0:0:0:0:
192,192,166466,1,0,0:0:0:0:
320,192,166586,1,0,0:0:0:0:
448,192,166586,1,0,0:0:0:0:
64,192,166706,1,0,0:0:0:0:
320,192,166826,1,0,0:0:0:0:
192,192,166906,1,0,0:0:0:0:
320,192,167066,1,0,0:0:0:0:
64,192,167066,1,0,0:0:0:0:
320,192,167146,1,0,0:0:0:0:
192,192,167226,1,0,0:0:0:0:
448,192,167306,1,0,0:0:0:0:
64,192,167306,1,0,0:0:0:0:
192,192,167546,1,0,0:0:0:0:
448,192,167546,1,0,0:0:0:0:
192,192,167626,1,0,0:0:0:0:
320,192,167706,1,0,0:0:0:0:
448,192,167786,1,0,0:0:0:0:
64,192,167786,1,0,0:0:0:0:
64,192,168026,1,0,0:0:0:0:
320,192,168026,1,0,0:0:0:0:
192,192,168086,1,0,0:0:0:0:
448,192,168146,1,0,0:0:0:0:
320,192,168206,1,0,0:0:0:0:
64,192,168266,1,0,0:0:0:0:
448,192,168386,1,0,0:0:0:0:
192,192,168506,1,0,0:0:0:0:
64,192,168506,1,0,0:0:0:0:
320,192,168626,1,0,0:0:0:0:
64,192,168746,1,0,0:0:0:0:
192,192,168806,1,0,0:0:0:0:
320,192,168866,1,0,0:0:0:0:
448,192,168986,1,0,0:0:0:0:
64,192,168986,1,0,0:0:0:0:
320,192,169046,1,0,0:0:0:0:
192,192,169106,1,0,0:0:0:0:
448,192,169166,1,0,0:0:0:0:
64,192,169226,1,0,0:0:0:0:
192,192,169466,1,0,0:0:0:0:
320,192,169526,1,0,0:0:0:0:
448,192,169706,1,0,0:0:0:0:
320,192,169746,1,0,0:0:0:0:
64,192,169786,1,0,0:0:0:0:
192,192,170186,1,0,0:0:0:0:
448,192,170186,1,0,0:0:0:0:
320,192,170306,1,0,0:0:0:0:
192,192,170426,1,0,0:0:0:0:
64,192,170426,1,0,0:0:0:0:
64,192,170666,1,0,0:0:0:0:
320,192,170666,1,0,0:0:0:0:
448,192,170746,1,0,0:0:0:0:
192,192,170826,1,0,0:0:0:0:
320,192,170906,1,0,0:0:0:0:
448,192,170906,1,0,0:0:0:0:
64,192,171066,1,0,0:0:0:0:
192,192,171146,1,0,0:0:0:0:
448,192,171146,1,0,0:0:0:0:
320,192,171226,1,0,0:0:0:0:
64,192,171306,1,0,0:0:0:0:
320,192,171386,1,0,0:0:0:0:
448,192,171386,1,0,0:0:0:0:
192,192,171626,1,0,0:0:0:0:
320,192,171626,1,0,0:0:0:0:
64,192,171866,1,0,0:0:0:0:
192,192,171866,1,0,0:0:0:0:
448,192,171926,1,0,0:0:0:0:
320,192,171986,1,0,0:0:0:0:
192,192,172346,1,0,0:0:0:0:
448,192,172346,1,0,0:0:0:0:
64,192,172586,1,0,0:0:0:0:
320,192,172646,1,0,0:0:0:0:
448,192,172826,1,0,0:0:0:0:
320,192,172826,1,0,0:0:0:0:
192,192,172886,1,0,0:0:0:0:
64,192,172946,1,0,0:0:0:0:
320,192,173066,1,0,0:0:0:0:
448,192,173126,1,0,0:0:0:0:
192,192,173306,1,0,0:0:0:0:
64,192,173306,1,0,0:0:0:0:
448,192,173546,1,0,0:0:0:0:
192,192,173586,1,0,0:0:0:0:
320,192,173666,1,0,0:0:0:0:
64,192,173786,1,0,0:0:0:0:
448,192,173786,1,0,0:0:0:0:
192,192,173866,1,0,0:0:0:0:
448,192,173946,1,0,0:0:0:0:
320,192,174026,1,0,0:0:0:0:
320,192,174146,1,0,0:0:0:0:
192,192,174266,1,0,0:0:0:0:
448,192,174266,1,0,0:0:0:0:
64,192,174386,1,0,0:0:0:0:
64,192,174506,1,0,0:0:0:0:
320,192,174586,1,0,0:0:0:0:
64,192,174666,1,0,0:0:0:0:
448,192,174746,1,0,0:0:0:0:
192,192,174746,1,0,0:0:0:0:
320,192,174806,1,0,0:0:0:0:
192,192,174866,1,0,0:0:0:0:
448,192,174986,1,0,0:0:0:0:
448,192,175106,1,0,0:0:0:0:
64,192,175226,1,0,0:0:0:0:
192,192,175226,1,0,0:0:0:0:
192,192,175346,1,0,0:0:0:0:
64,192,175466,1,0,0:0:0:0:
448,192,175466,1,0,0:0:0:0:
192,192,175586,1,0,0:0:0:0:
320,192,175586,1,0,0:0:0:0:
320,192,175706,1,0,0:0:0:0:
64,192,175706,1,0,0:0:0:0:
448,192,175766,1,0,0:0:0:0:
192,192,175826,1,0,0:0:0:0:
320,192,175886,1,0,0:0:0:0:
64,192,175946,1,0,0:0:0:0:
320,192,176186,1,0,0:0:0:0:
448,192,176186,1,0,0:0:0:0:
192,192,176246,1,0,0:0:0:0:
64,192,176426,1,0,0:0:0:0:
320,192,176426,1,0,0:0:0:0:
192,192,176486,1,0,0:0:0:0:
64,192,176666,1,0,0:0:0:0:
320,192,176666,1,0,0:0:0:0:
192,192,176719,1,0,0:0:0:0:
320,192,176772,1,0,0:0:0:0:
64,192,176906,1,0,0:0:0:0:
192,192,176906,1,0,0:0:0:0:
448,192,176966,1,0,0:0:0:0:
192,192,177146,1,0,0:0:0:0:
448,192,177146,1,0,0:0:0:0:
320,192,177199,1,0,0:0:0:0:
192,192,177252,1,0,0:0:0:0:
64,192,177386,1,0,0:0:0:0:
320,192,177426,1,0,0:0:0:0:
192,192,177506,1,0,0:0:0:0:
320,192,177626,1,0,0:0:0:0:
448,192,177626,1,0,0:0:0:0:
64,192,177626,1,0,0:0:0:0:
192,192,177686,1,0,0:0:0:0:
64,192,177746,1,0,0:0:0:0:
448,192,177806,1,0,0:0:0:0:
320,192,177866,1,0,0:0:0:0:
64,192,177926,1,0,0:0:0:0:
448,192,177986,1,0,0:0:0:0:
192,192,178046,1,0,0:0:0:0:
320,192,178106,1,0,0:0:0:0:
448,192,178106,1,0,0:0:0:0:
192,192,178166,1,0,0:0:0:0:
64,192,178226,1,0,0:0:0:0:
320,192,178286,1,0,0:0:0:0:
192,192,178346,1,0,0:0:0:0:
448,192,178406,1,0,0:0:0:0:
320,192,178466,1,0,0:0:0:0:
192,192,178526,1,0,0:0:0:0:
64,192,178586,1,0,0:0:0:0:
448,192,178586,1,0,0:0:0:0:
192,192,178646,1,0,0:0:0:0:
320,192,178706,1,0,0:0:0:0:
64,192,178766,1,0,0:0:0:0:
192,192,178826,1,0,0:0:0:0:
448,192,178886,1,0,0:0:0:0:
64,192,178946,1,0,0:0:0:0:
320,192,179006,1,0,0:0:0:0:
448,192,179066,1,0,0:0:0:0:
192,192,179066,1,0,0:0:0:0:
64,192,179126,1,0,0:0:0:0:
320,192,179186,1,0,0:0:0:0:
448,192,179246,1,0,0:0:0:0:
192,192,179306,1,0,0:0:0:0:
64,192,179306,1,0,0:0:0:0:
64,192,179426,1,0,0:0:0:0:
448,192,179426,1,0,0:0:0:0:
448,192,179546,1,0,0:0:0:0:
320,192,179546,1,0,0:0:0:0:
192,192,179586,1,0,0:0:0:0:
64,192,179626,1,0,0:0:0:0:
320,192,179666,1,0,0:0:0:0:
192,192,179706,1,0,0:0:0:0:
64,192,180026,1,0,0:0:0:0:
448,192,180026,1,0,0:0:0:0:
448,192,180266,1,0,0:0:0:0:
192,192,180306,1,0,0:0:0:0:
320,192,180386,1,0,0:0:0:0:
64,192,180506,1,0,0:0:0:0:
448,192,180506,1,0,0:0:0:0:
192,192,180546,1,0,0:0:0:0:
320,192,180586,1,0,0:0:0:0:
64,192,180626,1,0,0:0:0:0:
192,192,180746,1,0,0:0:0:0:
448,192,180786,1,0,0:0:0:0:
320,192,180866,1,0,0:0:0:0:
64,192,180986,1,0,0:0:0:0:
448,192,180986,1,0,0:0:0:0:
320,192,181046,1,0,0:0:0:0:
192,192,181106,1,0,0:0:0:0:
64,192,181226,1,0,0:0:0:0:
448,192,181226,1,0,0:0:0:0:
192,192,181346,1,0,0:0:0:0:
320,192,181346,1,0,0:0:0:0:
64,192,181466,1,0,0:0:0:0:
320,192,181466,1,0,0:0:0:0:
448,192,181466,1,0,0:0:0:0:
192,192,181526,1,0,0:0:0:0:
448,192,181586,1,0,0:0:0:0:
64,192,181646,1,0,0:0:0:0:
320,192,181706,1,0,0:0:0:0:
448,192,181766,1,0,0:0:0:0:
192,192,181826,1,0,0:0:0:0:
320,192,181886,1,0,0:0:0:0:
64,192,181946,1,0,0:0:0:0:
448,192,181946,1,0,0:0:0:0:
192,192,182006,1,0,0:0:0:0:
448,192,182066,1,0,0:0:0:0:
192,192,182126,1,0,0:0:0:0:
320,192,182186,1,0,0:0:0:0:
64,192,182246,5,0,0:0:0:0:
192,192,182306,1,0,0:0:0:0:
448,192,182366,1,0,0:0:0:0:
320,192,182426,1,0,0:0:0:0:
64,192,182426,1,0,0:0:0:0:
192,192,182486,1,0,0:0:0:0:
448,192,182546,1,0,0:0:0:0:
320,192,182606,1,0,0:0:0:0:
64,192,182666,1,0,0:0:0:0:
448,192,182726,1,0,0:0:0:0:
192,192,182786,1,0,0:0:0:0:
64,192,182846,1,0,0:0:0:0:
320,192,182906,1,0,0:0:0:0:
448,192,182906,1,0,0:0:0:0:
192,192,182966,1,0,0:0:0:0:
64,192,183026,1,0,0:0:0:0:
320,192,183086,1,0,0:0:0:0:
192,192,183146,1,0,0:0:0:0:
448,192,183146,1,0,0:0:0:0:
64,192,183266,1,0,0:0:0:0:
448,192,183266,1,0,0:0:0:0:
192,192,183386,1,0,0:0:0:0:
64,192,183386,1,0,0:0:0:0:
192,192,183626,1,0,0:0:0:0:
448,192,183746,1,0,0:0:0:0:
192,192,183866,1,0,0:0:0:0:
64,192,183866,1,0,0:0:0:0:
320,192,183986,1,0,0:0:0:0:
64,192,184106,1,0,0:0:0:0:
192,192,184346,1,0,0:0:0:0:
192,192,184466,1,0,0:0:0:0:
320,192,184586,1,0,0:0:0:0:
192,192,184826,1,0,0:0:0:0:
448,192,184826,1,0,0:0:0:0:
192,192,184946,1,0,0:0:0:0:
320,192,185066,1,0,0:0:0:0:
64,192,185186,1,0,0:0:0:0:
320,192,185306,1,0,0:0:0:0:
448,192,185306,1,0,0:0:0:0:
320,192,185546,1,0,0:0:0:0:
192,192,185786,1,0,0:0:0:0:
64,192,185786,1,0,0:0:0:0:
320,192,185906,1,0,0:0:0:0:
192,192,186026,1,0,0:0:0:0:
448,192,186146,5,0,0:0:0:0:
192,192,186266,1,0,0:0:0:0:
64,192,186266,1,0,0:0:0:0:
320,192,186386,1,0,0:0:0:0:
448,192,186386,1,0,0:0:0:0:
192,192,186506,1,0,0:0:0:0:
64,192,186506,1,0,0:0:0:0:
320,192,186746,1,0,0:0:0:0:
448,192,186746,1,0,0:0:0:0:
64,192,186986,1,0,0:0:0:0:
448,192,186986,1,0,0:0:0:0:
64,192,187226,5,0,0:0:0:0:
192,192,187226,1,0,0:0:0:0:
448,192,187226,1,0,0:0:0:0:
320,192,187286,1,0,0:0:0:0:
192,192,187346,1,0,0:0:0:0:
320,192,187406,1,0,0:0:0:0:
192,192,187466,1,0,0:0:0:0:
64,192,187526,1,0,0:0:0:0:
448,192,187586,1,0,0:0:0:0:
192,192,187646,1,0,0:0:0:0:
64,192,187706,1,0,0:0:0:0:
320,192,187706,1,0,0:0:0:0:
448,192,187766,1,0,0:0:0:0:
192,192,187826,1,0,0:0:0:0:
64,192,187886,1,0,0:0:0:0:
448,192,187946,1,0,0:0:0:0:
320,192,188006,1,0,0:0:0:0:
64,192,188066,1,0,0:0:0:0:
192,192,188066,1,0,0:0:0:0:
320,192,188126,1,0,0:0:0:0:
64,192,188186,1,0,0:0:0:0:
448,192,188186,1,0,0:0:0:0:
192,192,188246,1,0,0:0:0:0:
448,192,188306,1,0,0:0:0:0:
64,192,188366,1,0,0:0:0:0:
320,192,188426,1,0,0:0:0:0:
448,192,188486,1,0,0:0:0:0:
64,192,188546,1,0,0:0:0:0:
192,192,188606,1,0,0:0:0:0:
320,192,188666,1,0,0:0:0:0:
448,192,188666,1,0,0:0:0:0:
64,192,188726,1,0,0:0:0:0:
192,192,188786,1,0,0:0:0:0:
448,192,188846,1,0,0:0:0:0:
320,192,188906,1,0,0:0:0:0:
192,192,188906,1,0,0:0:0:0:
64,192,189026,1,0,0:0:0:0:
448,192,189026,1,0,0:0:0:0:
64,192,189146,1,0,0:0:0:0:
192,192,189146,1,0,0:0:0:0:
448,192,189146,1,0,0:0:0:0:
448,192,189386,1,0,0:0:0:0:
192,192,189446,1,0,0:0:0:0:
320,192,189506,1,0,0:0:0:0:
64,192,189566,1,0,0:0:0:0:
192,192,189626,1,0,0:0:0:0:
448,192,189626,1,0,0:0:0:0:
320,192,189686,1,0,0:0:0:0:
64,192,189746,1,0,0:0:0:0:
192,192,189806,1,0,0:0:0:0:
448,192,189866,1,0,0:0:0:0:
320,192,189926,1,0,0:0:0:0:
192,192,189986,1,0,0:0:0:0:
64,192,189986,1,0,0:0:0:0:
320,192,190046,1,0,0:0:0:0:
192,192,190106,1,0,0:0:0:0:
448,192,190106,1,0,0:0:0:0:
64,192,190166,1,0,0:0:0:0:
320,192,190226,1,0,0:0:0:0:
192,192,190286,1,0,0:0:0:0:
448,192,190346,1,0,0:0:0:0:
320,192,190406,1,0,0:0:0:0:
64,192,190466,1,0,0:0:0:0:
192,192,190526,1,0,0:0:0:0:
320,192,190586,1,0,0:0:0:0:
448,192,190586,1,0,0:0:0:0:
64,192,190646,1,0,0:0:0:0:
192,192,190706,1,0,0:0:0:0:
448,192,190766,1,0,0:0:0:0:
64,192,190826,1,0,0:0:0:0:
320,192,190826,1,0,0:0:0:0:
320,192,190946,1,0,0:0:0:0:
192,192,190946,1,0,0:0:0:0:
448,192,191066,1,0,0:0:0:0:
192,192,191066,1,0,0:0:0:0:
64,192,191066,1,0,0:0:0:0:
320,192,191306,1,0,0:0:0:0:
192,192,191366,1,0,0:0:0:0:
448,192,191426,1,0,0:0:0:0:
64,192,191486,1,0,0:0:0:0:
192,192,191546,1,0,0:0:0:0:
448,192,191546,1,0,0:0:0:0:
320,192,191606,1,0,0:0:0:0:
64,192,191666,1,0,0:0:0:0:
448,192,191726,1,0,0:0:0:0:
320,192,191786,1,0,0:0:0:0:
64,192,191846,1,0,0:0:0:0:
448,192,191906,1,0,0:0:0:0:
192,192,191906,1,0,0:0:0:0:
64,192,191966,1,0,0:0:0:0:
320,192,192026,1,0,0:0:0:0:
448,192,192026,1,0,0:0:0:0:
192,192,192086,1,0,0:0:0:0:
64,192,192146,1,0,0:0:0:0:
320,192,192206,1,0,0:0:0:0:
448,192,192266,1,0,0:0:0:0:
64,192,192326,1,0,0:0:0:0:
192,192,192386,1,0,0:0:0:0:
320,192,192446,1,0,0:0:0:0:
448,192,192506,1,0,0:0:0:0:
64,192,192506,1,0,0:0:0:0:
192,192,192566,1,0,0:0:0:0:
320,192,192626,1,0,0:0:0:0:
192,192,192686,1,0,0:0:0:0:
64,192,192746,1,0,0:0:0:0:
448,192,192746,1,0,0:0:0:0:
192,192,192866,1,0,0:0:0:0:
320,192,192866,1,0,0:0:0:0:
192,192,192986,1,0,0:0:0:0:
448,192,192986,1,0,0:0:0:0:
64,192,193226,1,0,0:0:0:0:
320,192,193346,1,0,0:0:0:0:
192,192,193466,1,0,0:0:0:0:
64,192,193466,1,0,0:0:0:0:
448,192,193586,1,0,0:0:0:0:
320,192,193706,1,0,0:0:0:0:
448,192,193946,1,0,0:0:0:0:
64,192,193946,1,0,0:0:0:0:
192,192,193986,1,0,0:0:0:0:
320,192,194026,1,0,0:0:0:0:
64,192,194186,1,0,0:0:0:0:
320,192,194246,1,0,0:0:0:0:
192,192,194306,1,0,0:0:0:0:
448,192,194426,1,0,0:0:0:0:
64,192,194426,1,0,0:0:0:0:
320,192,194466,1,0,0:0:0:0:
192,192,194506,1,0,0:0:0:0:
320,192,194666,1,0,0:0:0:0:
192,192,194666,1,0,0:0:0:0:
448,192,194906,1,0,0:0:0:0:
320,192,194906,1,0,0:0:0:0:
64,192,194906,1,0,0:0:0:0:
192,192,194966,1,0,0:0:0:0:
320,192,195026,1,0,0:0:0:0:
192,192,195086,1,0,0:0:0:0:
320,192,195146,1,0,0:0:0:0:
448,192,195206,1,0,0:0:0:0:
64,192,195266,1,0,0:0:0:0:
320,192,195326,1,0,0:0:0:0:
448,192,195386,1,0,0:0:0:0:
192,192,195386,1,0,0:0:0:0:
64,192,195446,1,0,0:0:0:0:
320,192,195506,1,0,0:0:0:0:
448,192,195566,1,0,0:0:0:0:
64,192,195626,1,0,0:0:0:0:
192,192,195686,1,0,0:0:0:0:
448,192,195746,1,0,0:0:0:0:
320,192,195746,1,0,0:0:0:0:
192,192,195806,1,0,0:0:0:0:
448,192,195866,1,0,0:0:0:0:
64,192,195866,1,0,0:0:0:0:
320,192,195926,1,0,0:0:0:0:
64,192,195986,1,0,0:0:0:0:
448,192,196046,1,0,0:0:0:0:
192,192,196106,1,0,0:0:0:0:
64,192,196166,1,0,0:0:0:0:
448,192,196226,1,0,0:0:0:0:
320,192,196286,1,0,0:0:0:0:
192,192,196346,1,0,0:0:0:0:
64,192,196346,1,0,0:0:0:0:
448,192,196406,1,0,0:0:0:0:
320,192,196466,1,0,0:0:0:0:
64,192,196526,1,0,0:0:0:0:
192,192,196586,1,0,0:0:0:0:
320,192,196586,1,0,0:0:0:0:
448,192,196706,1,0,0:0:0:0:
64,192,196706,1,0,0:0:0:0:
448,192,196826,1,0,0:0:0:0:
320,192,196826,1,0,0:0:0:0:
64,192,196826,1,0,0:0:0:0:
64,192,197066,1,0,0:0:0:0:
320,192,197126,1,0,0:0:0:0:
192,192,197186,1,0,0:0:0:0:
448,192,197246,1,0,0:0:0:0:
320,192,197306,1,0,0:0:0:0:
64,192,197306,1,0,0:0:0:0:
192,192,197366,1,0,0:0:0:0:
448,192,197426,1,0,0:0:0:0:
320,192,197486,1,0,0:0:0:0:
64,192,197546,1,0,0:0:0:0:
192,192,197606,1,0,0:0:0:0:
320,192,197666,1,0,0:0:0:0:
448,192,197666,1,0,0:0:0:0:
192,192,197726,1,0,0:0:0:0:
320,192,197786,1,0,0:0:0:0:
64,192,197786,1,0,0:0:0:0:
448,192,197846,1,0,0:0:0:0:
192,192,197906,1,0,0:0:0:0:
320,192,197966,1,0,0:0:0:0:
64,192,198026,1,0,0:0:0:0:
192,192,198086,1,0,0:0:0:0:
448,192,198146,1,0,0:0:0:0:
320,192,198206,1,0,0:0:0:0:
192,192,198266,1,0,0:0:0:0:
64,192,198266,1,0,0:0:0:0:
448,192,198326,1,0,0:0:0:0:
320,192,198386,1,0,0:0:0:0:
64,192,198446,1,0,0:0:0:0:
448,192,198506,1,0,0:0:0:0:
192,192,198506,1,0,0:0:0:0:
192,192,198626,1,0,0:0:0:0:
320,192,198626,1,0,0:0:0:0:
64,192,198746,1,0,0:0:0:0:
320,192,198746,1,0,0:0:0:0:
448,192,198746,1,0,0:0:0:0:
192,192,198986,1,0,0:0:0:0:
320,192,199106,1,0,0:0:0:0:
192,192,199226,1,0,0:0:0:0:
448,192,199346,1,0,0:0:0:0:
64,192,199466,1,0,0:0:0:0:
64,192,199706,1,0,0:0:0:0:
192,192,199946,1,0,0:0:0:0:
448,192,200066,1,0,0:0:0:0:
64,192,200186,1,0,0:0:0:0:
320,192,200546,1,0,0:0:0:0:
192,192,200666,1,0,0:0:0:0:
64,192,200666,1,0,0:0:0:0:
320,192,200906,1,0,0:0:0:0:
192,192,201026,1,0,0:0:0:0:
320,192,201146,1,0,0:0:0:0:
64,192,201266,1,0,0:0:0:0:
448,192,201386,1,0,0:0:0:0:
192,192,201626,1,0,0:0:0:0:
192,192,201746,1,0,0:0:0:0:
320,192,201866,1,0,0:0:0:0:
192,192,202106,1,0,0:0:0:0:
192,192,202226,1,0,0:0:0:0:
320,192,202346,1,0,0:0:0:0:
192,192,202586,1,0,0:0:0:0:
448,192,202706,1,0,0:0:0:0:
320,192,202826,1,0,0:0:0:0:
192,192,203066,1,0,0:0:0:0:
448,192,203186,1,0,0:0:0:0:
