osu file format v14

[General]
AudioFilename: audio.mp3
AudioLeadIn: 0
PreviewTime: 205980
Countdown: 1
SampleSet: None
StackLeniency: 0.2
Mode: 0
LetterboxInBreaks: 0
WidescreenStoryboard: 1

[Editor]
Bookmarks: 24671,39909,55147,70385,85623,100861,116099
DistanceSpacing: 2.5
BeatDivisor: 8
GridSize: 4
TimelineZoom: 1.9

[Metadata]
Title:IM GONE
TitleUnicode:IM GONE
Artist:JOYRYDE
ArtistUnicode:JOYRYDE
Creator:_zee
Version:test
Source:
Tags:trap techno bass edm vocals
BeatmapID:1971737
BeatmapSetID:944093

[Difficulty]
HPDrainRate:5
CircleSize:4
OverallDifficulty:8
ApproachRate:9.4
SliderMultiplier:2.8
SliderTickRate:1

[Events]
//Background and Video events
0,0,"AIS_Transit_Security.jpg",0,0
//Break Periods
//Storyboard Layer 0 (Background)
//Storyboard Layer 1 (Fail)
//Storyboard Layer 2 (Pass)
//Storyboard Layer 3 (Foreground)
//Storyboard Sound Samples

[TimingPoints]
9433,476.190476190476,4,1,0,100,1,0
9433,-100,4,2,1,40,0,0
14671,-166.666666666667,4,2,1,40,0,0
16099,-100,4,2,1,40,0,0
20385,-166.666666666667,4,2,1,40,0,0
21337,-100,4,2,1,40,0,0
21813,-83.3333333333333,4,2,1,40,0,0
22290,-100,4,2,1,40,0,0
22766,-83.3333333333333,4,2,1,40,0,0
23242,-100,4,2,1,40,0,0
24194,-200,4,2,1,20,0,0
24671,-166.666666666667,4,2,1,30,0,0
28837,-166.666666666667,4,2,1,5,0,0
28956,-166.666666666667,4,2,1,30,0,0
30147,-166.666666666667,4,2,1,30,0,0
33837,-166.666666666667,4,2,1,5,0,0
33956,-166.666666666667,4,2,1,30,0,0
39909,-142.857142857143,4,2,1,30,0,0
55147,-200,4,2,1,30,0,0
57052,-200,4,2,1,30,0,0
63718,-142.857142857143,4,2,1,30,0,0
64671,-111.111111111111,4,2,1,30,0,0
65623,-100,4,2,1,30,0,0
66575,-83.3333333333333,4,2,1,30,0,0
66575,-83.3333333333333,4,2,1,40,0,0
68480,-83.3333333333333,4,2,1,50,0,0
69432,-125,4,2,1,50,0,0
69790,-125,4,2,1,5,0,0
69909,-125,4,2,1,50,0,0
70385,-83.3333333333333,4,2,1,60,0,0
71337,-50,4,2,1,60,0,0
71575,-83.3333333333333,4,2,1,60,0,0
71813,-50,4,2,1,60,0,0
72052,-83.3333333333333,4,2,1,60,0,0
72290,-83.3333333333333,4,2,1,60,0,0
73599,-83.3333333333333,4,2,1,5,0,0
73718,-83.3333333333333,4,2,1,60,0,0
75147,-50,4,2,1,60,0,0
75385,-83.3333333333333,4,2,1,60,0,0
75623,-50,4,2,1,60,0,0
75861,-83.3333333333333,4,2,1,60,0,0
77409,-83.3333333333333,4,2,1,5,0,0
77528,-125,4,2,1,60,0,0
77647,-83.3333333333333,4,2,1,5,0,0
77766,-125,4,2,1,60,0,0
77885,-83.3333333333333,4,2,1,5,0,0
78004,-83.3333333333333,4,2,1,60,0,0
78956,-50,4,2,1,60,0,0
79194,-83.3333333333333,4,2,1,60,0,0
79432,-50,4,2,1,60,0,0
79671,-83.3333333333333,4,2,1,60,0,0
81218,-83.3333333333333,4,2,1,5,0,0
81337,-125,4,2,1,60,0,0
81337,-83.3333333333333,4,2,1,60,0,0
81813,-100,4,2,1,60,0,0
81813,-100,4,2,1,60,0,0
85623,-76.9230769230769,4,2,1,60,0,0
86813,-50,4,2,1,60,0,0
87052,-76.9230769230769,4,2,1,60,0,0
88837,-76.9230769230769,4,2,1,5,0,0
88956,-76.9230769230769,4,2,1,60,0,0
89075,-76.9230769230769,4,2,1,5,0,0
89194,-76.9230769230769,4,2,1,60,0,0
89313,-76.9230769230769,4,2,1,5,0,0
89432,-76.9230769230769,4,2,1,60,0,0
90623,-50,4,2,1,60,0,0
90861,-76.9230769230769,4,2,1,60,0,0
92647,-76.9230769230769,4,2,1,5,0,0
92766,-76.9230769230769,4,2,1,60,0,0
94432,-50,4,2,1,60,0,0
94671,-76.9230769230769,4,2,1,60,0,0
96456,-76.9230769230769,4,2,1,5,0,0
96575,-76.9230769230769,4,2,1,60,0,0
96694,-76.9230769230769,4,2,1,5,0,0
96813,-76.9230769230769,4,2,1,60,0,0
96932,-76.9230769230769,4,2,1,5,0,0
97052,-100,4,2,1,60,0,0
98242,-100,4,2,1,40,0,0
99909,-83.3333333333333,4,2,1,60,0,0

[Colours]
Combo1 : 128,128,255
Combo2 : 192,192,192
Combo3 : 128,0,64
Combo4 : 192,192,192

[HitObjects]
408,312,62766,6,0,L|398:242,1,70
283,323,63242,1,0,0:0:0:0:
283,323,63480,2,0,L|278:378,1,35
166,311,63718,2,0,L|151:208,1,97.9999970092774
318,110,64194,1,0,0:0:0:0:
123,83,64432,2,0,L|118:28,1,48.9999985046387
273,0,64671,6,0,L|295:129,1,125.999996154785
332,147,65028,1,0,0:0:0:0:
206,149,65147,2,0,L|200:212,1,62.9999980773926
332,147,65385,2,0,L|337:83,1,62.9999980773926
290,252,65623,2,0,L|435:227,1,140
455,187,65980,1,0,0:0:0:0:
417,321,66099,2,0,L|512:329,1,70
321,349,66337,1,0,0:0:0:0:
321,349,66456,1,0,0:0:0:0:
170,275,66575,6,0,L|161:370,1,83.9999974365235
286,245,66813,1,0,0:0:0:0:
211,205,66932,1,0,0:0:0:0:
376,167,67052,6,0,L|384:262,1,83.9999974365235
260,137,67290,1,0,0:0:0:0:
335,97,67409,1,0,0:0:0:0:
172,56,67528,1,0,0:0:0:0:
169,89,67647,1,0,0:0:0:0:
166,122,67766,1,0,0:0:0:0:
162,155,67885,1,0,0:0:0:0:
36,266,68004,1,0,0:0:0:0:
33,233,68123,1,0,0:0:0:0:
30,200,68242,1,0,0:0:0:0:
26,167,68361,1,0,0:0:0:0:
11,94,68480,6,0,L|134:86,1,83.9999974365235,8|0,1:1|0:0,0:0:0:0:
314,201,68718,6,0,L|191:209,1,83.9999974365235,8|0,1:1|0:0,0:0:0:0:
11,94,68956,6,0,L|3:-29,1,83.9999974365235,8|0,1:1|0:0,0:0:0:0:
314,201,69194,6,0,L|322:324,1,83.9999974365235,8|0,1:1|0:0,0:0:0:0:
219,149,69432,6,0,P|271:101|385:140,1,168
405,148,69909,2,0,P|413:106|361:115,1,112
46,229,70385,6,0,P|31:185|42:135,1,83.9999974365235
201,174,70623,2,0,P|216:218|205:268,1,83.9999974365235
128,108,70861,1,0,0:0:0:0:
294,86,70980,1,0,0:0:0:0:
126,86,71099,1,0,0:0:0:0:
292,108,71218,1,0,0:0:0:0:
98,25,71337,2,0,P|65:80|87:182,1,140
70,153,71575,2,0,P|98:134|95:168,1,83.9999974365235
291,252,71813,2,0,P|324:197|302:95,1,140
318,123,72052,2,0,P|288:141|309:109,1,83.9999974365235
203,198,72290,6,0,P|178:163|197:103,1,83.9999974365235
419,40,72528,2,0,P|444:76|425:135,1,83.9999974365235
275,82,72766,2,0,L|263:-15,1,83.9999974365235
66,69,73004,2,0,L|54:167,1,83.9999974365235
190,313,73242,2,0,P|277:273|188:269,1,251.999992309571
189,265,73718,2,0,P|262:217|339:274,1,167.999994873047
83,185,74194,6,0,L|71:87,1,83.9999974365235
36,64,74432,1,0,0:0:0:0:
199,23,74551,1,0,0:0:0:0:
230,189,74671,2,0,L|242:91,1,83.9999974365235
277,68,74909,1,0,0:0:0:0:
114,27,75028,1,0,0:0:0:0:
292,242,75147,2,0,P|234:275|165:238,1,140
172,248,75385,2,0,P|153:289|166:339,1,83.9999974365235
373,140,75623,2,0,P|315:107|246:144,1,140
253,134,75861,2,0,P|234:93|247:43,1,83.9999974365235
73,35,76099,6,0,P|48:71|67:130,1,83.9999974365235
117,263,76337,2,0,P|143:235|124:176,1,83.9999974365235
239,55,76575,2,0,L|141:44,1,83.9999974365235
298,134,76813,2,0,L|200:145,1,83.9999974365235
419,34,77052,2,0,P|475:115|377:101,1,251.999992309571
377,101,77528,2,0,P|352:74|366:118,1,112
223,338,78004,6,0,P|267:354|317:342,1,83.9999974365235
282,182,78242,2,0,P|238:166|188:178,1,83.9999974365235
92,298,78480,1,0,0:0:0:0:
66,131,78599,1,0,0:0:0:0:
66,298,78718,1,0,0:0:0:0:
92,131,78837,1,0,0:0:0:0:
157,338,78956,2,0,P|103:373|6:327,1,140
32,357,79194,2,0,P|72:337|125:342,1,83.9999974365235
438,290,79432,2,0,P|383:255|286:301,1,140
313,271,79671,2,0,P|353:291|406:286,1,83.9999974365235
393,122,79909,6,0,P|349:106|299:118,1,83.9999974365235
170,200,80147,2,0,P|214:216|264:204,1,83.9999974365235
102,130,80385,2,0,L|91:228,1,83.9999974365235
14,64,80623,2,0,L|25:162,1,83.9999974365235
246,30,80861,2,0,P|286:116|208:59,1,251.999992309571
246,30,81337,2,0,P|317:97|275:171,1,167.999994873047
200,339,81813,6,0,L|298:328,1,70
386,251,82052,2,0,L|317:243,1,70
176,232,82290,1,0,0:0:0:0:
173,244,82409,1,0,0:0:0:0:
275,148,82528,1,0,0:0:0:0:
272,136,82647,1,0,0:0:0:0:
147,71,82766,2,0,P|131:101|136:169,1,70
231,41,83005,2,0,L|300:33,1,70
436,59,83242,1,0,0:0:0:0:
439,47,83361,1,0,0:0:0:0:
318,118,83480,1,0,0:0:0:0:
321,130,83599,1,0,0:0:0:0:
446,192,83718,6,0,P|462:162|457:94,1,70
352,208,83956,2,0,L|348:244,2,35
217,245,84194,2,0,L|225:314,1,70
138,186,84432,1,0,0:0:0:0:
214,151,84551,1,0,0:0:0:0:
352,208,84671,2,0,P|368:178|363:110,1,70
249,75,84909,1,0,0:0:0:0:
214,151,85028,1,0,0:0:0:0:
271,289,85148,2,0,P|240:305|172:300,1,70
74,230,85385,1,0,0:0:0:0:
109,154,85504,1,0,0:0:0:0:
282,207,85623,6,0,P|305:167|267:68,1,90.9999958343508
182,256,85861,1,0,0:0:0:0:
361,285,85980,1,0,0:0:0:0:
190,222,86099,2,0,P|167:262|204:361,1,90.9999958343508
346,333,86337,2,0,P|369:293|331:194,1,90.9999958343508
191,107,86575,2,0,L|98:96,1,90.9999958343508
381,138,86813,2,0,B|404:99|391:40|391:40|357:65|339:122,1,140
364,68,87052,2,0,P|324:91|225:53,1,90.9999958343508
213,29,87290,2,0,P|190:69|228:168,1,90.9999958343508
325,233,87528,5,0,0:0:0:0:
146,270,87647,1,0,0:0:0:0:
283,150,87766,1,0,0:0:0:0:
320,329,87885,1,0,0:0:0:0:
170,186,88004,2,0,P|124:188|86:210,1,90.9999958343508
159,374,88242,2,0,P|205:372|243:350,1,90.9999958343508
463,189,88480,2,0,P|367:153|429:234,1,272.999987503052
429,234,88956,2,0,P|403:253|336:262,1,90.9999958343508
375,309,89194,2,0,P|343:303|289:262,1,90.9999958343508
148,163,89432,6,0,P|125:203|163:302,1,90.9999958343508
254,118,89671,1,0,0:0:0:0:
73,97,89790,1,0,0:0:0:0:
253,70,89909,2,0,P|276:110|238:209,1,90.9999958343508
124,246,90147,2,0,P|101:206|139:107,1,90.9999958343508
241,340,90385,2,0,L|148:351,1,90.9999958343508
427,312,90623,2,0,B|451:263|451:263|429:117,1,140
438,178,90861,2,0,P|398:155|299:193,1,90.9999958343508
280,101,91099,2,0,L|269:194,1,90.9999958343508
127,305,91337,5,0,0:0:0:0:
94,125,91456,1,0,0:0:0:0:
269,191,91575,1,0,0:0:0:0:
92,224,91694,1,0,0:0:0:0:
269,191,91813,2,0,L|280:284,1,90.9999958343508
375,125,92052,1,0,0:0:0:0:
198,92,92171,1,0,0:0:0:0:
375,125,92290,2,0,P|392:45|296:111,1,272.999987503052
293,107,92766,2,0,P|213:151|198:91,1,181.999991668702
73,283,93242,6,0,P|50:243|88:144,1,90.9999958343508
198,90,93480,1,0,0:0:0:0:
19,54,93599,1,0,0:0:0:0:
198,90,93718,2,0,P|221:130|183:229,1,90.9999958343508
42,137,93956,2,0,P|19:97|57:-2,1,90.9999958343508
114,207,94194,2,0,L|23:217,1,90.9999958343508
263,74,94432,2,0,B|279:173|279:173|219:131,1,140
246,150,94671,2,0,P|206:127|107:165,1,90.9999958343508
210,301,94909,2,0,L|300:290,1,90.9999958343508
424,157,95147,5,0,0:0:0:0:
413,338,95266,1,0,0:0:0:0:
331,175,95385,1,0,0:0:0:0:
512,164,95504,1,0,0:0:0:0:
331,175,95623,2,0,P|308:135|346:36,1,90.9999958343508
404,244,95861,2,0,P|364:267|265:229,1,90.9999958343508
419,38,96099,2,0,P|471:42|387:81,1,272.999987503052
387,95,96575,2,0,L|376:185,1,90.9999958343508
334,48,96813,2,0,L|344:138,1,90.9999958343508
428,247,97052,6,0,P|394:266|312:234,1,70
268,220,97290,1,0,0:0:0:0:
215,293,97409,1,0,0:0:0:0:
107,208,97528,2,0,P|88:240|119:322,1,70
72,131,97766,2,0,L|162:120,1,70
268,64,98004,2,0,L|177:53,1,70
364,15,98242,2,0,P|330:58|328:4,2,140
429,264,98956,6,0,L|433:314,1,35
416,265,99075,2,0,L|420:315,1,35
407,265,99194,2,0,L|411:315,1,35
394,266,99313,2,0,L|398:316,1,35
384,265,99432,6,0,L|388:215,1,35
371,264,99551,2,0,L|375:214,1,35
362,264,99670,2,0,L|366:214,1,35
349,263,99789,2,0,L|353:213,1,35
300,158,99909,6,0,P|329:141|401:168,1,83.9999974365235
243,308,100147,6,0,P|213:324|141:297,1,83.9999974365235
300,158,100385,6,0,P|270:141|198:168,1,83.9999974365235
243,308,100623,6,0,P|272:324|344:297,1,83.9999974365235
