osu file format v14

[General]
AudioFilename: audio.mp3
AudioLeadIn: 0
PreviewTime: 67200
Countdown: 0
SampleSet: None
StackLeniency: 0.2
Mode: 0
LetterboxInBreaks: 0
WidescreenStoryboard: 0

[Editor]
Bookmarks: 5760,36480,59520,128640,144000,236160
DistanceSpacing: 2
BeatDivisor: 6
GridSize: 32
TimelineZoom: 3.700001

[Metadata]
Title:HOT DRUM
TitleUnicode:HOT DRUM
Artist:JOYRYDE
ArtistUnicode:JOYRYDE
Creator:Ksardas
Version:TWIN DRIFT with HAWKENS
Source:
Tags:heat future house frakturehawkens collab
BeatmapID:1831166
BeatmapSetID:876157

[Difficulty]
HPDrainRate:5.2
CircleSize:4
OverallDifficulty:8.2
ApproachRate:9.6
SliderMultiplier:3
SliderTickRate:1

[Events]
//Background and Video events
0,0,"drum.png",0,0
//Break Periods
2,129128,135811
//Storyboard Layer 0 (Background)
//Storyboard Layer 1 (Fail)
//Storyboard Layer 2 (Pass)
//Storyboard Layer 3 (Foreground)
//Storyboard Sound Samples

[TimingPoints]
3840,480,4,2,1,70,1,0
3840,-200,4,2,1,45,0,0
5760,-100,4,2,1,50,0,0
6240,-133.333333333333,4,2,1,50,0,0
9120,-83.3333333333333,4,2,1,50,0,0
9600,-133.333333333333,4,2,1,50,0,0
12960,-80,4,2,1,50,0,0
13440,-133.333333333333,4,2,1,50,0,0
16800,-76.9230769230769,4,2,1,50,0,0
17280,-133.333333333333,4,2,1,50,0,0
20640,-66.6666666666667,4,2,1,55,0,0
21120,-100,4,2,1,55,0,0
21480,-117.647058823529,4,2,1,55,0,0
22080,-100,4,2,1,55,0,0
22440,-117.647058823529,4,2,1,55,0,0
23040,-100,4,2,1,55,0,0
23400,-117.647058823529,4,2,1,55,0,0
24480,-76.9230769230769,4,2,1,55,0,0
24960,-100,4,2,1,55,0,0
25320,-117.647058823529,4,2,1,55,0,0
25920,-100,4,2,1,55,0,0
26280,-117.647058823529,4,2,1,55,0,0
26880,-100,4,2,1,55,0,0
27240,-117.647058823529,4,2,1,55,0,0
28320,-80,4,2,1,55,0,0
28800,-100,4,2,1,55,0,0
29160,-117.647058823529,4,2,1,55,0,0
29760,-100,4,2,1,55,0,0
30120,-117.647058823529,4,2,1,55,0,0
30720,-100,4,2,1,55,0,0
31080,-117.647058823529,4,2,1,55,0,0
32160,-76.9230769230769,4,2,1,55,0,0
32640,-90.9090909090909,4,2,1,55,0,0
33000,-111.111111111111,4,2,1,55,0,0
33600,-90.9090909090909,4,2,1,55,0,0
33960,-111.111111111111,4,2,1,55,0,0
34560,-90.9090909090909,4,2,1,55,0,0
34920,-111.111111111111,4,2,1,55,0,0
36000,-74.0740740740741,4,2,1,55,0,0
36480,-66.6666666666667,4,2,1,55,0,0
36720,-133.333333333333,4,2,1,30,0,0
40320,-66.6666666666667,4,2,1,70,0,0
40560,-133.333333333333,4,2,1,30,0,0
43680,-83.3333333333333,4,2,1,70,0,0
44160,-66.6666666666667,4,2,1,70,0,0
44400,-133.333333333333,4,2,1,30,0,0
48000,-66.6666666666667,4,2,1,70,0,0
48240,-133.333333333333,4,2,1,30,0,0
51360,-80,4,2,1,70,0,0
51840,-66.6666666666667,4,2,1,70,0,0
52080,-200,4,2,1,30,0,0
55680,-166.666666666667,4,2,1,30,0,0
57600,-142.857142857143,4,2,1,30,0,0
59520,-125,4,2,1,45,0,0
61440,-117.647058823529,4,2,1,45,0,0
63360,-100,4,2,1,45,0,0
63600,-95.2380952380952,4,2,1,55,0,0
63840,-90.9090909090909,4,2,1,55,0,0
64080,-86.9565217391304,4,2,1,55,0,0
64320,-83.3333333333333,4,2,1,55,0,0
64560,-80,4,2,1,55,0,0
64800,-76.9230769230769,4,2,1,55,0,0
65040,-74.0740740740741,4,2,1,55,0,0
65280,-71.4285714285714,4,2,1,55,0,0
65520,-68.9655172413793,4,2,1,55,0,0
65760,-66.6666666666667,4,2,1,55,0,0
66000,-64.5161290322581,4,2,1,55,0,0
66240,-62.5,4,2,1,55,0,0
66480,-60.6060606060606,4,2,1,55,0,0
66720,-58.8235294117647,4,2,1,55,0,0
66960,-57.1428571428571,4,2,1,55,0,0
67200,-200,4,2,1,70,0,0
67680,-100,4,2,1,70,0,1
68160,-83.3333333333333,4,2,1,70,0,1
68640,-71.4285714285714,4,2,1,70,0,1
69120,-62.5,4,2,1,70,0,1
69600,-55.5555555555556,4,2,1,70,0,1
70080,-66.6666666666667,4,2,1,70,0,1
70560,-100,4,2,1,70,0,1
71040,-90.9090909090909,4,2,1,70,0,1
74880,-200,4,2,1,70,0,0
75360,-100,4,2,1,70,0,1
75840,-83.3333333333333,4,2,1,70,0,1
76320,-71.4285714285714,4,2,1,70,0,1
76800,-62.5,4,2,1,70,0,1
77280,-55.5555555555556,4,2,1,70,0,1
77760,-66.6666666666667,4,2,1,70,0,1
78240,-100,4,2,1,70,0,1
78720,-90.9090909090909,4,2,1,70,0,1
82560,-200,4,2,1,70,0,0
83040,-100,4,2,1,70,0,1
83520,-90.9090909090909,4,2,1,70,0,1
84000,-83.3333333333333,4,2,1,70,0,1
84480,-66.6666666666667,4,2,1,70,0,1
84960,-62.5,4,2,1,70,0,1
85440,-58.8235294117647,4,2,1,70,0,1
85920,-100,4,2,1,70,0,1
86400,-90.9090909090909,4,2,1,70,0,1
90240,-200,4,2,1,70,0,0
90720,-100,4,2,1,70,0,1
91200,-90.9090909090909,4,2,1,70,0,1
91680,-83.3333333333333,4,2,1,70,0,1
92160,-66.6666666666667,4,2,1,70,0,1
92640,-62.5,4,2,1,70,0,1
93120,-58.8235294117647,4,2,1,70,0,1
93600,-100,4,2,1,70,0,1
94080,-200,4,2,1,35,0,0
97920,-71.4285714285714,4,2,1,70,0,1
98880,-76.9230769230769,4,2,1,70,0,1
99840,-83.3333333333333,4,2,1,70,0,1
100800,-90.9090909090909,4,2,1,70,0,1
101760,-100,4,2,1,70,0,1
105600,-71.4285714285714,4,2,1,70,0,1
106560,-76.9230769230769,4,2,1,70,0,1
107520,-83.3333333333333,4,2,1,70,0,1
108480,-90.9090909090909,4,2,1,70,0,1
108960,-66.6666666666667,4,2,1,70,0,1
109200,-90.9090909090909,4,2,1,70,0,1
109440,-100,4,2,1,70,0,1
111360,-100,4,2,1,70,0,1
111840,-125,4,2,1,70,0,1
112320,-166.666666666667,4,2,1,70,0,1
112800,-76.9230769230769,4,2,1,70,0,1
113280,-100,4,2,1,50,0,0
120480,-76.9230769230769,4,2,1,50,0,0
120960,-100,4,2,1,50,0,0
124320,-76.9230769230769,4,2,1,50,0,0
124800,-100,4,2,1,50,0,0
126720,-125,4,2,1,50,0,0
128640,-83.3333333333333,4,2,1,50,0,0
129120,-83.3333333333333,4,2,1,50,0,0
144000,-222.222222222221,4,2,1,50,0,0
159360,-133.333333333333,4,2,1,30,0,0
166080,-117.647058823529,4,2,1,50,0,0
167040,-100,4,2,1,50,0,0
170880,-100,4,2,1,70,0,0
172800,-100,4,2,1,55,0,0
175200,-83.3333333333333,4,2,1,70,0,1
178080,-66.6666666666667,4,2,1,70,0,1
178560,-83.3333333333333,4,2,1,70,0,1
182400,-100,4,2,1,70,0,1
182880,-83.3333333333333,4,2,1,70,0,1
185040,-71.4285714285714,4,2,1,70,0,1
186240,-83.3333333333333,4,2,1,70,0,1
193680,-71.4285714285714,4,2,1,70,0,1
193920,-83.3333333333333,4,2,1,70,0,1
201600,-100,4,2,1,45,0,0
204960,-50,4,2,1,70,0,0
205440,-83.3333333333333,4,2,1,70,0,1
218880,-83.3333333333333,4,2,1,70,0,0
219360,-100,4,2,1,45,0,0
219840,-125,4,2,1,45,0,0
220320,-200,4,2,1,45,0,0
220800,-100,4,2,1,50,0,0
234240,-200,4,2,1,50,0,0

[Colours]
Combo1 : 143,156,175
Combo2 : 139,207,146
Combo3 : 136,198,185

[HitObjects]
439,51,3840,6,0,L|344:43,1,75,8|0,0:0|0:0,0:0:0:0:
252,132,4240,5,0,0:0:0:0:
270,145,4320,2,0,L|365:137,1,75,8|0,0:0|0:0,0:0:0:0:
457,226,4720,5,0,0:0:0:0:
439,239,4800,2,0,L|370:233,1,50,8|0,0:0|0:0,0:0:0:0:
270,333,5040,2,0,L|338:327,1,50
385,321,5280,5,8,0:0:0:0:
385,321,5760,6,0,B|270:333|270:333|290:308|290:274,1,150,0|0,1:0|0:0,0:0:0:0:
282,218,6160,5,0,0:0:0:0:
270,199,6240,2,0,P|228:162|160:179,1,112.500004291535,8|0,1:0|0:0,0:0:0:0:
120,221,6640,5,0,0:0:0:0:
105,232,6720,2,0,L|108:152,1,75.000002861023,0|0,1:0|0:0,0:0:0:0:
88,145,6960,2,0,L|91:66,1,75.000002861023
9,263,7200,6,0,P|51:226|119:243,1,112.500004291535,8|0,1:0|0:0,0:0:0:0:
167,293,7600,5,0,0:0:0:0:
187,302,7680,2,0,P|220:313|264:298,1,75.000002861023,0|0,1:0|0:0,0:0:0:0:
257,302,7920,2,0,P|285:276|294:238,1,75.000002861023
235,129,8160,2,0,L|221:253,1,112.500004291535,8|0,1:0|0:0,0:0:0:0:
313,159,8560,5,0,0:0:0:0:
333,148,8640,2,2,L|372:155,2,37.5000014305115,2|2|2,1:0|2:0|2:0,2:0:0:0:
472,227,8880,2,2,L|435:233,2,37.5000014305115,2|2|2,2:0|2:0|2:0,2:0:0:0:
422,302,9120,6,0,B|350:279|352:201|400:174|400:174|467:102|390:45,1,299.999990844727,10|0,0:0|0:0,0:0:0:0:
325,43,9600,6,0,L|248:49,1,75.000002861023,0|0,1:0|0:0,0:0:0:0:
154,54,9840,2,0,L|76:60,1,75.000002861023
218,162,10080,2,0,L|330:153,1,112.500004291535,8|0,1:0|0:0,0:0:0:0:
63,143,10480,5,0,0:0:0:0:
48,151,10560,2,0,L|125:157,1,75.000002861023,0|0,1:0|0:0,0:0:0:0:
218,162,10800,2,0,L|311:168,1,75.000002861023
155,270,11040,2,0,P|98:271|42:261,1,112.500004291535,8|0,1:0|0:0,0:0:0:0:
310,251,11440,5,0,0:0:0:0:
325,259,11520,2,0,L|248:265,1,75.000002861023,0|0,1:0|0:0,0:0:0:0:
155,270,11760,2,0,L|77:275,1,75.000002861023
218,378,12000,2,0,B|279:384|279:384|330:369,1,112.500004291535,8|0,1:0|0:0,0:0:0:0:
434,296,12400,5,0,0:0:0:0:
461,270,12480,2,2,L|466:213,2,37.5000014305115,2|2|2,1:0|2:0|2:0,2:0:0:0:
384,54,12720,2,2,L|389:111,2,37.5000014305115,2|2|2,2:0|2:0|2:0,2:0:0:0:
498,334,12960,6,0,B|486:356|466:373|450:381|387:387|358:347|357:306|360:287|360:287|302:271|254:286,1,312.5,10|0,1:0|0:0,0:0:0:0:
208,328,13440,6,0,P|274:360|254:286,1,187.500007152558,0|0,1:0|0:0,0:0:0:0:
207,251,13920,2,0,P|156:258|90:281,1,112.500004291535,8|0,1:0|0:0,0:0:0:0:
29,171,14320,5,0,0:0:0:0:
45,159,14400,2,0,P|66:163|121:184,1,75.000002861023,0|0,1:0|0:0,0:0:0:0:
254,140,14640,2,0,P|219:147|167:166,1,75.000002861023
6,55,14880,2,0,P|112:60|207:44,1,187.500007152558,8|0,1:0|0:0,0:0:0:0:
277,8,15360,6,0,P|318:61|265:23,1,187.500007152558,0|0,1:0|0:0,0:0:0:0:
326,135,15840,2,0,P|380:96|400:25,1,112.500004291535,8|0,1:0|0:0,0:0:0:0:
444,169,16240,5,0,0:0:0:0:
418,191,16320,2,2,L|429:241,2,37.5000014305115,2|2|2,1:0|2:0|2:0,2:0:0:0:
345,264,16560,2,2,L|356:314,2,37.5000014305115,2|2|2,2:0|2:0|2:0,2:0:0:0:
245,338,16800,6,0,B|348:337|488:360|488:360|438:336|415:275,1,324.999985122681,10|0,1:0|0:0,0:0:0:0:
402,234,17280,6,0,B|373:160|401:112|401:112|422:143|405:180,1,187.500007152558,0|0,1:0|0:0,0:0:0:0:
333,88,17760,2,0,P|377:45|436:50,1,112.500004291535,8|0,1:0|0:0,0:0:0:0:
256,44,18160,5,0,0:0:0:0:
236,35,18240,2,0,P|207:41|173:75,1,75.000002861023,0|0,1:0|0:0,0:0:0:0:
54,135,18480,2,0,P|74:102|73:51,1,75.000002861023
141,139,18720,2,0,L|126:337,1,187.500007152558,8|0,1:0|0:0,0:0:0:0:
50,275,19200,6,0,P|134:234|217:304,1,187.500007152558,0|0,1:0|0:0,0:0:0:0:
275,324,19680,2,0,B|286:379|286:379|296:294|330:245,1,187.500007152558,8|0,1:0|0:0,0:0:0:0:
390,224,20160,6,2,L|437:220,2,37.5000014305115,2|2|2,0:0|2:0|2:0,2:0:0:0:
470,138,20400,2,2,L|423:134,2,37.5000014305115,2|2|2,0:0|2:0|2:0,2:0:0:0:
423,315,20640,6,0,B|437:34|437:34|409:83|335:96,1,375.000014305115,2|0,0:0|0:0,0:0:0:0:
237,116,21120,6,0,B|136:100|136:100|190:76,1,150,8|0,1:0|0:0,0:0:0:0:
319,0,21480,6,0,L|300:107,1,63.7500012159348,0|0,0:0|1:0,0:0:0:0:
266,187,21720,1,0,0:0:0:0:
277,250,21840,2,0,L|288:317,1,63.7500012159348
447,219,22080,6,0,P|416:169|391:233,1,150,0|0,1:0|0:0,0:0:0:0:
426,344,22440,6,0,L|437:273,1,63.7500012159348,0|8,0:0|1:0,0:0:0:0:
478,156,22680,1,0,0:0:0:0:
468,94,22800,2,0,L|457:27,1,63.7500012159348
384,226,23040,6,0,P|353:176|328:240,1,150,0|0,1:0|0:0,0:0:0:0:
342,358,23400,6,0,L|330:287,1,63.7500012159348,0|8,0:0|1:0,0:0:0:0:
289,170,23640,1,0,0:0:0:0:
300,108,23760,2,0,L|311:41,1,63.7500012159348
388,101,24000,6,2,L|453:111,2,42.5000008106232,2|2|2,1:0|2:0|2:0,2:0:0:0:
224,49,24240,2,2,L|159:59,2,42.5000008106232,2|2|2,2:0|2:0|2:0,2:0:0:0:
418,27,24480,6,0,P|511:116|387:181,1,292.499986610413,10|0,1:0|0:0,0:0:0:0:
294,209,24960,6,0,B|279:270|321:317|321:317|333:282,1,150,0|0,1:0|0:0,0:0:0:0:
398,320,25320,2,0,L|474:310,1,63.7500012159348,0|8,0:0|1:0,0:0:0:0:
248,356,25560,1,0,0:0:0:0:
184,364,25680,2,0,L|108:354,1,63.7500012159348
40,244,25920,6,0,P|41:184|149:151,1,150,0|0,1:0|0:0,0:0:0:0:
322,170,26280,2,0,L|398:160,1,63.7500012159348,0|8,0:0|1:0,0:0:0:0:
172,206,26520,1,0,0:0:0:0:
108,214,26640,2,0,L|32:204,1,63.7500012159348
321,94,26880,6,0,P|385:127|393:199,1,150,0|0,1:0|0:0,0:0:0:0:
178,155,27240,2,0,L|102:145,1,63.7500012159348,0|8,0:0|1:0,0:0:0:0:
328,191,27480,1,0,0:0:0:0:
392,199,27600,2,0,L|468:189,1,63.7500012159348,0|0,1:0|0:0,0:0:0:0:
379,368,27840,6,2,P|345:363|318:344,2,42.5000008106232,2|2|2,1:0|2:0|2:0,2:0:0:0:
361,279,28080,2,2,P|395:284|422:303,2,42.5000008106232,2|2|2,2:0|2:0|2:0,2:0:0:0:
462,336,28320,2,0,B|495:291|473:237|434:214|434:214|416:124|473:71,1,281.25,2|0,1:0|0:0,0:0:0:0:
402,287,28800,6,0,B|365:306|365:306|303:299|303:299|249:325,1,150,0|0,1:0|0:0,0:0:0:0:
285,227,29160,2,0,L|366:237,1,63.7500012159348,0|8,0:0|1:0,0:0:0:0:
261,318,29400,1,0,0:0:0:0:
198,326,29520,2,0,L|117:316,1,63.7500012159348
53,218,29760,6,0,B|46:100|46:100|71:131,1,150,0|0,1:0|0:0,0:0:0:0:
181,62,30120,2,0,L|100:72,1,63.7500012159348,0|8,0:0|1:0,0:0:0:0:
205,153,30360,1,0,0:0:0:0:
268,161,30480,2,0,L|349:151,1,63.7500012159348
441,302,30720,6,0,B|448:184|448:184|423:215,1,150,0|0,1:0|0:0,0:0:0:0:
307,266,31080,2,0,L|388:256,1,63.7500012159348,0|8,0:0|1:0,0:0:0:0:
170,360,31320,1,0,0:0:0:0:
233,368,31440,2,0,L|314:358,1,63.7500012159348
108,247,31680,6,2,L|113:297,2,42.5000008106232,2|2|2,1:0|0:0|0:0,0:0:0:0:
34,210,31920,2,2,L|29:260,2,42.5000008106232
70,357,32160,6,0,B|62:282|62:282|79:206|79:206|73:132|73:132|107:93|95:36,1,292.499986610413,10|0,1:0|0:0,0:0:0:0:
22,72,32640,6,0,B|93:95|93:95|150:111|199:66,1,165.000005035401,0|0,1:0|0:0,0:0:0:0:
223,24,33000,2,0,L|307:36,1,67.4999979400635,0|8,0:0|1:0,0:0:0:0:
344,154,33240,1,0,0:0:0:0:
402,101,33360,2,0,L|486:113,1,67.4999979400635
362,229,33600,6,0,P|407:252|410:166,1,165.000005035401,0|0,1:0|0:0,0:0:0:0:
344,154,33960,2,0,L|260:166,1,67.4999979400635,0|8,0:0|1:0,0:0:0:0:
223,284,34200,1,0,0:0:0:0:
165,231,34320,2,0,L|81:243,1,67.4999979400635
205,359,34560,6,0,P|160:382|157:296,1,165.000005035401,0|0,1:0|0:0,0:0:0:0:
223,284,34920,2,0,L|214:200,1,67.4999979400635,0|8,0:0|1:0,0:0:0:0:
277,163,35160,1,0,0:0:0:0:
270,96,35280,2,0,L|261:12,1,67.4999979400635
348,69,35520,6,2,L|402:75,2,44.999998626709,2|2|2,1:0|0:0|0:0,0:0:0:0:
193,96,35760,2,2,L|139:102,2,44.999998626709
262,23,36000,6,0,B|257:65|257:65|272:96|272:96|266:143|266:143|246:179|246:179|249:215|249:215|272:246|272:246|277:286|277:286|236:325,1,303.750001158714,10|0,1:0|0:0,0:0:0:0:
198,326,36480,6,0,B|27:309|27:309|107:267,1,225.000008583069,0|0,1:0|0:0,0:0:0:0:
314,326,39360,6,2,L|365:334,5,37.5000014305115
198,326,40320,6,0,B|27:309|27:309|107:267,1,225.000008583069,0|0,1:0|0:0,0:0:0:0:
314,326,43200,6,2,L|365:334,5,37.5000014305115
223,259,43680,6,0,B|186:192|193:85|193:85|209:155|251:192,1,269.999991760254
314,326,44160,6,0,B|485:309|485:309|437:284,1,225.000008583069,0|0,1:0|0:0,3:0:0:0:
198,326,47040,6,2,L|147:334,5,37.5000014305115
314,326,48000,6,0,B|485:309|485:309|405:267,1,225.000008583069,0|0,1:0|0:0,3:0:0:0:
198,326,50880,6,2,L|147:334,5,37.5000014305115
288,258,51360,6,0,B|317:187|317:187|318:84|318:84|304:150|304:150|260:191,1,281.25
198,326,51840,6,0,B|27:309|27:309|107:267,1,225.000008583069,0|0,1:0|0:0,3:0:0:0:
78,39,52320,6,0,L|84:133,1,75,0|0,1:0|0:0,0:0:0:0:
164,134,52800,6,0,L|159:59,1,75,0|0,1:0|0:0,0:0:0:0:
233,112,53280,2,0,L|228:37,1,75,0|0,1:0|0:0,0:0:0:0:
309,83,53760,6,0,L|304:157,1,75,0|0,1:0|0:0,0:0:0:0:
378,105,54240,2,0,L|373:179,1,75,0|0,1:0|0:0,0:0:0:0:
481,336,54720,6,0,L|485:261,1,75,0|0,1:0|0:0,0:0:0:0:
412,314,55200,2,0,L|416:239,1,75,0|0,1:0|0:0,0:0:0:0:
321,264,55680,6,0,L|327:363,1,89.9999972534181,0|0,1:0|0:0,0:0:0:0:
252,286,56160,2,0,L|258:385,1,89.9999972534181,0|0,1:0|0:0,0:0:0:0:
174,322,56640,6,0,L|180:222,1,89.9999972534181,0|0,1:0|0:0,0:0:0:0:
105,300,57120,2,0,L|111:200,1,89.9999972534181,0|0,1:0|0:0,0:0:0:0:
48,83,57600,6,0,L|40:199,1,104.999996795654,0|0,1:0|0:0,0:0:0:0:
117,105,58080,2,0,L|109:215,1,104.999996795654,0|0,1:0|0:0,0:0:0:0:
195,294,58560,6,0,L|187:177,1,104.999996795654,0|0,1:0|0:0,0:0:0:0:
264,272,59040,2,0,L|256:161,1,104.999996795654,0|0,1:0|0:0,0:0:0:0:
407,251,59520,6,0,L|411:174,1,60,0|0,1:0|0:0,0:0:0:0:
322,190,59760,2,0,L|317:113,1,60,0|0,1:0|0:0,0:0:0:0:
410,310,60000,6,0,L|405:233,1,60,0|0,1:0|0:0,0:0:0:0:
495,249,60240,2,0,L|499:172,1,60,0|0,1:0|0:0,0:0:0:0:
295,315,60480,6,0,L|231:308,1,60,0|0,1:0|0:0,0:0:0:0:
67,230,60720,2,0,L|131:223,1,60,0|0,1:0|0:0,0:0:0:0:
354,138,60960,6,0,L|290:145,1,60,0|0,1:0|0:0,0:0:0:0:
126,223,61200,2,0,L|190:230,1,60,0|0,1:0|0:0,0:0:0:0:
444,75,61440,6,0,L|372:67,1,63.7500012159348,0|0,1:0|0:0,0:0:0:0:
43,102,61680,2,0,L|115:94,1,63.7500012159348,0|0,1:0|0:0,0:0:0:0:
494,163,61920,2,0,L|422:155,1,63.7500012159348,0|0,1:0|0:0,0:0:0:0:
0,184,62160,2,0,L|72:176,1,63.7500012159348,0|0,1:0|0:0,0:0:0:0:
363,342,62400,6,0,L|401:283,1,63.7500012159348,0|0,1:0|0:0,0:0:0:0:
406,85,62640,2,0,L|347:47,1,63.7500012159348,0|0,1:0|0:0,0:0:0:0:
149,42,62880,2,0,L|111:101,1,63.7500012159348,0|0,1:0|0:0,0:0:0:0:
106,299,63120,2,0,L|165:337,1,63.7500012159348,0|0,1:0|0:0,0:0:0:0:
294,153,63360,6,0,L|299:93,2,50,0|0|0,1:0|1:0|1:0,1:0:0:0:
218,231,63600,6,0,L|213:291,2,52.4999983978272,0|0|0,1:0|1:0|1:0,1:0:0:0:
300,160,63840,6,0,L|315:101,2,55.0000016784668,0|0|0,1:0|1:0|1:0,1:0:0:0:
211,223,64080,6,0,L|196:282,2,57.5000010967255,0|0|0,1:0|1:0|1:0,1:0:0:0:
305,168,64320,6,0,L|330:113,2,59.9999981689454,0|0|0,1:0|1:0|1:0,1:0:0:0:
206,215,64560,6,0,L|179:275,2,62.5,0|0|0,1:0|1:0|1:0,1:0:0:0:
308,177,64800,6,0,L|349:118,2,64.9999970245363,0|0|0,1:0|1:0|1:0,1:0:0:0:
203,206,65040,6,0,L|160:268,2,67.5000002574921,0|0|0,1:0|1:0|1:0,1:0:0:0:
310,186,65280,6,0,L|364:131,2,69.9999978637696,0|0|0,1:0|1:0|1:0,1:0:0:0:
201,197,65520,6,0,L|147:252,2,72.5000022125245,0|0|0,1:0|1:0|1:0,1:0:0:0:
310,196,65760,6,0,L|377:148,2,75.000002861023,0|0|0,1:0|1:0|1:0,1:0:0:0:
201,187,66000,6,0,L|128:239,2,77.5000005912781,0|0|0,1:0|1:0|1:0,1:0:0:0:
308,205,66240,6,0,L|385:169,2,80,0|0|0,1:0|1:0|1:0,1:0:0:0:
203,178,66480,6,0,L|123:216,2,82.5000007867813,0|0|0,1:0|1:0|1:0,1:0:0:0:
305,214,66720,6,0,L|394:190,2,85.0000016212464,0|0|0,1:0|1:0|1:0,1:0:0:0:
206,169,66960,6,0,L|109:196,2,87.500000834465,0|0|0,1:0|1:0|1:0,1:0:0:0:
309,44,67200,6,0,L|396:52,1,75,0|0,1:0|0:0,0:0:0:0:
111,307,67680,6,0,B|196:314|196:314|156:253,1,150,8|0,1:0|0:0,0:0:0:0:
62,244,68080,1,0,0:0:0:0:
111,307,68160,6,0,B|238:317|238:317|201:260,1,179.999994506836,0|0,1:0|0:0,0:0:0:0:
62,244,68560,1,0,0:0:0:0:
111,307,68640,6,0,B|281:321|281:321|239:257,1,209.999993591309,8|0,1:0|0:0,0:0:0:0:
62,244,69040,1,0,0:0:0:0:
111,307,69120,6,0,B|323:325|323:325|288:271,1,240,0|0,1:0|0:0,0:0:0:0:
62,244,69520,1,0,0:0:0:0:
111,307,69600,6,0,B|386:331|386:331,1,269.999991760254,8|0,1:0|0:0,0:0:0:0:
62,244,69960,1,0,0:0:0:0:
154,181,70080,5,2,1:0:0:0:
186,148,70160,1,2,2:0:0:0:
196,109,70240,1,2,2:0:0:0:
181,70,70320,5,2,2:0:0:0:
144,49,70400,1,2,2:0:0:0:
105,52,70480,1,2,2:0:0:0:
80,78,70560,6,0,B|160:90|160:90|218:47|218:47|312:59,1,225,2|0,1:0|0:0,0:0:0:0:
413,73,71040,5,0,1:0:0:0:
428,247,71200,1,0,3:0:0:0:
428,299,71280,2,0,P|396:343|347:367,1,110.000003356934,0|0,0:0|3:0,0:0:0:0:
317,249,71521,2,0,P|357:267|318:289,1,110.000003356934,8|0,1:0|3:0,0:0:0:0:
37,236,71760,2,0,B|79:227|79:227|131:230,1,82.5000025177003,0|0,3:0|0:0,0:0:0:0:
361,69,72000,6,0,P|256:76|191:117,1,165.000005035401,0|0,3:0|0:0,0:0:0:0:
152,164,72360,1,0,0:0:0:0:
264,249,72480,2,0,B|310:272|310:272|381:263,1,110.000003356934,8|0,1:0|0:0,0:0:0:0:
292,342,72720,2,0,B|246:319|246:319|175:328,1,110.000003356934
113,338,72960,5,0,3:0:0:0:
38,134,73120,1,0,3:0:0:0:
64,146,73200,2,0,B|114:162|114:162|169:147,1,110.000003356934,0|0,0:0|3:0,0:0:0:0:
222,90,73439,2,0,B|171:72|171:72|116:87,1,110.000003356934,8|0,1:0|3:0,0:0:0:0:
45,310,73680,2,0,B|95:326|95:326|150:311,1,110.000003356934,0|0,3:0|0:0,0:0:0:0:
254,280,73920,5,2,3:0:0:0:
284,263,74000,1,2,2:0:0:0:
319,261,74080,1,2,2:0:0:0:
352,274,74160,5,2,2:0:0:0:
376,299,74240,1,2,2:0:0:0:
386,333,74320,1,2,2:0:0:0:
382,367,74400,6,0,B|353:325|355:276|355:276|314:234|314:234|329:177|284:104,1,247.500007553101,10|0,3:0|0:0,0:0:0:0:
304,66,74880,6,0,P|349:81|378:119,1,75,0|0,1:0|0:0,0:0:0:0:
95,181,75280,5,2,0:0:0:0:
92,231,75360,2,0,P|54:189|134:158,1,150,8|0,1:0|0:0,0:0:0:0:
372,176,75760,5,2,0:0:0:0:
426,229,75840,2,0,P|475:163|411:112,1,179.999994506836,0|0,1:0|0:0,0:0:0:0:
95,181,76240,5,2,0:0:0:0:
82,257,76320,2,0,P|17:186|152:133,1,209.999993591309,8|0,1:0|0:0,0:0:0:0:
372,176,76720,5,2,0:0:0:0:
390,268,76800,2,0,P|467:181|303:118,1,240,0|0,1:0|0:0,0:0:0:0:
95,181,77200,5,2,0:0:0:0:
76,271,77280,2,0,P|2:182|99:88,1,269.999991760254,8|0,1:0|0:0,0:0:0:0:
210,192,77640,5,2,0:0:0:0:
195,232,77760,5,0,1:0:0:0:
197,250,77840,1,0,2:0:0:0:
199,269,77920,1,0,2:0:0:0:
202,287,78000,6,0,P|270:307|337:287,1,112.500004291535
451,222,78240,2,0,B|498:161|487:64|487:64|487:101|467:127,1,225,8|0,1:0|0:0,0:0:0:0:
410,74,78720,5,0,1:0:0:0:
382,146,78880,1,0,3:0:0:0:
395,143,78960,2,0,P|446:144|490:198,1,110.000003356934,0|0,0:0|3:0,0:0:0:0:
439,284,79200,2,0,P|387:282|343:228,1,110.000003356934,8|0,1:0|3:0,0:0:0:0:
387,136,79440,2,0,P|444:137|486:166,1,110.000003356934,0|0,3:0|0:0,0:0:0:0:
444,291,79680,6,0,P|358:270|326:202,1,165.000005035401,0|0,3:0|0:0,0:0:0:0:
425,192,80040,1,0,0:0:0:0:
378,361,80160,2,0,L|265:345,1,110.000003356934,8|0,3:0|0:0,0:0:0:0:
348,105,80400,2,0,L|458:120,1,110.000003356934,0|0,3:0|0:0,0:0:0:0:
425,192,80640,5,0,3:0:0:0:
164,353,80800,1,0,3:0:0:0:
114,343,80880,2,0,P|80:300|76:246,1,110.000003356934,0|0,0:0|3:0,0:0:0:0:
197,184,81120,2,0,P|189:240|146:285,1,110.000003356934,8|0,1:0|3:0,0:0:0:0:
39,113,81360,2,0,P|63:60|117:31,1,110.000003356934,0|0,3:0|0:0,0:0:0:0:
197,184,81600,5,2,3:0:0:0:
197,225,81680,1,2,2:0:0:0:
176,259,81760,1,2,2:0:0:0:
139,278,81840,5,2,2:0:0:0:
99,274,81920,1,2,2:0:0:0:
66,250,82000,1,2,2:0:0:0:
51,211,82080,6,0,B|95:59|95:59|67:14|67:14|46:84,1,275.000008392334,10|0,3:0|0:0,0:0:0:0:
95,60,82560,6,0,B|142:72|142:72|196:65,1,75,0|0,1:0|0:0,0:0:0:0:
168,68,83040,6,0,P|260:55|362:97,1,150,8|0,1:0|0:0,0:0:0:0:
51,211,83440,1,0,0:0:0:0:
217,130,83520,6,0,P|302:93|391:32,1,192.500005874634,0|0,1:0|0:0,0:0:0:0:
111,295,83920,1,0,0:0:0:0:
272,183,84000,6,0,P|332:118|314:29,1,179.999994506836,8|0,1:0|0:0,0:0:0:0:
206,340,84360,1,0,0:0:0:0:
272,182,84480,6,0,P|221:96|92:89,1,225.000008583069,0|0,1:0|0:0,0:0:0:0:
323,336,84880,1,0,0:0:0:0:
365,169,84960,6,0,P|299:93|185:145,1,240,8|0,1:0|0:0,0:0:0:0:
419,289,85320,1,0,0:0:0:0:
455,232,85440,5,2,1:0:0:0:
454,210,85520,1,2,2:0:0:0:
453,189,85600,1,2,2:0:0:0:
452,168,85680,5,2,2:0:0:0:
451,147,85760,1,2,2:0:0:0:
450,125,85840,1,2,2:0:0:0:
450,104,85920,6,0,B|484:66|484:66|442:30|442:30|412:64|412:64|381:60|335:70,1,225,2|0,1:0|0:0,0:0:0:0:
304,137,86400,5,0,1:0:0:0:
198,87,86560,1,0,0:0:0:0:
135,44,86640,2,0,B|70:57|70:57|40:106,1,110.000003356934,0|0,3:0|0:0,0:0:0:0:
74,299,86880,2,0,B|139:286|139:286|169:237,1,110.000003356934,8|0,1:0|0:0,0:0:0:0:
116,122,87120,2,0,B|81:178|81:178|96:233,1,110.000003356934,0|0,3:0|0:0,0:0:0:0:
210,327,87360,6,0,B|279:340|332:322|332:322|307:320|290:307,1,165.000005035401,0|0,1:0|3:0,0:0:0:0:
245,150,87760,1,0,0:0:0:0:
245,150,87840,2,0,B|162:153|162:153|198:173,1,110.000003356934,8|0,1:0|0:0,0:0:0:0:
245,150,88080,2,0,B|328:147|328:147|292:127,1,110.000003356934,0|0,3:0|0:0,0:0:0:0:
244,73,88320,5,0,3:0:0:0:
437,291,88480,1,0,0:0:0:0:
437,291,88560,2,0,P|402:308|440:299,1,110.000003356934,0|0,3:0|0:0,0:0:0:0:
339,341,88800,2,0,P|332:288|356:239,1,110.000003356934,8|0,1:0|0:0,0:0:0:0:
500,263,89040,2,0,P|507:316|484:366,1,110.000003356934,0|0,3:0|0:0,0:0:0:0:
219,332,89280,5,2,1:0:0:0:
198,323,89360,1,2,2:0:0:0:
177,314,89440,1,2,2:0:0:0:
156,305,89520,1,2,2:0:0:0:
135,296,89600,1,2,2:0:0:0:
114,287,89680,1,2,2:0:0:0:
93,280,89760,6,0,B|126:94|126:94|75:157,1,247.500007553101,10|0,1:0|0:0,0:0:0:0:
90,140,90240,6,0,P|61:97|61:59,1,75,0|0,1:0|0:0,0:0:0:0:
129,81,90720,6,0,L|322:94,1,150,8|0,1:0|0:0,0:0:0:0:
453,153,91120,1,0,0:0:0:0:
393,215,91200,6,0,L|183:232,1,165.000005035401,0|0,1:0|0:0,0:0:0:0:
50,250,91600,1,0,0:0:0:0:
113,308,91680,6,0,L|323:325,1,165.000005035401,8|0,1:0|0:0,0:0:0:0:
371,147,92080,1,0,0:0:0:0:
451,280,92160,6,0,P|341:290|239:223,1,225.000008583069,0|0,1:0|0:0,0:0:0:0:
210,93,92560,1,0,0:0:0:0:
119,221,92640,6,0,P|267:227|354:176,1,240,8|0,1:0|0:0,0:0:0:0:
484,118,93000,1,0,0:0:0:0:
456,171,93120,5,2,1:0:0:0:
417,182,93200,1,2,2:0:0:0:
378,186,93280,1,2,2:0:0:0:
338,184,93360,5,2,2:0:0:0:
299,174,93440,1,2,2:0:0:0:
263,157,93520,1,2,2:0:0:0:
230,134,93600,6,0,B|194:106|174:61|174:61|184:137|158:216,1,225,10|0,1:0|0:0,0:0:0:0:
136,287,94080,6,0,P|146:226|-4:127,1,262.5
208,301,95040,6,0,P|196:240|21:198,1,262.5
280,291,96000,6,0,P|248:237|69:258,1,262.5
99,318,96960,6,0,P|55:321|21:300,1,75
469,277,97440,5,2,0:0:0:0:
469,277,97920,6,0,B|482:117|482:117|452:178,1,209.999993591309,0|0,1:0|0:0,0:0:0:0:
300,348,98280,2,0,P|401:353|469:275,1,209.999993591309
353,237,98640,1,0,0:0:0:0:
460,161,98760,1,0,0:0:0:0:
309,50,98880,6,0,L|181:78,1,129.999994049073,0|0,1:0|0:0,0:0:0:0:
107,98,99120,1,0,0:0:0:0:
316,125,99240,2,0,B|368:100|384:34|384:34|294:52,1,194.999991073609
255,175,99600,2,0,P|305:201|380:171,1,129.999994049073
371,179,99840,5,0,1:0:0:0:
316,275,99960,2,0,P|270:286|212:280,1,89.9999972534181
84,211,100200,2,0,B|48:194|47:146|47:146|58:282,1,179.999994506836
62,339,100560,1,0,0:0:0:0:
117,150,100680,1,0,0:0:0:0:
153,284,100800,5,0,1:0:0:0:
181,58,100920,2,0,L|86:70,1,82.5000025177003
166,209,101160,1,0,0:0:0:0:
283,37,101280,2,0,B|466:46|466:46|377:80,1,247.500007553101,8|0,1:0|0:0,0:0:0:0:
370,215,101760,6,0,L|379:318,1,100,0|0,1:0|0:0,0:0:0:0:
441,96,102000,2,0,P|398:73|342:87,1,100
281,275,102240,2,0,L|274:377,1,100,8|0,1:0|0:0,0:0:0:0:
166,160,102480,2,0,L|166:100,1,50
153,336,102640,1,0,0:0:0:0:
109,265,102720,6,0,L|0:255,1,100,0|0,1:0|0:0,0:0:0:0:
334,332,102960,2,0,P|357:289|348:237,1,100
166,160,103200,2,0,L|62:171,1,100,8|0,1:0|0:0,0:0:0:0:
422,240,103440,2,0,P|403:195|354:169,1,100
334,332,103680,5,0,1:0:0:0:
174,60,103920,2,0,L|165:161,1,100
41,334,104160,2,0,P|84:356|137:343,1,100,8|0,1:0|0:0,0:0:0:0:
67,32,104400,2,0,L|76:134,1,100
244,181,104640,5,2,1:0:0:0:
278,194,104720,1,2,0:0:0:0:
314,188,104800,1,2,0:0:0:0:
342,164,104880,5,2,0:0:0:0:
353,128,104960,1,2,0:0:0:0:
345,92,105040,1,2,0:0:0:0:
318,66,105120,6,0,B|363:69|402:48|402:48|443:109|419:182,1,225,10|0,1:0|0:0,0:0:0:0:
421,175,105600,6,0,B|396:241|409:311|409:311|442:282|477:294,1,209.999993591309,0|0,1:0|0:0,0:0:0:0:
459,363,106000,2,0,P|404:383|367:370,1,69.9999978637696,0|8,0:0|1:0,0:0:0:0:
477,119,106200,1,0,0:0:0:0:
421,175,106321,2,0,P|405:243|410:312,1,139.999995727539
165,262,106560,6,0,P|230:315|315:231,1,194.999991073609,0|0,1:0|0:0,0:0:0:0:
288,131,106920,2,0,L|276:6,1,97.4999955368044,0|8,0:0|1:0,0:0:0:0:
238,238,107200,1,0,0:0:0:0:
419,180,107280,2,0,L|452:51,1,129.999994049073
346,349,107520,6,0,B|238:356|238:356|125:332,1,179.999994506836,0|0,1:0|0:0,0:0:0:0:
44,229,107880,2,0,P|28:274|41:329,1,89.9999972534181,0|8,0:0|1:0,0:0:0:0:
127,107,108160,1,0,0:0:0:0:
197,132,108240,2,0,P|229:169|241:246,1,119.999996337891
52,123,108480,5,2,1:0:0:0:
51,95,108560,1,2,0:0:0:0:
59,69,108640,1,2,0:0:0:0:
76,48,108720,5,2,0:0:0:0:
100,34,108800,1,2,0:0:0:0:
127,29,108880,1,2,0:0:0:0:
154,34,108960,6,0,B|217:52|217:52|312:47|312:47,1,112.500004291535,10|0,1:0|0:0,0:0:0:0:
487,69,109200,6,0,P|434:70|373:106,1,110.000003356934
294,206,109440,6,0,P|291:252|321:298,1,100,0|0,1:0|0:0,0:0:0:0:
360,235,109680,2,0,P|387:272|446:289,1,100
431,216,109920,2,0,P|475:226|526:206,1,100,8|0,1:0|0:0,0:0:0:0:
379,111,110160,1,0,0:0:0:0:
379,111,110280,1,0,0:0:0:0:
44,132,110400,6,0,B|27:177|27:177|39:231,1,100,0|0,1:0|0:0,0:0:0:0:
102,187,110640,2,0,B|117:232|117:232|163:264,1,100
181,191,110880,2,0,B|222:215|222:215|280:214,1,100,8|0,1:0|0:0,0:0:0:0:
141,92,111120,1,0,0:0:0:0:
141,92,111240,1,0,0:0:0:0:
458,47,111360,6,0,P|368:80|351:209,1,225,0|0,1:0|0:0,0:0:0:0:
77,109,111840,6,0,P|167:142|182:249,1,180,0|0,3:0|0:0,0:0:0:0:
445,225,112320,6,0,P|355:258|344:318,1,134.999995880127,0|0,3:0|0:0,0:0:0:0:
260,384,112800,6,2,L|271:171,1,194.999991073609
271,156,113120,1,2,0:0:0:0:
273,124,113200,1,2,0:0:0:0:
275,91,113280,6,0,L|98:119,1,150,2|0,1:0|0:0,0:0:0:0:
117,133,113680,1,0,0:0:0:0:
82,248,113760,2,0,P|102:194|104:140,1,100,8|0,1:0|0:0,0:0:0:0:
52,86,114000,2,0,P|17:150|42:199,1,100
99,263,114240,6,0,P|158:256|214:274,1,100,0|0,1:0|0:0,0:0:0:0:
258,324,114480,2,0,P|283:258|270:224,1,100
201,158,114720,2,0,B|285:152|275:230|343:226,1,150,8|0,1:0|0:0,0:0:0:0:
430,291,115120,1,0,0:0:0:0:
449,311,115200,6,0,P|459:237|441:189,1,100,0|0,1:0|0:0,0:0:0:0:
501,144,115440,2,0,P|492:85|503:37,1,100
402,124,115680,2,0,P|350:155|282:158,1,100,8|0,1:0|0:0,0:0:0:0:
238,119,115920,2,0,P|186:88|118:85,1,100
66,176,116160,6,0,P|135:183|182:134,1,100,0|0,1:0|0:0,0:0:0:0:
253,106,116400,2,0,L|427:127,1,150,0|8,0:0|1:0,0:0:0:0:
470,199,116800,1,0,0:0:0:0:
470,199,116880,1,0,0:0:0:0:
339,218,117040,1,0,0:0:0:0:
339,218,117120,6,0,P|317:331|326:375,1,150,0|0,1:0|0:0,0:0:0:0:
232,269,117520,1,0,0:0:0:0:
232,269,117600,2,0,P|273:278|240:303,1,100,8|0,1:0|0:0,0:0:0:0:
149,250,117840,2,0,P|187:190|224:179,1,100
339,218,118080,6,0,B|345:180|305:164|317:109,1,100,0|0,1:0|0:0,0:0:0:0:
398,128,118320,2,0,P|380:64|339:40,1,100
167,95,118560,2,0,L|327:125,1,150,8|0,1:0|0:0,0:0:0:0:
423,209,118960,1,0,0:0:0:0:
439,225,119040,6,0,L|446:124,1,100,0|0,1:0|0:0,0:0:0:0:
429,109,119280,1,0,0:0:0:0:
291,206,119440,1,0,0:0:0:0:
307,222,119520,6,0,L|314:121,1,100,8|0,1:0|0:0,0:0:0:0:
297,106,119760,1,0,0:0:0:0:
159,203,119920,1,0,0:0:0:0:
175,219,120000,5,2,1:0:0:0:
189,171,120080,1,2,0:0:0:0:
185,121,120160,1,2,0:0:0:0:
162,77,120240,1,2,0:0:0:0:
125,44,120320,1,2,0:0:0:0:
79,27,120400,1,2,0:0:0:0:
29,28,120480,6,0,B|88:109|186:90|161:68|264:49|316:131,1,324.999985122681,10|0,1:0|0:0,0:0:0:0:
243,288,120960,6,0,P|265:233|211:159,1,150,0|0,1:0|0:0,0:0:0:0:
89,300,121360,1,0,0:0:0:0:
89,300,121440,2,0,P|156:336|217:346,1,100,8|0,1:0|0:0,0:0:0:0:
253,301,121680,2,0,P|319:274|380:288,1,100
461,334,121920,5,0,1:0:0:0:
401,187,122080,1,0,0:0:0:0:
392,209,122160,1,0,0:0:0:0:
495,259,122320,1,0,0:0:0:0:
477,215,122400,2,0,B|485:141|440:124|446:57,1,150,8|0,1:0|0:0,0:0:0:0:
315,168,122800,1,0,0:0:0:0:
296,183,122880,6,0,L|159:195,1,100,0|0,1:0|0:0,0:0:0:0:
180,209,123120,1,0,0:0:0:0:
347,269,123280,1,0,0:0:0:0:
361,289,123360,2,0,P|370:233|412:173,1,100,8|0,1:0|0:0,0:0:0:0:
454,140,123600,2,0,P|426:92|366:96,1,100
276,86,123840,5,2,1:0:0:0:
302,104,123920,1,2,0:0:0:0:
335,102,124000,1,2,0:0:0:0:
358,79,124080,1,2,0:0:0:0:
362,46,124160,1,2,0:0:0:0:
344,19,124240,1,2,0:0:0:0:
313,10,124320,6,0,B|235:-16|155:61|209:89|121:165|0:112,1,324.999985122681,10|0,1:0|0:0,0:0:0:0:
86,24,124800,6,0,P|140:60|192:195,1,200,0|0,1:0|0:0,0:0:0:0:
140,247,125200,1,0,0:0:0:0:
131,261,125280,2,0,P|199:237|205:193,1,100,8|0,1:0|0:0,0:0:0:0:
276,171,125520,2,0,P|303:130|351:126,1,100
457,283,125760,6,0,P|403:247|351:112,1,200,0|0,1:0|0:0,0:0:0:0:
403,60,126160,1,0,0:0:0:0:
412,46,126240,2,0,P|344:70|338:114,1,100,8|0,1:0|0:0,0:0:0:0:
254,98,126480,2,0,P|203:87|179:42,1,100
39,111,126720,6,0,P|151:156|195:279,1,240,0|8,1:0|1:0,0:0:0:0:
67,242,127440,1,0,0:0:0:0:
78,226,127680,2,0,P|163:202|325:200,1,240
411,270,128400,1,0,0:0:0:0:
299,377,128640,6,0,L|313:198,1,179.999994506836,0|0,1:0|0:0,0:0:0:0:
299,377,136320,6,0,L|313:198,1,179.999994506836,0|0,1:0|0:0,0:0:0:0:
256,192,140160,12,0,143760,0:0:0:0:
10,26,144000,6,0,B|333:26|248:316|639:213|583:-86|293:-143|118:67|208:325|97:392|-7:339|-7:339|4:164|236:244|272:318|454:319|541:157|541:157|488:246|392:253|392:253|315:339|289:261|178:347,1,2126.249935112,0|0,1:0|0:0,0:0:0:0:
87,338,151680,6,0,B|70:309|39:296|39:296|30:166|105:167|65:12|65:12|139:224|204:157|284:334|284:334|266:140|355:166|340:15|340:15|336:155|398:138|394:278|394:278|463:293|465:239|529:220|529:220|459:220|480:197|417:194,1,1619.99995056152,2|0,0:0|0:0,0:0:0:0:
256,192,157560,12,0,159240,0:0:0:0:
68,264,159360,6,0,L|59:40,3,225.000008583069,0|8|0|8,0:0|0:0|0:0|0:0,0:0:0:0:
174,156,161280,6,0,L|165:380,3,225.000008583069,0|8|0|8,0:0|0:0|0:0|0:0,0:0:0:0:
309,275,163200,6,0,L|300:51,3,225.000008583069,0|8|0|8,0:0|0:0|0:0|0:0,0:0:0:0:
340,166,164880,1,0,0:0:0:0:
309,275,165040,1,0,0:0:0:0:
306,288,165120,6,0,L|182:261,1,112.500004291535,8|0,1:0|0:0,0:0:0:0:
5,228,165520,1,0,0:0:0:0:
8,241,165600,2,0,L|132:214,1,112.500004291535,8|0,0:0|0:0,0:0:0:0:
278,159,166000,1,0,0:0:0:0:
275,172,166080,6,0,L|164:147,1,85.0000016212464,8|0,0:0|0:0,0:0:0:0:
110,133,166320,2,0,L|0:108,1,85.0000016212464,8|0,0:0|0:0,0:0:0:0:
130,0,166560,2,0,P|156:33|171:73,1,85.0000016212464,8|0,0:0|0:0,0:0:0:0:
191,153,166800,2,0,P|197:194|189:236,1,85.0000016212464,8|0,0:0|0:0,0:0:0:0:
277,384,167040,6,0,P|275:334|257:288,1,100,8|0,0:0|0:0,0:0:0:0:
373,236,167280,2,0,P|328:213|279:205,1,100,8|0,0:0|0:0,0:0:0:0:
123,215,167520,2,0,P|159:181|205:161,1,100,8|0,0:0|0:0,0:0:0:0:
159,42,167760,2,0,P|206:57|246:86,1,100,8|0,0:0|0:0,0:0:0:0:
254,236,168000,6,0,P|212:207|207:153,1,100,8|0,0:0|0:0,0:0:0:0:
159,42,168240,2,0,P|204:20|254:42,1,100,8|0,0:0|0:0,0:0:0:0:
424,131,168480,2,0,P|378:152|328:130,1,100,8|0,0:0|0:0,0:0:0:0:
208,116,168720,2,0,P|211:65|256:33,1,100,8|0,0:0|0:0,0:0:0:0:
464,58,168960,6,0,P|460:108|409:112,1,100,8|0,0:0|0:0,0:0:0:0:
320,21,169200,2,0,P|365:0|394:41,1,100,8|0,0:0|0:0,0:0:0:0:
230,243,169440,2,0,P|188:214|209:168,1,100,8|0,0:0|0:0,0:0:0:0:
334,136,169680,2,0,P|330:186|279:190,1,100,8|0,0:0|0:0,0:0:0:0:
195,19,169920,6,0,P|242:35|207:48,1,100,8|0,0:0|0:0,0:0:0:0:
80,142,170160,2,0,P|106:105|171:91,1,100,8|0,0:0|0:0,0:0:0:0:
382,175,170400,2,0,P|404:206|377:185,1,100,8|0,0:0|0:0,0:0:0:0:
459,22,170640,2,0,P|490:73|490:133,1,100,8|0,0:0|0:0,0:0:0:0:
504,384,170880,5,10,0:0:0:0:
442,348,171040,5,0,0:0:0:0:
450,335,171120,1,8,0:0:0:0:
381,313,171280,5,0,0:0:0:0:
397,290,171360,1,10,0:0:0:0:
321,279,171520,5,0,0:0:0:0:
345,245,171600,1,8,0:0:0:0:
260,246,171760,5,0,0:0:0:0:
291,199,171840,1,10,0:0:0:0:
198,211,172000,5,0,0:0:0:0:
238,155,172080,1,8,0:0:0:0:
138,177,172240,5,0,0:0:0:0:
186,110,172320,1,10,0:0:0:0:
78,143,172480,5,0,0:0:0:0:
134,64,172560,1,8,0:0:0:0:
18,109,172720,5,0,0:0:0:0:
81,17,172800,1,10,1:0:0:0:
138,66,172880,1,0,1:0:0:0:
192,112,172960,1,0,1:0:0:0:
240,155,173040,1,0,1:0:0:0:
285,193,173120,1,0,1:0:0:0:
318,224,173200,1,0,1:0:0:0:
348,250,173280,1,2,1:0:0:0:
374,270,173360,1,0,1:0:0:0:
392,287,173440,1,0,1:0:0:0:
406,299,173520,1,0,1:0:0:0:
415,306,173600,1,0,1:0:0:0:
419,311,173680,1,0,1:0:0:0:
423,315,173760,6,0,L|412:258,5,50,0|0|0|0|0|0,1:0|1:0|1:0|1:0|1:0|1:0,1:0:0:0:
342,331,174240,6,0,L|332:392,5,50,0|0|0|0|0|0,1:0|1:0|1:0|1:0|1:0|1:0,1:0:0:0:
471,362,174720,6,0,L|457:177,1,150,0|0,1:0|0:0,0:0:0:0:
449,201,175200,6,0,B|375:186|364:253|278:238,1,179.999994506836,8|0,1:0|0:0,0:0:0:0:
26,145,175600,1,0,0:0:0:0:
34,163,175680,2,0,B|121:163|120:231|195:229,1,179.999994506836,0|0,1:0|0:0,0:0:0:0:
464,39,176080,1,0,0:0:0:0:
459,58,176160,2,0,B|373:73|385:140|310:151,1,179.999994506836,8|0,1:0|0:0,0:0:0:0:
48,248,176560,1,0,0:0:0:0:
49,267,176640,6,0,B|130:297|107:360|178:384,1,179.999994506836,0|0,1:0|0:0,0:0:0:0:
464,144,177040,1,0,0:0:0:0:
466,162,177120,2,0,B|390:205|425:264|358:300,1,179.999994506836,8|0,1:0|0:0,0:0:0:0:
248,41,177520,1,0,0:0:0:0:
242,58,177601,5,2,1:0:0:0:
262,79,177681,1,2,0:0:0:0:
277,105,177761,1,2,0:0:0:0:
284,134,177841,1,2,0:0:0:0:
290,164,177921,1,2,0:0:0:0:
303,191,178001,1,2,0:0:0:0:
323,212,178080,6,0,B|443:173|443:173|170:200,1,375.000014305115,2|0,1:0|0:0,0:0:0:0:
43,326,178560,5,0,1:0:0:0:
288,279,178720,2,0,L|227:274,1,59.9999981689454,0|0,3:0|0:0,3:0:0:0:
18,225,178960,1,0,0:0:0:0:
28,241,179040,2,0,L|89:236,1,59.9999981689454,8|0,1:0|0:0,0:0:0:0:
267,172,179200,1,0,3:0:0:0:
257,188,179280,2,0,L|136:178,1,119.999996337891,0|0,3:0|0:0,0:0:0:0:
55,78,179520,6,0,B|5:114|5:114|276:88,1,299.999990844727,0|0,3:0|0:0,0:0:0:0:
403,42,180000,2,0,P|413:77|398:123,1,59.9999981689454,8|0,3:0|0:0,0:0:0:0:
326,49,180240,2,0,P|322:85|346:128,1,59.9999981689454,0|0,3:0|0:0,0:0:0:0:
461,371,180480,6,0,L|471:309,1,59.9999981689454,0|0,3:0|0:0,0:0:0:0:
379,169,180640,2,0,L|389:231,1,59.9999981689454,0|0,3:0|3:0,0:0:0:0:
241,359,180880,1,0,3:0:0:0:
220,378,180960,2,0,L|230:316,1,59.9999981689454,8|0,3:0|0:0,0:0:0:0:
134,197,181120,1,0,3:0:0:0:
113,178,181200,2,0,L|134:308,1,119.999996337891,0|0,3:0|0:0,0:0:0:0:
315,326,181440,5,2,3:0:0:0:
317,266,181520,1,2,0:0:0:0:
302,208,181600,1,2,0:0:0:0:
269,158,181680,1,2,0:0:0:0:
222,121,181760,1,2,0:0:0:0:
166,100,181840,1,2,0:0:0:0:
107,97,181920,6,0,B|229:120|201:11|326:4|379:68,1,299.999990844727,10|0,3:0|0:0,0:0:0:0:
413,204,182400,6,0,L|386:53,1,150,0|0,1:0|0:0,0:0:0:0:
378,67,182800,1,0,0:0:0:0:
387,56,182880,6,0,P|310:97|297:127,1,119.999996337891,8|0,1:0|0:0,0:0:0:0:
277,147,183120,2,0,P|308:212|308:247,1,59.9999981689454
360,308,183280,1,0,0:0:0:0:
370,328,183360,2,0,P|290:317|237:284,1,119.999996337891,0|0,1:0|0:0,0:0:0:0:
233,320,183600,2,0,P|196:326|169:338,1,59.9999981689454
50,311,183760,1,0,0:0:0:0:
29,322,183840,2,0,P|49:258|32:142,1,179.999994506836,8|0,1:0|0:0,0:0:0:0:
44,34,184240,1,0,0:0:0:0:
47,49,184320,6,0,P|123:84|192:60,1,119.999996337891,0|0,1:0|0:0,0:0:0:0:
170,106,184560,2,0,P|205:109|231:120,1,59.9999981689454
334,233,184720,1,0,0:0:0:0:
350,213,184800,2,0,P|348:149|305:94,1,119.999996337891,8|0,1:0|0:0,0:0:0:0:
328,17,185040,2,0,L|226:44,2,69.9999978637696
447,18,185280,6,0,L|434:122,2,104.999996795654,0|0|0,1:0|0:0|0:0,0:0:0:0:
415,288,185760,2,0,B|490:308|490:308|203:326,1,349.999989318848,8|0,1:0|0:0,0:0:0:0:
7,338,186240,5,0,1:0:0:0:
225,314,186400,2,0,P|194:302|161:296,1,59.9999981689454,0|0,3:0|0:0,0:0:0:0:
4,202,186640,1,0,3:0:0:0:
0,223,186720,2,0,P|26:203|57:189,1,59.9999981689454,8|0,1:0|0:0,0:0:0:0:
199,187,186880,1,0,3:0:0:0:
197,208,186961,2,0,P|159:160|115:120,1,119.999996337891,0|0,3:0|0:0,0:0:0:0:
36,17,187200,2,0,B|3:70|3:70|231:-2,1,299.999990844727,0|0,3:0|0:0,0:0:0:0:
373,74,187680,2,0,L|349:145,1,59.9999981689454,8|0,3:0|0:0,0:0:0:0:
294,50,187920,2,0,L|270:121,1,59.9999981689454,0|0,3:0|0:0,0:0:0:0:
479,265,188160,6,0,L|408:241,1,59.9999981689454,0|0,3:0|0:0,0:0:0:0:
255,343,188320,2,0,L|311:323,1,59.9999981689454,0|0,3:0|0:0,0:0:0:0:
446,131,188560,1,0,3:0:0:0:
432,147,188640,2,0,L|358:161,1,59.9999981689454,0|0,1:0|0:0,0:0:0:0:
203,194,188800,1,0,3:0:0:0:
215,213,188880,2,0,L|343:238,1,119.999996337891,0|0,3:0|0:0,0:0:0:0:
440,14,189120,5,2,3:0:0:0:
402,47,189200,1,2,0:0:0:0:
364,80,189280,1,2,0:0:0:0:
327,113,189360,1,2,0:0:0:0:
289,146,189440,1,2,0:0:0:0:
252,179,189520,1,2,0:0:0:0:
214,212,189600,6,0,L|392:191,2,179.999994506836,10|0|0,3:0|3:0|1:0,0:0:0:0:
83,329,190560,6,0,P|115:237|117:200,1,119.999996337891,8|0,1:0|0:0,0:0:0:0:
145,205,190800,2,0,P|177:239|188:266,1,59.9999981689454
292,346,190960,1,0,0:0:0:0:
318,362,191040,2,0,P|294:287|248:255,1,119.999996337891,0|0,1:0|0:0,0:0:0:0:
267,232,191280,2,0,P|334:220|360:228,1,59.9999981689454
471,236,191440,1,0,0:0:0:0:
488,214,191520,2,0,P|442:178|359:161,1,119.999996337891,8|0,1:0|0:0,0:0:0:0:
387,71,191760,2,0,B|332:64|326:116|247:94,1,119.999996337891
129,77,192000,6,0,P|177:111|206:163,1,119.999996337891,0|0,1:0|0:0,0:0:0:0:
193,193,192240,2,0,P|155:186|124:160,1,59.9999981689454
216,35,192400,1,0,0:0:0:0:
238,4,192480,2,0,P|274:71|275:155,1,119.999996337891,8|0,1:0|0:0,0:0:0:0:
303,136,192720,2,0,P|326:173|355:188,1,59.9999981689454
472,333,192960,5,2,1:0:0:0:
432,334,193040,1,2,0:0:0:0:
392,340,193120,1,2,0:0:0:0:
353,349,193200,2,2,P|356:308|359:288,1,59.9999981689454
273,318,193360,1,2,0:0:0:0:
195,352,193440,2,0,P|193:322|189:293,2,59.9999981689454,10|0|0,1:0|0:0|0:0,0:0:0:0:
17,308,193680,6,0,B|-2:311|-2:311|128:332,1,139.999995727539
259,188,193920,6,0,P|196:146|113:151,1,119.999996337891,0|0,1:0|0:0,0:0:0:0:
86,103,194160,2,0,P|123:185|104:220,1,119.999996337891,0|0,3:0|0:0,0:0:0:0:
136,374,194400,6,0,P|203:340|241:266,1,119.999996337891,8|0,1:0|0:0,0:0:0:0:
296,267,194640,2,0,P|206:258|185:224,1,119.999996337891,0|0,3:0|0:0,0:0:0:0:
33,77,194880,6,0,P|51:150|116:202,1,119.999996337891,0|0,1:0|0:0,0:0:0:0:
104,255,195120,2,0,P|131:169|168:156,1,119.999996337891,0|0,3:0|0:0,0:0:0:0:
390,198,195360,6,0,P|331:149|248:145,1,119.999996337891,8|0,1:0|0:0,0:0:0:0:
227,95,195600,2,0,P|255:180|232:213,1,119.999996337891,0|0,3:0|0:0,0:0:0:0:
36,336,195840,6,0,P|22:253|22:215,1,119.999996337891,0|0,3:0|3:0,0:0:0:0:
43,143,196080,2,0,P|64:213|140:190,1,119.999996337891,0|0,3:0|0:0,0:0:0:0:
311,199,196320,6,0,P|246:252|213:271,1,119.999996337891,8|0,1:0|0:0,0:0:0:0:
141,289,196560,2,0,P|191:235|133:181,1,119.999996337891,0|0,3:0|0:0,0:0:0:0:
57,54,196800,1,2,1:0:0:0:
94,67,196880,1,2,0:0:0:0:
133,75,196960,1,2,0:0:0:0:
173,73,197040,1,2,0:0:0:0:
213,66,197120,1,2,0:0:0:0:
253,67,197200,1,2,0:0:0:0:
292,73,197280,6,0,B|391:101|373:48|509:89,2,179.999994506836,10|0|0,1:0|0:0|1:0,0:0:0:0:
87,337,198240,6,0,L|70:211,1,119.999996337891,8|0,1:0|0:0,0:0:0:0:
0,196,198480,2,0,L|69:207,1,59.9999981689454
221,221,198640,1,0,0:0:0:0:
244,203,198720,2,0,L|260:84,1,119.999996337891,0|0,1:0|0:0,0:0:0:0:
334,63,198960,2,0,L|265:74,1,59.9999981689454
155,164,199120,1,0,0:0:0:0:
132,146,199200,2,0,L|115:27,1,119.999996337891,8|0,1:0|0:0,0:0:0:0:
227,18,199440,2,0,P|176:55|127:33,1,119.999996337891
50,185,199680,6,0,P|117:246|168:254,1,119.999996337891,0|0,1:0|0:0,0:0:0:0:
160,324,199920,2,0,L|152:246,1,59.9999981689454
260,185,200080,1,0,0:0:0:0:
284,206,200160,2,0,P|300:262|285:349,1,119.999996337891,8|0,1:0|0:0,0:0:0:0:
294,322,200400,2,0,P|345:328|296:337,1,119.999996337891
442,321,200640,1,2,1:0:0:0:
438,261,200720,1,2,0:0:0:0:
417,205,200800,1,2,0:0:0:0:
382,156,200880,1,2,0:0:0:0:
334,120,200960,1,2,0:0:0:0:
279,99,201040,1,2,0:0:0:0:
219,94,201120,6,0,L|242:281,2,179.999994506836,10|0|0,1:0|0:0|0:0,0:0:0:0:
94,300,202080,5,8,0:0:0:0:
205,86,202560,5,8,0:0:0:0:
442,321,203040,5,8,0:0:0:0:
358,312,203200,1,0,0:0:0:0:
363,296,203280,1,0,0:0:0:0:
284,265,203440,5,0,0:0:0:0:
274,297,203520,1,8,0:0:0:0:
426,241,203680,5,0,0:0:0:0:
407,183,203760,2,0,L|380:78,1,100
308,169,204000,5,8,0:0:0:0:
315,50,204160,5,0,0:0:0:0:
305,82,204240,1,0,0:0:0:0:
243,229,204400,5,0,0:0:0:0:
223,165,204480,2,0,L|62:149,1,150,8|0,0:0|0:0,0:0:0:0:
73,150,204960,6,2,L|176:140,1,100
436,342,205440,6,0,L|407:35,1,299.999990844727,0|0,1:0|0:0,0:0:0:0:
234,62,205920,2,0,P|301:123|345:115,1,119.999996337891,8|0,1:0|0:0,0:0:0:0:
340,102,206160,1,0,0:0:0:0:
456,197,206320,1,0,0:0:0:0:
439,182,206400,2,0,P|370:208|337:277,1,119.999996337891,0|0,1:0|0:0,0:0:0:0:
357,271,206640,1,0,0:0:0:0:
500,359,206800,1,0,0:0:0:0:
481,369,206880,2,0,L|308:339,1,119.999996337891,8|0,1:0|0:0,0:0:0:0:
288,316,207120,2,0,P|225:317|164:334,1,119.999996337891
15,292,207360,6,0,P|8:203|64:134,1,179.999994506836,0|0,1:0|0:0,0:0:0:0:
258,53,207760,1,0,0:0:0:0:
281,58,207840,2,0,P|221:95|174:88,1,119.999996337891,8|0,1:0|0:0,0:0:0:0:
5,2,208080,2,0,P|63:13|97:61,1,119.999996337891
142,297,208320,6,0,L|127:167,1,119.999996337891,0|0,1:0|0:0,0:0:0:0:
146,158,208560,1,0,0:0:0:0:
249,316,208720,1,0,0:0:0:0:
263,331,208800,2,0,P|239:248|208:239,1,119.999996337891,8|0,1:0|0:0,0:0:0:0:
292,67,209040,2,0,P|241:108|226:170,1,119.999996337891
450,219,209280,6,0,B|455:208|455:208|344:218,1,119.999996337891,0|0,1:0|0:0,0:0:0:0:
284,266,209520,2,0,B|289:277|289:277|178:267,1,119.999996337891
31,200,209760,2,0,B|26:211|26:211|137:201,1,119.999996337891,8|0,1:0|0:0,0:0:0:0:
197,153,210000,2,0,B|192:142|192:142|303:152,1,119.999996337891
465,104,210240,6,0,B|470:93|470:93|359:103,1,119.999996337891,0|0,1:0|0:0,0:0:0:0:
299,151,210480,2,0,B|304:162|304:162|193:152,1,119.999996337891
31,200,210720,2,0,B|26:211|26:211|137:201,1,119.999996337891,8|0,1:0|0:0,0:0:0:0:
180,267,210960,2,0,B|288:277|288:277|283:266,1,119.999996337891
473,333,211200,6,0,P|471:274|449:218,1,119.999996337891,0|0,1:0|0:0,0:0:0:0:
382,172,211440,2,0,P|403:116|405:56,1,119.999996337891
291,98,211680,2,0,P|292:157|314:213,1,119.999996337891,8|0,1:0|0:0,0:0:0:0:
382,259,211920,2,0,P|360:314|358:374,1,119.999996337891
246,344,212160,1,2,1:0:0:0:
234,316,212240,1,2,0:0:0:0:
232,287,212320,1,2,0:0:0:0:
241,258,212400,1,2,0:0:0:0:
259,234,212480,1,2,0:0:0:0:
284,219,212560,1,2,0:0:0:0:
313,212,212640,6,0,P|245:180|218:114,1,119.999996337891,10|0,1:0|0:0,0:0:0:0:
172,64,212880,2,0,P|132:107|130:166,1,119.999996337891
29,273,213120,6,0,B|93:282|91:328|143:327,1,119.999996337891,0|0,1:0|0:0,0:0:0:0:
150,342,213360,1,0,0:0:0:0:
358,361,213520,1,0,0:0:0:0:
381,377,213600,2,0,L|363:245,1,119.999996337891,8|0,1:0|0:0,0:0:0:0:
394,183,213840,2,0,L|390:242,1,59.9999981689454
279,303,214000,1,0,0:0:0:0:
259,322,214080,2,0,L|278:196,1,119.999996337891,0|0,1:0|0:0,0:0:0:0:
262,180,214320,1,0,0:0:0:0:
150,342,214480,1,0,0:0:0:0:
136,367,214560,2,0,L|118:235,1,119.999996337891,8|0,1:0|0:0,0:0:0:0:
198,65,214800,2,0,B|163:114|201:140|168:181,1,119.999996337891
55,352,215040,6,0,L|91:165,1,179.999994506836,0|0,1:0|0:0,0:0:0:0:
21,41,215440,1,0,0:0:0:0:
13,27,215520,2,0,P|88:35|132:21,1,119.999996337891,8|0,1:0|0:0,0:0:0:0:
256,11,215760,2,0,P|334:9|385:36,1,119.999996337891
397,149,216000,1,2,1:0:0:0:
378,155,216080,1,2,0:0:0:0:
358,156,216160,1,2,0:0:0:0:
339,149,216240,1,2,0:0:0:0:
323,138,216320,1,2,0:0:0:0:
312,121,216400,1,2,0:0:0:0:
306,103,216480,2,0,P|336:211|288:247,1,179.999994506836,10|0,1:0|0:0,0:0:0:0:
50,268,216880,1,0,0:0:0:0:
32,244,216960,6,0,B|37:189|85:195|99:133,1,119.999996337891,0|0,1:0|0:0,0:0:0:0:
173,67,217200,2,0,B|218:98|188:137|235:180,1,119.999996337891
255,277,217440,2,0,B|204:300|186:255|125:274,1,119.999996337891,8|0,1:0|0:0,0:0:0:0:
47,383,217680,2,0,P|106:381|159:353,1,119.999996337891
340,322,217920,6,0,P|353:247|400:206,1,119.999996337891,0|0,1:0|0:0,0:0:0:0:
406,119,218160,2,0,P|334:145|275:125,1,119.999996337891
198,164,218400,2,0,P|256:212|268:273,1,119.999996337891,8|0,1:0|0:0,0:0:0:0:
456,318,218640,2,0,P|397:307|318:335,1,119.999996337891
108,311,218880,6,0,L|123:191,1,119.999996337891,0|0,1:0|0:0,0:0:0:0:
136,112,219120,1,0,0:0:0:0:
194,300,219280,1,0,0:0:0:0:
202,315,219360,6,0,L|215:206,1,100,8|0,0:0|0:0,0:0:0:0:
224,134,219600,1,0,0:0:0:0:
287,303,219760,1,0,0:0:0:0:
295,318,219840,6,0,L|308:209,1,80,8|0,0:0|0:0,0:0:0:0:
317,157,220080,2,0,L|322:117,2,40
390,263,220320,6,2,L|382:213,1,50,10|2,0:0|0:0,0:0:0:0:
402,134,220560,1,2,0:0:0:0:
402,134,220640,1,2,0:0:0:0:
402,134,220720,1,2,0:0:0:0:
473,89,220800,6,0,B|525:111|525:111|287:74,1,250,2|0,1:0|0:0,0:0:0:0:
237,19,221280,2,0,P|242:43|254:66,1,50,8|0,1:0|0:0,0:0:0:0:
281,143,221440,1,0,0:0:0:0:
281,143,221520,2,0,P|269:165|264:189,1,50
300,281,221680,1,0,0:0:0:0:
300,281,221760,6,0,P|226:279|182:240,1,100,0|0,1:0|0:0,0:0:0:0:
185,187,222000,2,0,P|162:197|128:202,1,50
125,284,222160,1,0,0:0:0:0:
125,284,222240,2,0,P|68:254|64:158,1,150,8|0,1:0|0:0,0:0:0:0:
151,45,222640,1,0,0:0:0:0:
222,114,222720,6,0,L|219:89,10,25,0|0|0|0|0|0|0|0|0|0|0,1:0|0:0|0:0|0:0|0:0|0:0|0:0|0:0|0:0|0:0|0:0,0:0:0:0:
141,126,223200,2,0,L|274:144,1,100,8|0,1:0|0:0,0:0:0:0:
372,163,223440,2,0,P|335:168|363:175,1,100
332,291,223680,2,0,P|307:256|259:220,1,100,0|0,1:0|0:0,0:0:0:0:
70,357,224160,2,0,B|54:356|54:356|149:337,1,100,8|0,1:0|0:0,0:0:0:0:
248,365,224400,2,0,P|250:310|205:297,1,100
85,276,224640,6,0,P|113:206|134:189,1,100,0|0,1:0|0:0,0:0:0:0:
176,129,224880,2,0,P|180:195|211:230,1,100
359,192,225120,2,0,P|279:164|242:166,1,100,8|0,1:0|0:0,0:0:0:0:
176,129,225360,2,0,P|210:71|252:41,1,100
378,8,225600,6,0,P|360:54|323:87,1,100,0|0,1:0|0:0,0:0:0:0:
307,75,225840,1,0,0:0:0:0:
157,48,226000,1,0,0:0:0:0:
174,31,226080,2,0,P|194:80|200:151,1,100,8|0,1:0|0:0,0:0:0:0:
176,206,226320,2,0,P|117:187|120:137,1,100
274,192,226560,6,0,L|429:182,1,150,0|0,1:0|0:0,0:0:0:0:
266,207,227040,2,0,L|421:197,1,150,8|0,1:0|0:0,0:0:0:0:
293,305,227520,1,2,1:0:0:0:
251,304,227600,1,2,0:0:0:0:
213,289,227680,1,2,0:0:0:0:
183,260,227760,1,2,0:0:0:0:
153,231,227840,1,2,0:0:0:0:
115,214,227920,1,2,0:0:0:0:
74,209,228000,6,0,P|106:165|160:150,1,100,10|0,1:0|0:0,0:0:0:0:
267,223,228240,2,0,P|272:174|234:143,1,100
42,97,228480,6,0,L|373:131,1,300,0|8,1:0|1:0,0:0:0:0:
389,305,229120,1,0,0:0:0:0:
401,293,229200,2,0,L|389:177,1,100
495,56,229440,2,0,P|449:76|419:115,1,100,0|0,1:0|0:0,0:0:0:0:
390,193,229680,2,0,P|345:155|336:98,1,100
362,23,229920,1,8,1:0:0:0:
479,344,230160,1,0,0:0:0:0:
401,293,230320,1,0,0:0:0:0:
378,318,230400,6,0,L|202:343,1,150,0|0,1:0|0:0,0:0:0:0:
68,314,230800,1,0,0:0:0:0:
47,293,230880,2,0,P|98:249|138:251,1,100,8|0,1:0|0:0,0:0:0:0:
217,262,231120,2,0,P|205:204|182:164,1,100
77,101,231360,1,2,1:0:0:0:
99,111,231440,1,2,0:0:0:0:
110,133,231520,1,2,0:0:0:0:
105,156,231600,1,2,0:0:0:0:
85,172,231680,1,2,0:0:0:0:
61,171,231760,1,2,0:0:0:0:
3,126,231840,6,0,L|263:144,1,250,10|0,1:0|0:0,0:0:0:0:
450,213,232320,6,0,B|510:177|510:177|326:224,1,250,0|0,1:0|0:0,0:0:0:0:
323,239,232800,1,8,1:0:0:0:
436,348,232960,1,0,0:0:0:0:
453,328,233040,2,0,L|461:217,1,100
501,105,233280,6,0,L|399:129,1,100,0|0,1:0|0:0,0:0:0:0:
244,161,233520,2,0,P|296:127|338:165,1,100
479,223,233760,2,0,P|405:212|370:186,1,100,8|0,1:0|0:0,0:0:0:0:
307,220,234000,2,0,P|299:275|267:311,1,100
179,360,234240,6,0,L|221:57,2,300,0|0|2,0:0|0:0|0:0,0:0:0:0:
