osu file format v14

[General]
AudioFilename: audio.mp3
AudioLeadIn: 0
PreviewTime: 335
Countdown: 0
SampleSet: Soft
StackLeniency: 0.7
Mode: 0
LetterboxInBreaks: 0
WidescreenStoryboard: 0

[Editor]
Bookmarks: 11968,21312,42296,63279,84263,105247,126230,147214,157706,169509,190492
DistanceSpacing: 2
BeatDivisor: 4
GridSize: 32
TimelineZoom: 0.6999999

[Metadata]
Title:Dream
TitleUnicode:Dream
Artist:JOYLESS
ArtistUnicode:JOYLESS
Creator:Shii
Version:Normal
Source:
Tags:English Indie Rock Joyless Punk fa featured artist mpg mappers' guild
BeatmapID:3534706
BeatmapSetID:1729551

[Difficulty]
HPDrainRate:3
CircleSize:3
OverallDifficulty:4
ApproachRate:5
SliderMultiplier:1.1
SliderTickRate:1

[Events]
//Background and Video events
0,0,"joyless.png",0,0
//Break Periods
2,147420,156512
//Storyboard Layer 0 (Background)
//Storyboard Layer 1 (Fail)
//Storyboard Layer 2 (Pass)
//Storyboard Layer 3 (Foreground)
//Storyboard Layer 4 (Overlay)
//Storyboard Sound Samples

[TimingPoints]
335,327.868852459016,4,2,1,89,1,0
21318,-111.111111111111,4,2,1,78,0,0
26564,-100,4,2,1,78,0,0
42302,-90.9090909090909,4,2,1,78,0,1
63285,-100,4,2,1,78,0,0
105253,-90.9090909090909,4,2,1,78,0,1
126236,-100,4,2,1,78,0,0
169515,-83.3333333333333,4,2,1,78,0,1
190498,-100,4,2,1,78,0,0
211482,-100,4,2,1,60,0,0
212138,-100,4,2,1,50,0,0
212466,-100,4,2,1,35,0,0
212794,-100,4,2,1,25,0,0
213121,-100,4,2,1,15,0,0
213285,-100,4,2,1,5,0,0

[Colours]
Combo1 : 223,185,96
Combo2 : 235,51,31
Combo3 : 60,219,227
Combo4 : 48,165,148

[HitObjects]
0,0,335,6,0,P|10:52|23:123,1,110,6|10,3:2|3:2,0:0:0:0:
67,136,826,1,2,3:2:0:0:
67,136,990,2,0,P|97:143|137:156,1,55,14|2,3:2|3:2,0:0:0:0:
164,182,1318,1,6,3:2:0:0:
316,133,1810,6,0,P|320:105|326:78,2,55,8|0|0,3:2|3:2|3:2,0:0:0:0:
346,181,2302,2,0,P|406:195|486:221,1,110,12|8,3:2|3:2,0:0:0:0:
512,202,2794,1,8,3:2:0:0:
512,202,2957,6,0,P|502:254|489:325,1,110,6|10,3:2|3:2,0:0:0:0:
445,338,3448,1,2,3:2:0:0:
445,338,3612,2,0,P|415:345|375:358,1,55,14|2,3:2|3:2,0:0:0:0:
348,384,3940,1,6,3:2:0:0:
212,289,4433,6,0,P|207:261|201:234,2,55,8|0|0,3:2|3:2|3:2,0:0:0:0:
182,337,4925,2,0,P|122:351|42:377,1,110,12|8,3:2|3:2,0:0:0:0:
33,331,5416,1,8,3:2:0:0:
33,331,5580,6,0,P|-1:278|16:225,1,110,6|8,3:2|3:2,0:0:0:0:
54,202,6072,1,2,3:2:0:0:
54,202,6236,2,0,P|88:149|71:96,1,110,6|8,3:2|3:2,0:0:0:0:
95,53,6728,1,2,3:2:0:0:
95,53,6892,6,0,P|33:44|-22:37,2,110,6|8|8,3:2|3:2|3:2,0:0:0:0:
210,34,7875,1,8,3:2:0:0:
210,34,8039,1,10,3:2:0:0:
210,34,8203,6,0,P|176:87|193:140,1,110,6|8,3:2|3:2,0:0:0:0:
231,163,8695,1,2,3:2:0:0:
231,163,8859,2,0,P|265:216|248:269,1,110,6|8,3:2|3:2,0:0:0:0:
242,316,9351,1,2,3:2:0:0:
242,316,9515,6,0,P|164:333|115:345,2,110,6|8|8,3:2|3:2|3:2,0:0:0:0:
343,384,10498,1,8,3:2:0:0:
343,384,10662,1,8,3:2:0:0:
343,384,10826,6,0,P|396:371|450:359,1,110,6|10,3:2|3:2,0:0:0:0:
470,309,11318,1,2,3:2:0:0:
470,309,11482,2,0,P|477:269|488:232,1,55,14|2,3:2|3:2,0:0:0:0:
497,202,11810,1,6,3:2:0:0:
393,53,12302,6,0,P|419:46|446:42,2,55,8|0|0,3:2|3:2|3:2,0:0:0:0:
350,89,12794,2,0,P|337:142|325:196,1,110,12|8,3:2|3:2,0:0:0:0:
280,222,13285,1,8,3:2:0:0:
280,222,13449,6,0,P|226:209|172:197,1,110,6|10,3:2|3:2,0:0:0:0:
153,147,13941,1,2,3:2:0:0:
153,147,14105,2,0,P|146:107|135:70,1,55,14|2,3:2|3:2,0:0:0:0:
126,40,14433,1,6,3:2:0:0:
53,191,14925,6,0,P|26:184|0:180,2,55,8|0|0,3:2|3:2|3:2,0:0:0:0:
95,225,15416,2,0,P|107:278|119:332,1,110,12|8,3:2|3:2,0:0:0:0:
172,350,15908,1,8,3:2:0:0:
172,350,16072,6,0,P|225:384|278:367,1,110,6|8,3:2|3:2,0:0:0:0:
301,329,16564,1,2,3:2:0:0:
301,329,16728,2,0,P|354:295|407:312,1,110,6|8,3:2|3:2,0:0:0:0:
450,274,17220,1,2,3:2:0:0:
450,274,17384,6,0,P|456:338|462:400,2,110,6|8|8,3:2|3:2|3:2,0:0:0:0:
512,186,18367,1,8,3:2:0:0:
512,186,18531,1,10,3:2:0:0:
512,186,18695,6,0,P|459:152|406:169,1,110,6|8,3:2|3:2,0:0:0:0:
383,207,19187,1,2,3:2:0:0:
383,207,19351,2,0,P|330:241|277:224,1,110,6|8,3:2|3:2,0:0:0:0:
243,208,19843,1,2,3:2:0:0:
243,208,20007,6,0,P|237:144|231:82,2,110,6|8|8,3:2|3:2|3:2,0:0:0:0:
209,320,20990,1,8,3:2:0:0:
209,320,21154,1,8,3:2:0:0:
209,320,21318,6,0,P|143:344|108:353,2,98.9999969787599,4|8|0,3:2|3:2|3:2,0:0:0:0:
259,331,22138,2,0,P|266:363|274:383,2,49.4999984893799,2|10|2,0:0|3:2|0:0,0:0:0:0:
293,295,22630,1,2,3:2:0:0:
383,324,22957,1,10,3:2:0:0:
455,265,23285,2,0,P|441:196|429:111,1,148.49999546814,2|0,3:2|0:0,0:0:0:0:
424,72,23941,6,0,P|456:57|516:20,2,98.9999969787599,0|8|0,3:2|3:2|3:2,0:0:0:0:
377,52,24761,2,0,P|367:19|362:1,2,49.4999984893799,2|10|2,0:0|3:2|0:0,0:0:0:0:
336,81,25253,1,2,3:2:0:0:
241,58,25580,1,10,3:2:0:0:
144,42,25908,1,2,3:2:0:0:
46,26,26236,1,10,3:2:0:0:
0,125,26564,6,0,P|8:178|9:194,1,55,2|0,3:2|0:0,0:0:0:0:
55,208,26892,2,0,P|47:261|46:277,1,55,8|0,3:2|0:0,0:0:0:0:
1,294,27220,2,0,P|9:347|10:363,1,55,0|0,3:2|3:0,0:0:0:0:
57,378,27548,1,8,3:2:0:0:
128,289,27875,6,0,P|162:287|189:297,1,55,0|0,3:2|0:0,0:0:0:0:
229,336,28203,1,8,3:2:0:0:
229,336,28367,1,0,0:0:0:0:
269,292,28531,2,0,P|295:285|322:287,1,55,0|0,3:2|3:0,0:0:0:0:
359,329,28859,1,8,3:2:0:0:
455,383,29187,6,0,P|463:330|464:314,1,55,0|0,3:2|0:0,0:0:0:0:
510,300,29515,2,0,P|502:247|501:231,1,55,8|0,3:2|0:0,0:0:0:0:
456,214,29843,2,0,P|464:161|465:145,1,55,0|0,3:2|3:0,0:0:0:0:
512,130,30171,1,8,3:2:0:0:
427,61,30498,6,0,P|393:63|366:53,1,55,0|0,3:2|0:0,0:0:0:0:
326,14,30826,1,8,3:2:0:0:
326,14,30990,1,0,0:0:0:0:
286,58,31154,2,0,P|259:64|232:62,1,55,0|0,3:2|3:0,0:0:0:0:
191,38,31482,1,8,3:2:0:0:
201,145,31810,6,0,P|213:213|221:265,2,110,4|8|0,3:2|3:2|3:2,0:0:0:0:
161,137,32630,1,2,0:0:0:0:
161,137,32794,1,10,3:2:0:0:
161,137,32957,1,2,0:0:0:0:
115,172,33121,5,2,3:2:0:0:
52,79,33449,1,10,3:2:0:0:
152,9,33777,2,0,P|221:22|319:46,1,165,2|8,3:2|3:2,0:0:0:0:
348,86,34433,2,0,P|397:88|446:45,2,110,0|8|0,3:2|3:2|3:2,0:0:0:0:
320,132,35253,1,2,0:0:0:0:
320,132,35416,1,10,3:2:0:0:
320,132,35580,1,2,0:0:0:0:
349,177,35744,5,2,3:2:0:0:
455,206,36072,1,10,3:2:0:0:
476,314,36400,1,2,3:2:0:0:
391,382,36728,1,10,3:2:0:0:
391,382,36892,1,8,3:2:0:0:
391,382,37056,6,0,P|346:378|321:360,1,55,2|0,3:2|0:0,0:0:0:0:
312,325,37384,2,0,P|267:329|242:347,1,55,8|0,3:2|0:0,0:0:0:0:
221,373,37712,2,0,P|176:369|151:351,1,55,0|0,3:2|3:0,0:0:0:0:
142,316,38039,1,8,3:2:0:0:
39,355,38367,6,0,L|24:286,1,55,0|0,3:2|0:0,0:0:0:0:
53,254,38695,1,8,3:2:0:0:
53,254,38859,1,0,0:0:0:0:
79,206,39023,2,0,L|64:137,1,55,0|0,3:2|3:0,0:0:0:0:
23,118,39351,1,8,3:2:0:0:
71,5,39679,6,0,P|116:9|141:27,1,55,0|0,3:2|0:0,0:0:0:0:
150,62,40007,2,0,P|195:58|220:40,1,55,8|0,3:2|0:0,0:0:0:0:
241,14,40335,2,0,P|286:18|311:36,1,55,0|0,3:2|3:0,0:0:0:0:
320,71,40662,1,8,3:2:0:0:
431,64,40990,6,0,L|416:133,1,55,0|0,3:2|0:0,0:0:0:0:
445,165,41318,1,8,3:2:0:0:
445,165,41482,1,0,0:0:0:0:
471,213,41646,2,0,L|456:282,1,55,0|0,3:2|3:0,0:0:0:0:
415,301,41974,1,8,3:2:0:0:
309,382,42302,6,0,B|238:391|272:330|195:329,2,121.000003692627,6|8|0,3:2|3:2|3:2,0:0:0:0:
334,261,43285,2,0,P|339:219|347:183,1,60.5000018463135,10|0,3:2|0:0,0:0:0:0:
386,158,43613,2,0,P|401:112|353:39,1,121.000003692627,6|8,3:2|3:2,0:0:0:0:
326,12,44105,1,0,3:0:0:0:
326,12,44269,2,0,P|257:23|192:31,1,121.000003692627,0|8,3:2|3:2,0:0:0:0:
67,0,44925,6,0,P|78:69|86:134,1,121.000003692627,6|10,3:2|3:2,0:0:0:0:
207,194,45580,2,0,P|196:263|188:328,1,121.000003692627,2|10,3:2|3:2,0:0:0:0:
70,384,46236,6,0,P|13:362|11:289,1,121.000003692627,2|10,3:2|3:2,0:0:0:0:
104,229,46892,1,2,3:2:0:0:
160,210,47056,1,2,0:0:0:0:
211,198,47220,2,0,P|214:168|219:138,1,60.5000018463135,10|0,3:2|0:0,0:0:0:0:
198,82,47548,6,0,P|161:43|96:45,2,121.000003692627,6|8|0,3:2|3:2|3:2,0:0:0:0:
299,178,48531,2,0,P|336:172|360:150,1,60.5000018463135,10|0,3:2|0:0,0:0:0:0:
391,115,48859,6,0,P|449:111|491:152,1,121.000003692627,6|8,3:2|3:2,0:0:0:0:
510,208,49351,1,0,2:0:0:0:
510,208,49515,2,0,P|499:281|492:352,1,121.000003692627,0|8,3:2|3:2,0:0:0:0:
370,377,50171,6,0,P|363:316|353:257,1,121.000003692627,6|10,3:2|3:2,0:0:0:0:
308,220,50662,1,2,0:0:0:0:
267,175,50826,2,0,P|273:114|283:55,1,121.000003692627,2|10,3:2|3:2,0:0:0:0:
149,34,51482,6,0,P|142:94|132:153,1,121.000003692627,2|10,3:2|3:2,0:0:0:0:
87,191,51973,1,2,0:0:0:0:
46,236,52138,2,0,P|52:296|62:355,1,121.000003692627,2|10,3:2|3:2,0:0:0:0:
192,384,52794,6,0,B|259:390|234:328|311:327,2,121.000003692627,6|8|0,3:2|3:2|3:2,0:0:0:0:
76,321,53777,2,0,P|71:291|67:261,1,60.5000018463135,10|0,3:2|0:0,0:0:0:0:
84,204,54105,2,0,P|122:159|187:159,2,121.000003692627,6|8|0,3:2|3:2|3:2,0:0:0:0:
0,116,55089,1,8,3:2:0:0:
59,2,55416,6,0,P|94:9|138:10,1,60.5000018463135,6|0,3:2|0:0,0:0:0:0:
150,53,55744,2,0,P|185:46|229:45,1,60.5000018463135,10|0,3:2|0:0,0:0:0:0:
245,0,56072,1,2,3:2:0:0:
326,97,56400,6,0,P|361:90|405:89,1,60.5000018463135,10|0,3:2|0:0,0:0:0:0:
417,46,56728,2,0,P|452:53|496:54,1,60.5000018463135,2|0,3:2|0:0,0:0:0:0:
512,99,57056,1,10,3:2:0:0:
496,230,57384,6,0,P|461:223|417:222,1,60.5000018463135,2|0,3:2|0:0,0:0:0:0:
405,179,57712,2,0,P|370:186|326:187,1,60.5000018463135,10|0,3:2|0:0,0:0:0:0:
310,232,58039,6,0,P|323:300|334:365,2,121.000003692627,6|8|0,3:2|3:2|3:2,0:0:0:0:
188,145,59023,2,0,P|193:115|198:85,1,60.5000018463135,10|0,3:2|0:0,0:0:0:0:
168,36,59351,2,0,P|119:-3|52:10,1,121.000003692627,6|8,3:2|3:2,0:0:0:0:
23,47,59843,1,0,3:0:0:0:
23,47,60007,2,0,P|36:115|47:180,1,121.000003692627,0|8,3:2|3:2,0:0:0:0:
0,285,60662,6,0,P|6:321|27:345,1,60.5000018463135,6|0,3:2|0:0,0:0:0:0:
71,369,60990,2,0,P|104:362|133:358,1,60.5000018463135,10|0,3:2|0:0,0:0:0:0:
185,382,61318,1,2,3:2:0:0:
143,262,61646,6,0,P|149:226|170:202,1,60.5000018463135,10|0,3:2|0:0,0:0:0:0:
214,178,61974,2,0,P|247:185|276:189,1,60.5000018463135,2|0,3:2|0:0,0:0:0:0:
328,165,62302,1,10,3:2:0:0:
299,281,62630,6,0,P|305:317|326:341,1,60.5000018463135,2|0,3:2|0:0,0:0:0:0:
370,365,62958,2,0,P|403:358|432:354,1,60.5000018463135,10|0,3:2|0:0,0:0:0:0:
480,374,63285,6,0,B|512:326|512:326|492:247,1,110,6|10,3:2|3:2,0:0:0:0:
486,226,63777,1,2,3:2:0:0:
486,226,63941,2,0,B|474:186|474:186|481:163,1,55,14|2,3:2|3:2,0:0:0:0:
506,128,64269,1,6,3:2:0:0:
362,47,64761,6,0,L|371:-8,2,55,8|0|0,3:2|3:2|3:2,0:0:0:0:
313,75,65253,2,0,L|190:56,1,110,12|8,3:2|3:2,0:0:0:0:
165,97,65744,1,8,3:2:0:0:
165,97,65908,6,0,B|133:145|133:145|153:224,1,110,6|10,3:2|3:2,0:0:0:0:
159,245,66400,1,2,3:2:0:0:
159,245,66564,2,0,B|171:285|171:285|164:308,1,55,14|2,3:2|3:2,0:0:0:0:
139,343,66892,1,6,3:2:0:0:
8,235,67384,6,0,L|-1:180,2,55,8|0|0,3:2|3:2|3:2,0:0:0:0:
57,263,67876,2,0,L|180:244,1,110,12|8,3:2|3:2,0:0:0:0:
199,206,68367,1,8,3:2:0:0:
199,206,68531,6,0,P|238:217|275:279,1,110,6|8,3:2|3:2,0:0:0:0:
269,332,69023,1,2,3:2:0:0:
269,332,69187,2,0,P|316:365|384:350,1,110,6|8,3:2|3:2,0:0:0:0:
403,320,69679,1,2,3:2:0:0:
403,320,69843,6,0,L|526:301,2,110,6|8|8,3:2|3:2|3:2,0:0:0:0:
338,224,70826,1,8,3:2:0:0:
338,224,70990,1,10,3:2:0:0:
338,224,71154,6,0,P|299:235|262:297,1,110,6|8,3:2|3:2,0:0:0:0:
268,350,71646,1,2,3:2:0:0:
268,350,71810,2,0,P|221:383|153:368,1,110,6|8,3:2|3:2,0:0:0:0:
134,338,72302,1,2,3:2:0:0:
134,338,72466,6,0,L|11:319,2,110,6|8|8,3:2|3:2|3:2,0:0:0:0:
205,249,73449,1,8,3:2:0:0:
205,249,73613,1,8,3:2:0:0:
205,249,73777,6,0,P|223:184|245:111,1,110,6|10,3:2|3:2,0:0:0:0:
209,104,74269,1,2,3:2:0:0:
209,104,74433,2,0,P|175:83|144:60,1,55,10|2,3:2|3:2,0:0:0:0:
123,38,74761,1,6,3:2:0:0:
292,81,75253,5,10,3:2:0:0:
292,81,75416,2,0,P|377:58|509:27,1,220,2|8,3:2|3:2,0:0:0:0:
482,80,76236,1,8,3:2:0:0:
482,80,76400,6,0,P|500:145|522:218,1,110,6|10,3:2|3:2,0:0:0:0:
486,225,76892,1,2,3:2:0:0:
486,225,77056,2,0,P|452:246|421:269,1,55,10|2,3:2|3:2,0:0:0:0:
400,291,77384,1,6,3:2:0:0:
254,379,77875,5,10,3:2:0:0:
254,379,78039,2,0,P|169:356|37:325,1,220,2|8,3:2|3:2,0:0:0:0:
20,281,78859,1,8,3:2:0:0:
20,281,79023,6,0,P|5:219|34:181,1,110,6|8,3:2|3:2,0:0:0:0:
76,153,79515,1,2,3:2:0:0:
76,153,79679,2,0,P|138:161|188:167,1,110,6|8,3:2|3:2,0:0:0:0:
231,133,80170,1,2,3:2:0:0:
231,133,80334,6,0,P|246:71|217:33,2,110,6|8|8,3:2|3:2|3:2,0:0:0:0:
197,257,81318,1,8,3:2:0:0:
197,257,81482,1,10,3:2:0:0:
197,257,81646,6,0,P|182:319|211:357,1,110,6|8,3:2|3:2,0:0:0:0:
256,374,82138,1,2,3:2:0:0:
256,374,82302,2,0,P|318:364|391:354,1,110,6|8,3:2|3:2,0:0:0:0:
410,325,82794,1,2,3:2:0:0:
410,325,82957,6,0,P|436:278|419:228,2,110,6|8|8,3:2|3:2|3:2,0:0:0:0:
298,284,83941,2,0,P|293:250|278:206,1,55,8|8,3:2|3:2,0:0:0:0:
258,189,84269,5,8,3:0:0:0:
258,189,84433,1,0,3:0:0:0:
258,189,85580,5,8,3:0:0:0:
258,189,86892,5,8,3:0:0:0:
258,189,88203,5,8,3:0:0:0:
4,169,89187,5,8,3:2:0:0:
89,84,89515,6,0,L|153:95,1,55,2|0,3:2|0:0,0:0:0:0:
184,60,89843,2,0,L|248:71,1,55,8|0,3:2|0:0,0:0:0:0:
279,36,90171,2,0,L|343:47,1,55,0|0,3:2|3:0,0:0:0:0:
377,8,90498,1,8,3:2:0:0:
462,85,90826,6,0,P|500:132|502:156,1,55,0|0,3:2|0:0,0:0:0:0:
512,181,91154,1,8,3:2:0:0:
512,181,91318,1,0,0:0:0:0:
489,231,91482,2,0,P|441:269|417:271,1,55,0|0,3:2|3:0,0:0:0:0:
394,263,91810,1,8,3:2:0:0:
386,375,92138,6,0,L|322:386,1,55,0|0,3:2|0:0,0:0:0:0:
291,351,92466,2,0,L|227:362,1,55,8|0,3:2|0:0,0:0:0:0:
196,327,92794,2,0,L|132:338,1,55,0|0,3:2|3:0,0:0:0:0:
98,300,93121,1,8,3:2:0:0:
50,202,93449,6,0,P|11:155|9:131,1,55,0|0,3:2|0:0,0:0:0:0:
0,106,93777,1,8,3:2:0:0:
0,106,93941,1,0,0:0:0:0:
23,56,94105,2,0,P|70:18|94:16,1,55,0|0,3:2|3:0,0:0:0:0:
118,24,94433,1,8,3:2:0:0:
220,78,94761,6,0,P|299:67|364:61,2,110,4|8|0,3:2|3:2|3:2,0:0:0:0:
190,122,95580,2,0,P|181:176|170:230,1,110,2|2,0:0|0:0,0:0:0:0:
138,276,96072,1,2,3:2:0:0:
174,382,96400,1,10,3:2:0:0:
287,365,96728,2,0,P|303:284|316:202,1,165,2|8,3:2|3:2,0:0:0:0:
365,171,97384,6,0,P|444:182|509:188,2,110,0|8|0,3:2|3:2|3:2,0:0:0:0:
333,124,98203,2,0,P|343:69|352:15,1,110,2|2,0:0|0:0,0:0:0:0:
408,1,98695,5,2,3:2:0:0:
502,63,99023,1,10,3:2:0:0:
503,176,99351,1,2,3:2:0:0:
413,252,99679,1,10,3:2:0:0:
413,252,99843,1,8,3:2:0:0:
413,252,100007,6,0,P|369:250|339:239,1,55,2|0,3:2|0:0,0:0:0:0:
326,288,100334,2,0,P|282:290|252:301,1,55,8|0,3:2|0:0,0:0:0:0:
241,253,100662,2,0,P|197:251|167:240,1,55,0|0,3:2|3:0,0:0:0:0:
155,291,100990,1,8,3:2:0:0:
57,355,101318,6,0,P|45:339|42:281,1,55,0|0,3:2|0:0,0:0:0:0:
68,262,101646,1,8,3:2:0:0:
68,262,101810,1,0,0:0:0:0:
100,218,101974,2,0,P|112:202|115:144,1,55,0|0,3:2|3:0,0:0:0:0:
86,124,102302,1,8,3:2:0:0:
127,20,102630,6,0,P|171:18|201:7,1,55,0|0,3:2|0:0,0:0:0:0:
214,56,102957,2,0,P|258:58|288:69,1,55,8|0,3:2|0:0,0:0:0:0:
299,21,103285,2,0,P|343:19|373:8,1,55,0|0,3:2|3:0,0:0:0:0:
385,59,103613,1,8,3:2:0:0:
492,105,103941,6,0,P|504:121|507:179,1,55,0|0,3:2|0:0,0:0:0:0:
481,198,104269,1,8,3:2:0:0:
481,198,104433,1,0,0:0:0:0:
449,242,104597,2,0,P|437:258|434:316,1,55,0|0,3:2|3:0,0:0:0:0:
463,336,104925,1,8,3:2:0:0:
332,381,105253,6,0,L|207:368,2,121.000003692627,6|8|0,3:2|3:2|3:2,0:0:0:0:
314,255,106236,2,0,L|241:265,1,60.5000018463135,10|0,3:2|0:0,0:0:0:0:
205,232,106564,6,0,P|191:159|175:76,1,121.000003692627,6|8,3:2|3:2,0:0:0:0:
148,70,107056,1,0,3:0:0:0:
148,70,107220,2,0,P|97:32|27:42,1,121.000003692627,0|8,3:2|3:2,0:0:0:0:
0,164,107875,6,0,P|6:229|9:291,1,121.000003692627,6|10,3:2|3:2,0:0:0:0:
102,377,108531,2,0,P|162:371|222:368,1,121.000003692627,2|10,3:2|3:2,0:0:0:0:
314,289,109187,6,0,P|322:244|270:179,1,121.000003692627,2|10,3:2|3:2,0:0:0:0:
151,178,109843,1,2,3:2:0:0:
94,156,110007,1,2,0:0:0:0:
60,104,110171,2,0,P|56:81|78:44,1,60.5000018463135,10|0,3:2|0:0,0:0:0:0:
116,17,110498,6,0,P|184:6|246:-2,2,121.000003692627,6|8|0,3:2|3:2|3:2,0:0:0:0:
98,160,111482,2,0,P|101:199|105:235,1,60.5000018463135,10|0,3:2|0:0,0:0:0:0:
120,275,111810,2,0,P|151:296|236:280,1,121.000003692627,6|8,3:2|3:2,0:0:0:0:
262,240,112302,1,0,3:0:0:0:
262,240,112466,2,0,P|293:219|378:235,1,121.000003692627,0|8,3:2|3:2,0:0:0:0:
481,323,113121,6,0,P|487:253|495:186,1,121.000003692627,6|10,3:2|3:2,0:0:0:0:
444,170,113613,1,2,0:0:0:0:
392,140,113777,2,0,P|386:70|378:3,1,121.000003692627,2|10,3:2|3:2,0:0:0:0:
254,30,114433,6,0,P|260:100|268:167,1,121.000003692627,2|10,3:2|3:2,0:0:0:0:
217,183,114925,1,2,0:0:0:0:
165,213,115089,2,0,P|159:283|151:350,1,121.000003692627,2|10,3:2|3:2,0:0:0:0:
271,384,115744,6,0,L|396:371,2,121.000003692627,6|8|0,3:2|3:2|3:2,0:0:0:0:
157,337,116728,2,0,P|126:333|96:331,1,60.5000018463135,10|0,3:2|0:0,0:0:0:0:
53,373,117056,2,0,P|3:332|11:265,1,121.000003692627,6|8,3:2|3:2,0:0:0:0:
8,223,117548,1,0,3:0:0:0:
8,223,117712,2,0,P|13:148|20:83,1,121.000003692627,0|8,3:2|3:2,0:0:0:0:
100,2,118367,6,0,P|120:2|155:33,1,60.5000018463135,6|0,3:2|0:0,0:0:0:0:
175,78,118695,2,0,P|168:134|163:179,1,60.5000018463135,10|0,3:2|0:0,0:0:0:0:
157,195,119023,1,2,3:2:0:0:
208,314,119351,6,0,P|228:314|263:283,1,60.5000018463135,10|0,3:2|0:0,0:0:0:0:
283,238,119679,2,0,P|276:182|271:137,1,60.5000018463135,2|0,3:2|0:0,0:0:0:0:
265,121,120007,1,10,3:2:0:0:
348,19,120334,6,0,P|368:19|403:50,1,60.5000018463135,2|0,3:2|0:0,0:0:0:0:
423,95,120662,2,0,P|416:151|411:196,1,60.5000018463135,10|0,3:2|0:0,0:0:0:0:
409,214,120990,6,0,P|475:241|520:219,2,121.000003692627,6|8|0,3:2|3:2|3:2,0:0:0:0:
339,110,121974,2,0,P|311:108|284:126,1,60.5000018463135,10|0,3:2|0:0,0:0:0:0:
258,178,122302,2,0,P|248:262|237:331,1,121.000003692627,6|8,3:2|3:2,0:0:0:0:
275,350,122794,1,0,3:0:0:0:
274,349,122957,2,0,P|336:381|392:361,1,121.000003692627,0|8,3:2|3:2,0:0:0:0:
490,302,123613,6,0,P|486:275|493:234,1,60.5000018463135,6|0,3:2|0:0,0:0:0:0:
457,199,123941,2,0,P|461:172|454:131,1,60.5000018463135,10|0,3:2|0:0,0:0:0:0:
490,96,124269,1,2,3:2:0:0:
400,10,124597,6,0,P|373:14|332:7,1,60.5000018463135,10|0,3:2|0:0,0:0:0:0:
297,43,124925,2,0,P|270:39|229:46,1,60.5000018463135,2|0,3:2|0:0,0:0:0:0:
194,10,125253,1,10,3:2:0:0:
107,83,125580,6,0,P|111:110|104:151,1,60.5000018463135,2|0,3:2|0:0,0:0:0:0:
140,186,125908,2,0,P|136:213|143:254,1,60.5000018463135,10|0,3:2|0:0,0:0:0:0:
107,289,126236,5,6,3:2:0:0:
19,361,126564,2,0,P|-9:305|5:254,2,110,2|10|2,3:2|3:2|3:2,0:0:0:0:
75,384,127384,1,10,3:2:0:0:
75,384,127548,2,0,P|124:372|148:369,1,55,2|2,3:2|3:2,0:0:0:0:
183,363,127875,1,2,3:2:0:0:
286,343,128203,1,10,3:2:0:0:
388,322,128531,1,2,3:2:0:0:
495,301,128859,5,2,3:2:0:0:
419,220,129187,2,0,P|362:212|313:243,2,110,2|10|2,3:2|3:2|3:2,0:0:0:0:
474,206,130007,1,10,3:2:0:0:
474,206,130171,2,0,P|483:149|490:120,1,55,2|2,3:2|3:2,0:0:0:0:
504,103,130498,1,2,3:2:0:0:
442,3,130826,2,0,L|375:13,1,55,10|2,3:2|3:2,0:0:0:0:
352,54,131154,2,0,L|285:44,1,55,2|2,3:2|3:2,0:0:0:0:
254,79,131482,5,2,3:2:0:0:
153,111,131810,2,0,P|148:64|140:-7,2,110,2|10|2,3:2|3:2|3:2,0:0:0:0:
161,169,132630,1,10,3:2:0:0:
161,169,132794,2,0,P|183:197|210:204,1,55,2|2,3:2|3:2,0:0:0:0:
257,197,133121,1,2,3:2:0:0:
326,118,133449,1,10,3:2:0:0:
405,188,133777,1,2,3:2:0:0:
512,168,134105,5,2,3:2:0:0:
505,275,134433,2,0,P|500:322|492:393,2,110,2|10|2,3:2|3:2|3:2,0:0:0:0:
470,241,135253,1,10,3:2:0:0:
470,241,135416,2,0,P|441:222|410:223,1,55,2|2,3:2|3:2,0:0:0:0:
379,252,135744,1,2,3:2:0:0:
324,350,136072,2,0,P|295:369|264:368,1,55,10|2,3:2|3:2,0:0:0:0:
237,335,136400,2,0,P|208:316|177:317,1,55,2|2,3:2|3:2,0:0:0:0:
152,357,136728,5,2,3:2:0:0:
72,282,137056,2,0,P|41:322|40:389,2,110,2|10|2,3:2|3:2|3:2,0:0:0:0:
124,263,137875,1,10,3:2:0:0:
124,263,138039,2,0,P|147:232|149:180,1,55,2|2,3:2|3:2,0:0:0:0:
133,165,138367,1,2,3:2:0:0:
30,130,138695,1,10,3:2:0:0:
65,27,139023,1,2,3:2:0:0:
168,62,139351,5,2,3:2:0:0:
266,20,139679,2,0,P|342:14|382:11,2,110,2|10|2,3:2|3:2|3:2,0:0:0:0:
254,74,140498,1,10,3:2:0:0:
254,74,140662,2,0,P|250:111|246:145,1,55,2|2,3:2|3:2,0:0:0:0:
239,183,140990,1,2,3:2:0:0:
157,252,141318,2,0,P|161:289|165:323,1,55,10|2,3:2|3:2,0:0:0:0:
204,342,141646,2,0,P|241:338|275:334,1,55,2|2,3:2|3:2,0:0:0:0:
301,372,141974,5,2,3:2:0:0:
373,287,142302,2,0,P|411:332|416:386,2,110,2|10|2,3:2|3:2|3:2,0:0:0:0:
327,258,143121,1,10,3:2:0:0:
327,258,143285,2,0,P|296:261|250:265,1,55,2|2,3:2|3:2,0:0:0:0:
227,233,143613,1,2,3:2:0:0:
174,329,143941,1,10,3:2:0:0:
67,320,144269,1,2,3:2:0:0:
28,214,144597,5,2,3:2:0:0:
100,120,144925,2,0,P|111:51|126:2,2,110,2|10|2,3:2|3:2|3:2,0:0:0:0:
116,163,145744,1,10,3:2:0:0:
116,163,145908,2,0,P|137:185|174:190,1,55,2|2,3:2|3:2,0:0:0:0:
209,169,146236,1,2,3:2:0:0:
265,71,146564,2,0,P|287:55|322:51,1,55,10|2,3:2|3:2,0:0:0:0:
358,85,146892,2,0,P|380:101|415:105,1,55,2|2,3:2|0:0,0:0:0:0:
455,77,147220,5,0,0:0:0:0:
8,384,157712,5,6,3:2:0:0:
381,295,158695,5,2,3:2:0:0:
506,267,159023,1,2,3:2:0:0:
506,267,160334,5,2,3:2:0:0:
382,237,160661,1,2,3:2:0:0:
257,207,160989,1,2,3:2:0:0:
133,178,161317,1,2,3:2:0:0:
8,150,161645,5,2,3:2:0:0:
132,120,161974,1,2,3:2:0:0:
257,90,162302,1,2,3:2:0:0:
381,61,162630,1,2,3:2:0:0:
505,32,162957,5,2,3:2:0:0:
132,120,163941,5,2,3:2:0:0:
8,150,164269,1,2,3:2:0:0:
8,150,165580,5,2,3:2:0:0:
133,178,165909,1,2,3:2:0:0:
257,207,166237,1,2,3:2:0:0:
382,237,166565,1,2,3:2:0:0:
506,267,166892,5,2,3:2:0:0:
382,296,167220,1,2,3:2:0:0:
257,326,167548,1,2,3:2:0:0:
133,356,167875,1,2,3:2:0:0:
8,384,168203,5,2,3:2:0:0:
269,338,169187,5,8,3:2:0:0:
269,338,169351,1,8,3:2:0:0:
269,338,169515,6,0,B|194:347|228:280|143:279,2,131.99999597168,6|8|0,3:2|3:2|3:2,0:0:0:0:
375,259,170498,2,0,P|381:231|404:180,1,65.9999979858399,10|0,3:2|0:0,0:0:0:0:
450,167,170826,2,0,P|496:113|478:45,1,131.99999597168,6|8,3:2|3:2,0:0:0:0:
454,10,171318,1,0,3:0:0:0:
454,10,171482,2,0,P|374:14|306:17,1,131.99999597168,0|8,3:2|3:2,0:0:0:0:
200,47,172138,6,0,P|140:4|76:20,1,131.99999597168,6|10,3:2|3:2,0:0:0:0:
48,140,172794,2,0,P|108:183|172:167,1,131.99999597168,2|10,3:2|3:2,0:0:0:0:
275,93,173449,6,0,P|335:50|399:66,1,131.99999597168,2|10,3:2|3:2,0:0:0:0:
483,152,174105,1,2,3:2:0:0:
475,209,174269,1,2,0:0:0:0:
463,268,174433,2,0,P|455:323|448:356,1,65.9999979858399,10|0,3:2|0:0,0:0:0:0:
405,364,174761,6,0,P|333:374|258:388,2,131.99999597168,6|8|0,3:2|3:2|3:2,0:0:0:0:
355,244,175744,2,0,P|322:249|289:254,1,65.9999979858399,10|0,3:2|0:0,0:0:0:0:
249,302,176072,2,0,P|204:240|232:178,1,131.99999597168,6|8,3:2|3:2,0:0:0:0:
273,158,176564,1,0,3:0:0:0:
273,158,176728,2,0,P|318:96|290:34,1,131.99999597168,0|8,3:2|3:2,0:0:0:0:
165,1,177384,6,0,B|144:74|181:80|156:158,1,131.99999597168,6|10,3:2|3:2,0:0:0:0:
120,180,177875,1,2,0:0:0:0:
82,231,178039,2,0,B|103:304|66:310|91:388,1,131.99999597168,2|10,3:2|3:2,0:0:0:0:
211,366,178695,6,0,B|232:293|195:287|220:209,1,131.99999597168,2|10,3:2|3:2,0:0:0:0:
256,187,179186,1,2,0:0:0:0:
294,136,179350,2,0,B|273:63|310:57|285:-21,1,131.99999597168,2|10,3:2|3:2,0:0:0:0:
385,95,180007,6,0,P|457:76|480:12,2,131.99999597168,6|8|0,3:2|3:2|3:2,0:0:0:0:
296,9,180990,2,0,P|262:12|235:32,1,65.9999979858399,10|0,3:2|0:0,0:0:0:0:
208,79,181318,2,0,P|174:76|147:56,1,65.9999979858399,6|0,3:2|0:0,0:0:0:0:
124,12,181646,2,0,P|90:15|63:35,1,65.9999979858399,10|0,3:2|0:0,0:0:0:0:
20,79,181974,2,0,P|29:170|31:237,1,131.99999597168,2|8,3:2|3:2,0:0:0:0:
25,273,182466,1,2,0:0:0:0:
25,273,182630,6,0,P|59:283|104:306,1,65.9999979858399,6|0,3:2|0:0,0:0:0:0:
138,332,182957,2,0,P|172:322|217:299,1,65.9999979858399,10|0,3:2|0:0,0:0:0:0:
239,264,183285,1,2,3:2:0:0:
298,375,183613,6,0,P|332:365|377:342,1,65.9999979858399,10|0,3:2|0:0,0:0:0:0:
411,316,183940,2,0,P|445:326|490:349,1,65.9999979858399,2|0,3:2|0:0,0:0:0:0:
512,384,184268,1,10,3:2:0:0:
493,253,184597,6,0,P|483:219|460:174,1,65.9999979858399,2|0,3:2|0:0,0:0:0:0:
427,162,184925,2,0,P|437:128|460:83,1,65.9999979858399,10|0,3:2|0:0,0:0:0:0:
438,43,185253,6,0,P|382:33|295:11,2,131.99999597168,6|8|0,3:2|3:2|3:2,0:0:0:0:
431,166,186236,2,0,P|398:171|366:179,1,65.9999979858399,10|0,3:2|0:0,0:0:0:0:
308,190,186564,6,0,P|247:235|253:305,1,131.99999597168,6|8,3:2|3:2,0:0:0:0:
275,340,187056,1,0,3:0:0:0:
275,340,187220,2,0,P|350:325|411:321,1,131.99999597168,0|8,3:2|3:2,0:0:0:0:
493,213,187875,6,0,P|506:172|485:130,1,65.9999979858399,6|0,3:2|0:0,0:0:0:0:
467,100,188203,2,0,P|439:90|383:72,1,65.9999979858399,10|0,3:2|0:0,0:0:0:0:
361,33,188531,1,2,3:2:0:0:
388,163,188859,6,0,P|401:204|380:246,1,65.9999979858399,10|0,3:2|0:0,0:0:0:0:
362,276,189187,2,0,P|334:286|278:304,1,65.9999979858399,2|0,3:2|0:0,0:0:0:0:
256,343,189515,1,10,3:2:0:0:
270,218,189843,6,0,P|283:177|262:135,1,65.9999979858399,2|0,3:2|0:0,0:0:0:0:
242,102,190171,2,0,P|214:92|158:74,1,65.9999979858399,10|0,3:2|0:0,0:0:0:0:
138,39,190498,6,0,P|128:104|119:175,1,110,6|10,3:2|3:2,0:0:0:0:
115,206,190990,1,2,3:2:0:0:
115,206,191154,2,0,P|70:219|29:234,1,55,14|2,3:2|3:2,0:0:0:0:
12,247,191482,1,6,3:2:0:0:
164,320,191974,6,0,P|171:351|177:381,2,55,8|0|0,3:2|3:2|3:2,0:0:0:0:
205,285,192466,2,0,P|258:270|310:253,1,110,12|8,3:2|3:2,0:0:0:0:
349,219,192957,1,8,3:2:0:0:
349,219,193121,6,0,P|359:154|368:83,1,110,6|10,3:2|3:2,0:0:0:0:
372,52,193613,1,2,3:2:0:0:
372,52,193777,2,0,P|417:39|458:24,1,55,14|2,3:2|3:2,0:0:0:0:
475,11,194105,1,6,3:2:0:0:
490,200,194597,6,0,P|463:191|437:184,2,55,8|0|0,3:2|3:2|3:2,0:0:0:0:
512,246,195089,2,0,P|504:300|496:354,1,110,12|8,3:2|3:2,0:0:0:0:
442,376,195580,1,8,3:2:0:0:
442,376,195744,6,0,P|385:376|343:336,1,110,6|8,3:2|3:2,0:0:0:0:
317,291,196236,1,2,3:2:0:0:
317,291,196400,2,0,P|260:291|218:331,1,110,6|8,3:2|3:2,0:0:0:0:
180,368,196892,1,2,3:2:0:0:
180,368,197056,2,0,P|172:306|162:237,2,110,6|8|8,3:2|3:2|3:2,0:0:0:0:
63,305,198039,1,8,3:2:0:0:
63,305,198203,1,10,3:2:0:0:
63,305,198367,6,0,P|63:248|103:206,1,110,6|8,3:2|3:2,0:0:0:0:
148,180,198859,1,2,3:2:0:0:
148,180,199023,2,0,P|148:123|108:81,1,110,6|8,3:2|3:2,0:0:0:0:
71,43,199515,1,2,3:2:0:0:
71,43,199679,2,0,P|133:35|202:25,2,110,6|8|8,3:2|3:2|3:2,0:0:0:0:
58,162,200662,1,8,3:2:0:0:
58,162,200826,1,8,3:2:0:0:
58,162,200990,6,0,P|68:214|81:285,1,110,6|10,3:2|3:2,0:0:0:0:
130,299,201481,1,2,3:2:0:0:
130,299,201645,2,0,P|160:306|200:319,1,55,10|2,3:2|3:2,0:0:0:0:
227,345,201973,1,6,3:2:0:0:
158,205,202466,5,10,3:2:0:0:
158,205,202630,2,0,P|287:166|419:136,1,220,2|8,3:2|3:2,0:0:0:0:
330,111,203449,1,8,3:2:0:0:
330,111,203613,6,0,P|343:164|355:218,1,110,6|10,3:2|3:2,0:0:0:0:
405,238,204105,1,2,3:2:0:0:
405,238,204269,2,0,P|445:245|482:256,1,55,10|2,3:2|3:2,0:0:0:0:
512,265,204597,1,6,3:2:0:0:
347,305,205089,5,10,3:2:0:0:
347,305,205253,2,0,P|240:278|135:246,1,220,2|8,3:2|3:2,0:0:0:0:
81,268,206072,1,8,3:2:0:0:
81,268,206236,2,0,P|18:234|16:166,1,110,6|8,3:2|3:2,0:0:0:0:
16,147,206728,1,2,3:2:0:0:
16,147,206892,2,0,P|29:76|44:7,1,110,6|8,3:2|3:2,0:0:0:0:
88,12,207384,1,2,3:2:0:0:
88,12,207548,2,0,P|159:25|228:40,2,110,6|8|8,3:2|3:2|3:2,0:0:0:0:
108,148,208531,1,8,3:2:0:0:
108,148,208695,1,10,3:2:0:0:
108,148,208859,6,0,P|142:211|210:213,1,110,6|8,3:2|3:2,0:0:0:0:
229,213,209351,1,2,3:2:0:0:
229,213,209515,2,0,P|300:200|369:185,1,110,6|8,3:2|3:2,0:0:0:0:
364,141,210007,1,2,3:2:0:0:
364,141,210171,2,0,P|351:70|336:1,2,110,6|8|8,3:2|3:2|3:2,0:0:0:0:
392,266,211154,1,8,3:2:0:0:
392,266,211318,1,8,3:2:0:0:
256,192,211482,12,0,213285,0:0:0:0:
