osu file format v14

[General]
AudioFilename: audio.mp3
AudioLeadIn: 0
PreviewTime: 106272
Countdown: 0
SampleSet: Soft
StackLeniency: 0.7
Mode: 0
LetterboxInBreaks: 0
WidescreenStoryboard: 1

[Editor]
DistanceSpacing: 1.33
BeatDivisor: 4
GridSize: 16
TimelineZoom: 1.7

[Metadata]
Title:Back to Start
TitleUnicode:Back to Start
Artist:JOYLESS
ArtistUnicode:JOYLESS
Creator:Zelq
Version:-Sylvari's Hard
Source:
Tags:punk rock english band elicz1 stinky -Sylvari muya- some hero heroine fa featured artist
BeatmapID:3613829
BeatmapSetID:1738503

[Difficulty]
HPDrainRate:6
CircleSize:3.5
OverallDifficulty:6
ApproachRate:8
SliderMultiplier:1.3
SliderTickRate:1

[Events]
//Background and Video events
0,0,"ismail-inceoglu-closing-hours.jpg",0,0
//Break Periods
2,58261,61833
2,63084,66657
2,67908,71482
2,72733,76607
2,140271,143843
2,145094,148667
2,149918,153492
2,154743,158617
//Storyboard Layer 0 (Background)
//Storyboard Layer 1 (Fail)
//Storyboard Layer 2 (Pass)
//Storyboard Layer 3 (Foreground)
//Storyboard Layer 4 (Overlay)
//Storyboard Sound Samples

[TimingPoints]
9820,301.507537688442,4,2,1,55,1,0
9820,-133.333333333333,4,2,1,55,0,0
18865,-333.333333333333,4,2,1,55,0,0
19468,-100,4,2,2,65,0,1
19543,-100,4,2,2,65,0,0
19618,-100,4,2,1,65,0,0
28814,-333.333333333333,4,2,1,65,0,0
29116,-100,4,2,3,70,0,1
29191,-100,4,2,3,70,0,0
29267,-100,4,2,1,70,0,0
29417,-100,4,2,2,70,0,0
29719,-100,4,2,4,70,0,0
30021,-100,4,2,2,70,0,0
30171,-100,4,2,1,70,0,0
30322,-100,4,2,4,70,0,0
30624,-100,4,2,2,70,0,0
30925,-100,4,2,4,70,0,0
31076,-100,4,2,1,70,0,0
31227,-100,4,2,2,70,0,0
31528,-100,4,2,4,70,0,0
31679,-100,4,2,1,70,0,0
31830,-100,4,2,2,70,0,0
32131,-100,4,2,4,70,0,0
32433,-100,4,2,2,70,0,0
32583,-100,4,2,1,70,0,0
32734,-100,4,2,4,70,0,0
33036,-100,4,2,2,70,0,0
33337,-100,4,2,4,70,0,0
33488,-100,4,2,1,70,0,0
33639,-100,4,2,2,70,0,0
33940,-100,4,2,4,70,0,0
34091,-100,4,2,1,70,0,0
34242,-100,4,2,2,70,0,0
34392,-100,4,2,1,70,0,0
34543,-100,4,2,4,70,0,0
34845,-100,4,2,2,70,0,0
34995,-100,4,2,1,70,0,0
35146,-100,4,2,4,70,0,0
35297,-100,4,2,1,70,0,0
35448,-100,4,2,2,70,0,0
35749,-100,4,2,4,70,0,0
35900,-100,4,2,1,70,0,0
36051,-100,4,2,2,70,0,0
36352,-100,4,2,4,70,0,0
36503,-100,4,2,1,70,0,0
36654,-100,4,2,2,70,0,0
36804,-100,4,2,1,70,0,0
36955,-100,4,2,4,70,0,0
37257,-100,4,2,2,70,0,0
37407,-100,4,2,1,70,0,0
37558,-100,4,2,4,70,0,0
37709,-100,4,2,1,70,0,0
37860,-100,4,2,2,70,0,0
38161,-100,4,2,4,70,0,0
38312,-100,4,2,1,70,0,0
38463,-100,4,2,2,70,0,0
38764,-111.111111111111,4,2,1,80,0,0
39066,-111.111111111111,4,2,3,80,0,0
39216,-111.111111111111,4,2,1,80,0,0
39669,-111.111111111111,4,2,3,80,0,0
39819,-111.111111111111,4,2,1,80,0,0
40272,-111.111111111111,4,2,3,80,0,0
40423,-111.111111111111,4,2,1,80,0,0
40875,-111.111111111111,4,2,4,80,0,0
41176,-111.111111111111,4,2,1,80,0,0
41478,-111.111111111111,4,2,3,80,0,0
41629,-111.111111111111,4,2,1,80,0,0
42081,-111.111111111111,4,2,3,80,0,0
42232,-111.111111111111,4,2,1,80,0,0
42684,-111.111111111111,4,2,3,80,0,0
42835,-111.111111111111,4,2,1,80,0,0
43287,-111.111111111111,4,2,5,80,0,0
43588,-90.9090909090908,4,2,5,80,0,0
43890,-90.9090909090908,4,2,1,85,0,0
44191,-90.9090909090908,4,2,2,85,0,0
44493,-90.9090909090908,4,2,6,85,0,0
44794,-90.9090909090908,4,2,2,85,0,0
45096,-90.9090909090908,4,2,6,85,0,0
45397,-90.9090909090908,4,2,2,85,0,0
45699,-90.9090909090908,4,2,6,85,0,0
46000,-90.9090909090908,4,2,5,85,0,0
46302,-90.9090909090908,4,2,1,85,0,0
46603,-90.9090909090908,4,2,2,85,0,0
46905,-90.9090909090908,4,2,6,85,0,0
47206,-90.9090909090908,4,2,2,85,0,0
47508,-90.9090909090908,4,2,6,85,0,0
47809,-90.9090909090908,4,2,2,85,0,0
48111,-90.9090909090908,4,2,6,85,0,0
48262,-90.9090909090908,4,2,1,85,0,0
48412,-111.111111111111,4,2,1,80,0,0
48714,-111.111111111111,4,2,3,80,0,0
48865,-111.111111111111,4,2,1,80,0,0
49317,-111.111111111111,4,2,3,80,0,0
49468,-111.111111111111,4,2,1,80,0,0
49920,-111.111111111111,4,2,3,80,0,0
50071,-111.111111111111,4,2,1,80,0,0
50523,-111.111111111111,4,2,4,80,0,0
50674,-111.111111111111,4,2,1,80,0,0
51126,-111.111111111111,4,2,3,80,0,0
51277,-111.111111111111,4,2,1,80,0,0
51729,-111.111111111111,4,2,3,80,0,0
51880,-111.111111111111,4,2,1,80,0,0
52332,-111.111111111111,4,2,3,80,0,0
52483,-111.111111111111,4,2,1,80,0,0
52935,-111.111111111111,4,2,5,80,0,0
53237,-90.9090909090909,4,2,5,80,0,0
53538,-90.9090909090909,4,2,1,85,0,0
53840,-90.9090909090909,4,2,2,85,0,0
54141,-90.9090909090909,4,2,6,85,0,0
54443,-90.9090909090909,4,2,2,85,0,0
54744,-90.9090909090909,4,2,6,85,0,0
55046,-90.9090909090909,4,2,2,85,0,0
55347,-90.9090909090909,4,2,6,85,0,0
55649,-90.9090909090909,4,2,5,85,0,0
55950,-90.9090909090909,4,2,1,85,0,0
56252,-90.9090909090909,4,2,2,85,0,0
56553,-90.9090909090909,4,2,6,85,0,0
56855,-90.9090909090909,4,2,1,85,0,0
57156,-90.9090909090909,4,2,7,85,0,0
57458,-90.9090909090909,4,2,1,85,0,0
57759,-90.9090909090909,4,2,7,85,0,0
58061,-90.9090909090909,4,2,3,80,0,1
58136,-90.9090909090909,4,2,3,80,0,0
58211,-90.9090909090909,4,2,1,80,0,0
58362,-90.9090909090909,4,2,7,80,0,0
59116,-90.9090909090909,4,2,1,80,0,0
59267,-90.9090909090909,4,2,7,80,0,0
60021,-90.9090909090909,4,2,1,80,0,0
60171,-90.9090909090909,4,2,7,80,0,0
60624,-90.9090909090909,4,2,1,80,0,0
60774,-90.9090909090909,4,2,7,80,0,0
61528,-90.9090909090909,4,2,1,80,0,0
61679,-90.9090909090909,4,2,7,80,0,0
62433,-90.9090909090909,4,2,1,80,0,0
62583,-76.9230769230769,4,2,8,80,0,0
62885,-90.9090909090909,4,2,3,80,0,0
63036,-90.9090909090909,4,2,1,80,0,0
63186,-90.9090909090909,4,2,7,80,0,0
63337,-90.9090909090909,4,2,1,80,0,0
63488,-90.9090909090909,4,2,7,80,0,0
63940,-90.9090909090909,4,2,1,80,0,0
64091,-90.9090909090909,4,2,3,80,0,0
64242,-90.9090909090909,4,2,1,80,0,0
64392,-90.9090909090909,4,2,7,80,0,0
64845,-90.9090909090909,4,2,1,80,0,0
64995,-90.9090909090909,4,2,7,80,0,0
65448,-90.9090909090909,4,2,1,80,0,0
65598,-90.9090909090909,4,2,7,80,0,0
65749,-90.9090909090909,4,2,1,80,0,0
65900,-90.9090909090909,4,2,7,80,0,0
66352,-90.9090909090909,4,2,1,80,0,0
66503,-90.9090909090909,4,2,3,80,0,0
66654,-90.9090909090909,4,2,1,80,0,0
66804,-90.9090909090909,4,2,7,80,0,0
67257,-90.9090909090909,4,2,1,80,0,0
67407,-76.9230769230769,4,2,8,80,0,0
67709,-90.9090909090909,4,2,4,80,0,1
67784,-90.9090909090909,4,2,4,80,0,0
67860,-90.9090909090909,4,2,1,80,0,0
68010,-90.9090909090909,4,2,7,80,0,0
68764,-90.9090909090909,4,2,1,80,0,0
68915,-90.9090909090909,4,2,7,80,0,0
69669,-90.9090909090909,4,2,1,80,0,0
69819,-90.9090909090909,4,2,7,80,0,0
70272,-90.9090909090909,4,2,1,80,0,0
70423,-90.9090909090909,4,2,7,80,0,0
71176,-90.9090909090909,4,2,1,80,0,0
71327,-90.9090909090909,4,2,7,80,0,0
72081,-90.9090909090909,4,2,1,80,0,0
72232,-76.9230769230769,4,2,8,80,0,0
72533,-90.9090909090909,4,2,3,80,0,0
72684,-90.9090909090909,4,2,1,80,0,0
72835,-90.9090909090909,4,2,7,80,0,0
72985,-90.9090909090909,4,2,1,80,0,0
73136,-90.9090909090909,4,2,7,80,0,0
73588,-90.9090909090909,4,2,1,80,0,0
73739,-90.9090909090909,4,2,3,80,0,0
73890,-90.9090909090909,4,2,1,80,0,0
74041,-90.9090909090909,4,2,7,80,0,0
74493,-90.9090909090909,4,2,1,80,0,0
74644,-90.9090909090909,4,2,7,80,0,0
75096,-90.9090909090909,4,2,1,80,0,0
75247,-90.9090909090909,4,2,7,80,0,0
75397,-90.9090909090909,4,2,1,80,0,0
75548,-90.9090909090909,4,2,7,80,0,0
76000,-90.9090909090909,4,2,1,80,0,0
76151,-90.9090909090909,4,2,3,80,0,0
76302,-90.9090909090909,4,2,1,80,0,0
76453,-90.9090909090909,4,2,7,80,0,0
76905,-90.9090909090909,4,2,1,80,0,0
77056,-90.9090909090909,4,2,8,80,0,0
77357,-166.666666666667,4,2,1,55,0,0
82181,-90.909090909091,4,2,5,80,0,0
82483,-90.909090909091,4,2,1,85,0,0
82784,-90.909090909091,4,2,2,85,0,0
83086,-90.909090909091,4,2,6,85,0,0
83387,-90.909090909091,4,2,2,85,0,0
83689,-90.909090909091,4,2,6,85,0,0
83990,-90.909090909091,4,2,2,85,0,0
84292,-90.909090909091,4,2,6,85,0,0
84593,-90.909090909091,4,2,5,85,0,0
84895,-90.909090909091,4,2,1,85,0,0
85196,-90.909090909091,4,2,2,85,0,0
85498,-90.909090909091,4,2,6,85,0,0
85799,-90.909090909091,4,2,2,85,0,0
86101,-90.909090909091,4,2,6,85,0,0
86402,-90.909090909091,4,2,2,85,0,0
86704,-90.909090909091,4,2,6,85,0,0
87005,-111.111111111111,4,2,1,80,0,0
87307,-111.111111111111,4,2,3,80,0,0
87458,-111.111111111111,4,2,1,80,0,0
87910,-111.111111111111,4,2,3,80,0,0
88061,-111.111111111111,4,2,1,80,0,0
88513,-111.111111111111,4,2,3,80,0,0
88664,-111.111111111111,4,2,1,80,0,0
89116,-111.111111111111,4,2,4,80,0,0
89417,-111.111111111111,4,2,1,80,0,0
89719,-111.111111111111,4,2,3,80,0,0
89870,-111.111111111111,4,2,1,80,0,0
90322,-111.111111111111,4,2,3,80,0,0
90473,-111.111111111111,4,2,1,80,0,0
90925,-111.111111111111,4,2,3,80,0,0
91076,-111.111111111111,4,2,1,80,0,0
91528,-111.111111111111,4,2,5,80,0,0
91830,-90.9090909090908,4,2,5,80,0,0
92131,-90.9090909090908,4,2,1,85,0,0
92433,-90.9090909090908,4,2,2,85,0,0
92734,-90.9090909090908,4,2,6,85,0,0
93036,-90.9090909090908,4,2,2,85,0,0
93337,-90.9090909090908,4,2,6,85,0,0
93639,-90.9090909090908,4,2,2,85,0,0
93940,-90.9090909090908,4,2,6,85,0,0
94242,-90.9090909090908,4,2,5,85,0,0
94543,-90.9090909090908,4,2,1,85,0,0
94845,-90.9090909090908,4,2,2,85,0,0
95146,-90.9090909090908,4,2,6,85,0,0
95448,-90.9090909090908,4,2,1,85,0,0
95749,-90.9090909090908,4,2,7,85,0,0
96051,-90.9090909090908,4,2,1,85,0,0
96352,-90.9090909090908,4,2,7,85,0,0
96654,-90.9090909090908,4,2,9,75,0,0
96804,-90.9090909090908,4,2,10,75,0,0
96955,-90.9090909090908,4,2,11,75,0,0
97106,-90.9090909090908,4,2,10,75,0,0
97257,-90.9090909090908,4,2,11,75,0,0
97407,-90.9090909090908,4,2,10,75,0,0
97558,-90.9090909090908,4,2,11,75,0,0
97709,-90.9090909090908,4,2,10,75,0,0
97860,-90.9090909090908,4,2,9,75,0,0
98010,-90.9090909090908,4,2,10,75,0,0
98161,-90.9090909090908,4,2,11,75,0,0
98312,-90.9090909090908,4,2,10,75,0,0
98463,-90.9090909090908,4,2,11,75,0,0
98613,-90.9090909090908,4,2,10,75,0,0
98764,-90.9090909090908,4,2,11,75,0,0
98915,-90.9090909090908,4,2,10,75,0,0
99066,-90.9090909090908,4,2,9,75,0,0
99216,-90.9090909090908,4,2,10,75,0,0
99367,-90.9090909090908,4,2,11,75,0,0
99518,-90.9090909090908,4,2,10,75,0,0
99669,-90.9090909090908,4,2,11,75,0,0
99819,-90.9090909090908,4,2,10,75,0,0
99970,-90.9090909090908,4,2,11,75,0,0
100121,-90.9090909090908,4,2,10,75,0,0
100272,-90.9090909090908,4,2,9,75,0,0
100423,-90.9090909090908,4,2,10,75,0,0
100573,-90.9090909090908,4,2,11,75,0,0
100724,-90.9090909090908,4,2,10,75,0,0
100875,-90.9090909090908,4,2,11,75,0,0
101026,-90.9090909090908,4,2,10,75,0,0
101176,-90.9090909090908,4,2,11,75,0,0
101327,-90.9090909090908,4,2,10,75,0,0
101478,-90.9090909090908,4,2,9,75,0,0
101629,-90.9090909090908,4,2,10,75,0,0
101779,-90.9090909090908,4,2,11,75,0,0
101930,-90.9090909090908,4,2,10,75,0,0
102081,-90.9090909090908,4,2,11,75,0,0
102232,-90.9090909090908,4,2,10,75,0,0
102382,-90.9090909090908,4,2,11,75,0,0
102533,-90.9090909090908,4,2,10,75,0,0
102684,-90.9090909090908,4,2,9,75,0,0
102835,-90.9090909090908,4,2,10,75,0,0
102985,-90.9090909090908,4,2,11,75,0,0
103136,-90.9090909090908,4,2,10,75,0,0
103287,-90.9090909090908,4,2,11,75,0,0
103438,-90.9090909090908,4,2,10,75,0,0
103588,-90.9090909090908,4,2,11,75,0,0
103739,-90.9090909090908,4,2,10,75,0,0
103890,-90.9090909090908,4,2,9,75,0,0
104041,-90.9090909090908,4,2,10,75,0,0
104191,-90.9090909090908,4,2,11,75,0,0
104342,-90.9090909090908,4,2,10,75,0,0
104493,-90.9090909090908,4,2,11,75,0,0
104644,-90.9090909090908,4,2,10,75,0,0
104794,-90.9090909090908,4,2,11,75,0,0
104945,-90.9090909090908,4,2,10,75,0,0
105096,-90.9090909090908,4,2,9,75,0,0
105247,-90.9090909090908,4,2,10,75,0,0
105397,-90.9090909090908,4,2,11,75,0,0
105548,-90.9090909090908,4,2,10,75,0,0
105699,-90.9090909090908,4,2,11,75,0,0
105850,-90.9090909090908,4,2,10,75,0,0
106000,-90.9090909090908,4,2,12,75,0,0
106302,-83.3333333333333,4,2,4,90,0,1
106603,-83.3333333333333,4,2,6,90,0,1
106905,-83.3333333333333,4,2,5,90,0,0
107056,-83.3333333333333,4,2,6,90,0,0
107206,-83.3333333333333,4,2,8,90,0,0
107357,-83.3333333333333,4,2,1,90,0,0
107508,-83.3333333333333,4,2,5,90,0,0
107809,-83.3333333333333,4,2,6,90,0,0
108111,-83.3333333333333,4,2,3,90,0,0
108262,-83.3333333333333,4,2,6,90,0,0
108412,-83.3333333333333,4,2,13,90,0,0
108714,-83.3333333333333,4,2,4,90,0,0
109015,-83.3333333333333,4,2,6,90,0,0
109317,-83.3333333333333,4,2,5,90,0,0
109468,-83.3333333333333,4,2,6,90,0,0
109618,-83.3333333333333,4,2,7,90,0,0
109769,-83.3333333333333,4,2,1,90,0,0
109920,-83.3333333333333,4,2,3,90,0,0
110222,-83.3333333333333,4,2,7,90,0,0
110674,-83.3333333333333,4,2,6,90,0,0
110825,-83.3333333333333,4,2,7,90,0,0
111126,-83.3333333333333,4,2,4,90,0,0
111428,-83.3333333333333,4,2,6,90,0,0
111729,-83.3333333333333,4,2,5,90,0,0
111880,-83.3333333333333,4,2,6,90,0,0
112031,-83.3333333333333,4,2,8,90,0,0
112181,-83.3333333333333,4,2,1,90,0,0
112332,-83.3333333333333,4,2,3,90,0,0
112634,-83.3333333333333,4,2,7,90,0,0
113086,-83.3333333333333,4,2,6,90,0,0
113237,-83.3333333333333,4,2,13,90,0,0
113538,-83.3333333333333,4,2,4,90,0,0
113840,-83.3333333333333,4,2,6,90,0,0
114141,-83.3333333333333,4,2,5,90,0,0
114292,-83.3333333333333,4,2,6,90,0,0
114443,-83.3333333333333,4,2,7,90,0,0
114593,-83.3333333333333,4,2,1,90,0,0
114744,-83.3333333333333,4,2,3,90,0,0
115046,-83.3333333333333,4,2,7,90,0,0
115498,-83.3333333333333,4,2,6,90,0,0
115649,-83.3333333333333,4,2,7,90,0,0
115950,-83.3333333333333,4,2,4,90,0,0
116252,-83.3333333333333,4,2,6,90,0,0
116553,-83.3333333333333,4,2,3,90,0,0
116704,-83.3333333333333,4,2,6,90,0,0
116855,-83.3333333333333,4,2,7,90,0,0
117156,-83.3333333333333,4,2,3,90,0,0
117458,-83.3333333333333,4,2,6,90,0,0
117759,-83.3333333333333,4,2,3,90,0,0
117910,-83.3333333333333,4,2,6,90,0,0
118061,-83.3333333333333,4,2,7,90,0,0
118362,-83.3333333333333,4,2,4,90,0,0
118664,-83.3333333333333,4,2,7,90,0,0
120021,-83.3333333333333,4,2,1,90,0,0
120171,-83.3333333333333,4,2,3,90,0,0
120473,-83.3333333333333,4,2,7,90,0,0
120624,-83.3333333333333,4,2,1,90,0,0
120774,-83.3333333333333,4,2,4,90,0,0
121076,-83.3333333333333,4,2,7,90,0,0
121227,-83.3333333333333,4,2,1,90,0,0
121377,-83.3333333333333,4,2,7,90,0,0
121779,-83.3333333333333,4,2,1,90,0,0
121980,-83.3333333333333,4,2,3,90,0,0
122282,-83.3333333333333,4,2,7,90,0,0
122382,-83.3333333333333,4,2,1,90,0,0
122583,-83.3333333333333,4,2,4,90,0,0
122885,-83.3333333333333,4,2,7,90,0,0
122985,-83.3333333333333,4,2,1,90,0,0
123186,-83.3333333333333,4,2,3,90,0,0
123488,-83.3333333333333,4,2,7,90,0,0
124392,-83.3333333333333,4,2,4,90,0,0
124694,-83.3333333333333,4,2,7,90,0,0
124995,-83.3333333333333,4,2,3,90,0,0
125297,-83.3333333333333,4,2,14,90,0,0
125598,-100,4,2,2,80,0,0
125749,-100,4,2,1,80,0,0
125900,-100,4,2,4,80,0,0
126804,-100,4,2,8,80,0,0
127106,-100,4,2,4,80,0,0
128010,-100,4,2,9,80,0,0
128312,-100,4,2,4,80,0,0
129216,-100,4,2,2,80,0,0
129518,-100,4,2,4,80,0,0
130423,-100,4,2,8,80,0,0
130573,-100,4,2,1,80,0,0
130724,-100,4,2,4,80,0,0
131629,-100,4,2,2,80,0,0
131930,-100,4,2,4,80,0,0
132835,-100,4,2,9,80,0,0
133136,-100,4,2,4,80,0,0
134041,-100,4,2,8,80,0,0
134342,-100,4,2,4,80,0,0
135247,-100,4,2,15,75,0,0
135397,-100,4,2,10,75,0,0
135548,-100,4,2,15,75,0,0
135699,-100,4,2,10,75,0,0
135850,-100,4,2,15,75,0,0
136000,-100,4,2,10,75,0,0
136151,-100,4,2,15,75,0,0
136302,-100,4,2,10,75,0,0
136453,-100,4,2,15,75,0,0
136603,-100,4,2,10,75,0,0
136754,-100,4,2,15,75,0,0
136905,-100,4,2,10,75,0,0
137056,-100,4,2,15,75,0,0
137206,-100,4,2,10,75,0,0
137357,-100,4,2,15,75,0,0
137508,-100,4,2,10,75,0,0
137659,-100,4,2,15,75,0,0
137809,-100,4,2,10,75,0,0
137960,-100,4,2,15,75,0,0
138111,-100,4,2,10,75,0,0
138262,-100,4,2,15,75,0,0
138412,-100,4,2,10,75,0,0
138563,-100,4,2,12,75,0,0
138714,-166.666666666667,4,2,12,75,0,0
138865,-166.666666666667,4,2,1,55,0,0
140071,-90.9090909090909,4,2,3,80,0,1
140146,-90.9090909090909,4,2,3,80,0,0
140222,-90.9090909090909,4,2,1,80,0,0
140372,-90.9090909090909,4,2,7,80,0,0
141126,-90.9090909090909,4,2,1,80,0,0
141277,-90.9090909090909,4,2,7,80,0,0
142031,-90.9090909090909,4,2,1,80,0,0
142181,-90.9090909090909,4,2,7,80,0,0
142634,-90.9090909090909,4,2,1,80,0,0
142784,-90.9090909090909,4,2,7,80,0,0
143538,-90.9090909090909,4,2,1,80,0,0
143689,-90.9090909090909,4,2,7,80,0,0
144443,-90.9090909090909,4,2,1,80,0,0
144593,-76.9230769230769,4,2,8,80,0,0
144895,-76.9230769230769,4,2,3,80,0,0
145046,-76.9230769230769,4,2,1,80,0,0
145196,-76.9230769230769,4,2,7,80,0,0
145347,-76.9230769230769,4,2,1,80,0,0
145498,-76.9230769230769,4,2,7,80,0,0
145950,-76.9230769230769,4,2,1,80,0,0
146101,-76.9230769230769,4,2,3,80,0,0
146252,-76.9230769230769,4,2,1,80,0,0
146402,-76.9230769230769,4,2,7,80,0,0
146855,-76.9230769230769,4,2,1,80,0,0
147005,-76.9230769230769,4,2,7,80,0,0
147458,-76.9230769230769,4,2,1,80,0,0
147608,-76.9230769230769,4,2,7,80,0,0
147759,-76.9230769230769,4,2,1,80,0,0
147910,-76.9230769230769,4,2,7,80,0,0
148362,-76.9230769230769,4,2,1,80,0,0
148513,-76.9230769230769,4,2,3,80,0,0
148664,-76.9230769230769,4,2,1,80,0,0
148814,-76.9230769230769,4,2,7,80,0,0
149267,-76.9230769230769,4,2,1,80,0,0
149417,-76.9230769230769,4,2,8,80,0,0
149719,-76.9230769230769,4,2,4,80,0,0
149870,-76.9230769230769,4,2,1,80,0,0
150021,-76.9230769230769,4,2,7,80,0,0
150774,-76.9230769230769,4,2,1,80,0,0
150925,-76.9230769230769,4,2,7,80,0,0
151679,-76.9230769230769,4,2,1,80,0,0
151830,-76.9230769230769,4,2,7,80,0,0
152282,-76.9230769230769,4,2,1,80,0,0
152433,-76.9230769230769,4,2,7,80,0,0
153186,-76.9230769230769,4,2,1,80,0,0
153337,-76.9230769230769,4,2,7,80,0,0
154091,-76.9230769230769,4,2,1,80,0,0
154242,-76.9230769230769,4,2,8,80,0,0
154543,-90.9090909090909,4,2,3,80,0,0
154694,-90.9090909090909,4,2,1,80,0,0
154845,-90.9090909090909,4,2,7,80,0,0
154995,-90.9090909090909,4,2,1,80,0,0
155146,-90.9090909090909,4,2,7,80,0,0
155598,-90.9090909090909,4,2,1,80,0,0
155749,-90.9090909090909,4,2,3,80,0,0
155900,-90.9090909090909,4,2,1,80,0,0
156051,-90.9090909090909,4,2,7,80,0,0
156503,-90.9090909090909,4,2,1,80,0,0
156654,-90.9090909090909,4,2,7,80,0,0
157106,-90.9090909090909,4,2,1,80,0,0
157257,-90.9090909090909,4,2,7,80,0,0
157407,-90.9090909090909,4,2,1,80,0,0
157558,-90.9090909090909,4,2,7,80,0,0
158010,-90.9090909090909,4,2,1,80,0,0
158161,-90.9090909090909,4,2,3,80,0,0
158312,-90.9090909090909,4,2,1,80,0,0
158463,-90.9090909090909,4,2,7,80,0,0
158915,-90.9090909090909,4,2,1,80,0,0
159066,-90.9090909090909,4,2,8,80,0,0
159367,-166.666666666667,4,2,10,60,0,0
159669,-166.666666666667,4,2,1,60,0,0
159970,-166.666666666667,4,2,10,60,0,0
160272,-166.666666666667,4,2,1,60,0,0
160573,-166.666666666667,4,2,10,60,0,0
160875,-166.666666666667,4,2,1,60,0,0
161176,-166.666666666667,4,2,10,60,0,0
161478,-166.666666666667,4,2,1,60,0,0
161779,-166.666666666667,4,2,10,60,0,0
162081,-166.666666666667,4,2,1,60,0,0
162382,-166.666666666667,4,2,10,60,0,0
162684,-166.666666666667,4,2,1,60,0,0
162985,-166.666666666667,4,2,10,60,0,0
163287,-166.666666666667,4,2,1,60,0,0
163588,-166.666666666667,4,2,10,60,0,0
163890,-166.666666666667,4,2,1,60,0,0
164191,-90.909090909091,4,2,5,80,0,0
164493,-90.909090909091,4,2,1,85,0,0
164794,-90.909090909091,4,2,2,85,0,0
165096,-90.909090909091,4,2,6,85,0,0
165397,-90.909090909091,4,2,2,85,0,0
165699,-90.909090909091,4,2,6,85,0,0
166000,-90.909090909091,4,2,2,85,0,0
166302,-90.909090909091,4,2,6,85,0,0
166603,-90.909090909091,4,2,5,85,0,0
166905,-90.909090909091,4,2,1,85,0,0
167206,-90.909090909091,4,2,2,85,0,0
167508,-90.909090909091,4,2,6,85,0,0
167809,-90.909090909091,4,2,2,85,0,0
168111,-90.909090909091,4,2,6,85,0,0
168412,-90.909090909091,4,2,2,85,0,0
168714,-90.909090909091,4,2,6,85,0,0
168865,-90.909090909091,4,2,1,85,0,0
169015,-111.111111111111,4,2,1,80,0,0
169317,-111.111111111111,4,2,3,80,0,0
169468,-111.111111111111,4,2,1,80,0,0
169920,-111.111111111111,4,2,3,80,0,0
170071,-111.111111111111,4,2,1,80,0,0
170523,-111.111111111111,4,2,3,80,0,0
170674,-111.111111111111,4,2,1,80,0,0
171126,-111.111111111111,4,2,4,80,0,0
171277,-111.111111111111,4,2,1,80,0,0
171729,-111.111111111111,4,2,3,80,0,0
171880,-111.111111111111,4,2,1,80,0,0
172332,-111.111111111111,4,2,3,80,0,0
172483,-111.111111111111,4,2,1,80,0,0
172935,-111.111111111111,4,2,3,80,0,0
173086,-111.111111111111,4,2,1,80,0,0
173538,-111.111111111111,4,2,5,80,0,0
173840,-90.9090909090908,4,2,5,85,0,0
174141,-90.9090909090908,4,2,1,85,0,0
174443,-90.9090909090908,4,2,2,85,0,0
174744,-90.9090909090908,4,2,6,85,0,0
175046,-90.9090909090908,4,2,2,85,0,0
175347,-90.9090909090908,4,2,6,85,0,0
175649,-90.9090909090908,4,2,2,85,0,0
175950,-90.9090909090908,4,2,6,85,0,0
176252,-90.9090909090908,4,2,5,85,0,0
176553,-90.9090909090908,4,2,1,85,0,0
176855,-90.9090909090908,4,2,2,85,0,0
177156,-90.9090909090908,4,2,6,85,0,0
177458,-90.9090909090908,4,2,1,85,0,0
177759,-90.9090909090908,4,2,7,85,0,0
178061,-90.9090909090908,4,2,1,85,0,0
178362,-90.9090909090908,4,2,8,85,0,0
178664,-100,4,2,2,80,0,0
178814,-100,4,2,1,80,0,0
178965,-100,4,2,4,80,0,0
179870,-100,4,2,8,80,0,0
180171,-100,4,2,4,80,0,0
181076,-100,4,2,9,80,0,0
181377,-100,4,2,4,80,0,0
182282,-100,4,2,2,80,0,0
182583,-100,4,2,4,80,0,0
183488,-100,4,2,8,80,0,0
183639,-100,4,2,1,80,0,0
183789,-100,4,2,4,80,0,0
184694,-100,4,2,2,80,0,0
184995,-100,4,2,4,80,0,0
185900,-100,4,2,9,80,0,0
186201,-100,4,2,4,80,0,0
187106,-100,4,2,8,80,0,0
187407,-100,4,2,4,80,0,0
188312,-90.9090909090909,4,2,2,85,0,0
188463,-90.9090909090909,4,2,1,85,0,0
188613,-90.9090909090909,4,2,4,85,0,0
189518,-90.9090909090909,4,2,8,85,0,0
189819,-90.9090909090909,4,2,4,85,0,0
190724,-90.9090909090909,4,2,9,85,0,0
191026,-90.9090909090909,4,2,4,85,0,0
191930,-90.9090909090909,4,2,2,85,0,0
192232,-90.9090909090909,4,2,4,85,0,0
193136,-90.9090909090909,4,2,8,85,0,0
193287,-90.9090909090909,4,2,1,85,0,0
193438,-90.9090909090909,4,2,4,85,0,0
194342,-90.9090909090909,4,2,2,85,0,0
194644,-90.9090909090909,4,2,4,85,0,0
195548,-90.9090909090909,4,2,9,85,0,0
195850,-90.9090909090909,4,2,4,85,0,0
196754,-90.9090909090909,4,2,8,85,0,0
197056,-90.9090909090909,4,2,4,85,0,0
197960,-90.9090909090909,4,2,15,75,0,0
198111,-90.9090909090909,4,2,10,75,0,0
198262,-90.9090909090909,4,2,15,75,0,0
198412,-90.9090909090909,4,2,10,75,0,0
198563,-90.9090909090909,4,2,15,75,0,0
198714,-90.9090909090909,4,2,10,75,0,0
198865,-90.9090909090909,4,2,15,75,0,0
199015,-90.9090909090909,4,2,10,75,0,0
199166,-90.9090909090909,4,2,15,75,0,0
199317,-90.9090909090909,4,2,10,75,0,0
199468,-90.9090909090909,4,2,15,75,0,0
199618,-90.9090909090909,4,2,10,75,0,0
199769,-90.9090909090909,4,2,15,75,0,0
199920,-90.9090909090909,4,2,10,75,0,0
200071,-90.9090909090909,4,2,15,75,0,0
200222,-90.9090909090909,4,2,10,75,0,0
200372,-90.9090909090909,4,2,15,75,0,0
200523,-90.9090909090909,4,2,10,75,0,0
200674,-90.9090909090909,4,2,15,75,0,0
200825,-90.9090909090909,4,2,10,75,0,0
200975,-90.9090909090909,4,2,15,75,0,0
201126,-90.9090909090909,4,2,10,75,0,0
201277,-90.9090909090909,4,2,12,75,0,0
201578,-133.333333333333,4,2,1,55,0,0
202332,-133.333333333333,4,2,1,65,0,0
202407,-66.6666666666667,4,2,1,65,0,0

[Colours]
Combo1 : 250,180,240
Combo2 : 120,200,230
Combo3 : 255,230,130
Combo4 : 160,230,150

[HitObjects]
21,78,9820,6,0,L|36:191,1,97.50000371933,6|8,2:3|2:2,0:0:0:0:
121,270,10423,2,0,L|113:337,2,48.750001859665,6|0|8,2:3|0:0|2:2,0:0:0:0:
190,214,10875,1,0,0:0:0:0:
190,214,11026,6,0,L|300:227,1,97.50000371933,6|8,2:3|2:2,0:0:0:0:
437,280,11629,2,0,L|430:215,1,48.750001859665,6|0,2:3|0:0,0:0:0:0:
486,157,11930,2,0,L|489:91,1,48.750001859665,8|0,2:2|0:0,0:0:0:0:
439,36,12232,6,0,L|327:46,1,97.50000371933,6|8,2:3|2:2,0:0:0:0:
218,26,12835,1,6,2:3:0:0:
218,26,12985,2,0,L|226:87,1,48.750001859665,0|8,0:0|2:2,0:0:0:0:
249,179,13287,1,0,0:0:0:0:
249,179,13438,6,0,L|241:285,1,97.50000371933,6|8,2:3|2:2,0:0:0:0:
129,337,14041,1,6,2:3:0:0:
129,337,14191,1,0,0:0:0:0:
58,282,14342,2,0,L|43:217,1,48.750001859665,10|2,2:2|2:2,0:0:0:0:
23,152,14644,6,0,L|134:171,1,97.50000371933,6|8,2:3|2:2,0:0:0:0:
213,81,15247,2,0,L|206:10,2,48.750001859665,6|0|8,2:3|0:0|2:2,0:0:0:0:
252,154,15699,1,0,0:0:0:0:
252,154,15850,6,0,L|261:271,1,97.50000371933,6|8,2:3|2:2,0:0:0:0:
358,336,16453,2,0,L|371:270,1,48.750001859665,6|0,2:3|0:0,0:0:0:0:
459,258,16754,2,0,L|442:194,1,48.750001859665,8|0,2:2|0:0,0:0:0:0:
497,137,17056,6,0,L|472:26,1,97.50000371933,6|8,2:3|2:2,0:0:0:0:
353,12,17659,1,6,2:3:0:0:
353,12,17809,2,0,L|287:3,2,48.750001859665,0|8|0,0:0|2:2|0:0,0:0:0:0:
256,192,18262,12,0,19166,0:0:0:0:
255,383,19468,6,0,P|262:318|237:235,1,130,6|10,2:3|2:2,0:0:0:0:
56,194,20071,2,0,L|68:112,1,65,6|0,2:3|0:0,0:0:0:0:
55,44,20372,1,10,2:2:0:0:
55,44,20523,1,2,2:2:0:0:
136,79,20674,6,0,P|189:81|225:66,1,65,6|0,2:3|0:0,0:0:0:0:
256,12,20975,1,10,2:2:0:0:
424,68,21277,1,6,2:3:0:0:
424,68,21428,1,2,2:2:0:0:
473,139,21578,2,0,L|487:223,1,65,10|0,2:2|0:0,0:0:0:0:
484,295,21880,6,0,P|405:283|346:296,1,130,6|10,2:3|2:2,0:0:0:0:
186,330,22483,1,6,2:3:0:0:
255,176,22784,1,10,2:2:0:0:
255,176,22935,1,2,2:2:0:0:
229,91,23086,6,0,P|198:97|171:113,1,65,6|0,2:3|0:0,0:0:0:0:
95,67,23387,2,0,P|76:110|79:147,1,65,10|0,2:2|0:0,0:0:0:0:
50,217,23689,1,6,2:3:0:0:
50,217,23840,1,2,2:2:0:0:
70,300,23990,2,0,P|108:323|148:328,1,65,10|0,2:2|0:0,0:0:0:0:
227,299,24292,6,0,L|217:217,1,65,6|2,2:3|2:2,0:0:0:0:
329,344,24593,2,0,L|341:257,1,65,10|2,2:2|2:2,0:0:0:0:
422,194,24895,1,6,2:3:0:0:
290,86,25196,6,0,L|300:168,1,65,10|2,2:2|2:2,0:0:0:0:
209,40,25497,2,0,L|197:127,1,65,6|2,2:3|2:2,0:0:0:0:
108,174,25799,1,10,2:2:0:0:
269,251,26101,5,6,2:3:0:0:
269,251,26252,1,2,2:2:0:0:
350,216,26402,1,10,2:2:0:0:
275,92,26704,6,0,L|285:174,1,65,6|2,2:3|2:2,0:0:0:0:
165,44,27005,2,0,L|153:131,1,65,10|2,2:2|2:2,0:0:0:0:
78,187,27307,1,6,2:3:0:0:
222,298,27608,6,0,L|212:216,1,65,10|2,2:2|2:2,0:0:0:0:
332,346,27909,2,0,L|344:259,1,65,6|2,2:3|2:2,0:0:0:0:
419,203,28211,1,10,2:2:0:0:
471,41,28513,5,6,2:3:0:0:
471,41,28664,1,2,2:2:0:0:
375,75,28814,1,10,2:2:0:0:
331,250,29116,6,0,P|317:204|238:139,1,130,6|10,2:3|2:2,0:0:0:0:
156,16,29719,2,0,P|113:19|72:41,1,65,6|0,2:3|0:0,0:0:0:0:
34,88,30021,1,10,2:2:0:0:
34,88,30171,1,2,2:2:0:0:
33,175,30322,6,0,P|31:219|45:258,1,65,6|0,2:3|0:0,0:0:0:0:
81,314,30624,1,10,2:2:0:0:
254,285,30925,1,6,2:3:0:0:
254,285,31076,1,2,2:2:0:0:
319,342,31227,2,0,L|402:328,1,65,10|0,2:2|0:0,0:0:0:0:
448,275,31528,6,0,P|451:203|416:135,1,130,6|10,2:3|2:2,0:0:0:0:
298,38,32131,2,0,P|275:82|270:128,1,65,6|0,2:3|0:0,0:0:0:0:
294,185,32433,1,10,2:2:0:0:
294,185,32583,1,2,2:2:0:0:
312,273,32734,6,0,P|265:239|167:239,1,130,6|10,2:3|2:2,0:0:0:0:
72,352,33337,1,6,2:3:0:0:
72,352,33488,1,2,2:2:0:0:
0,303,33639,1,10,2:2:0:0:
89,186,33940,6,0,L|180:179,1,65,6|2,2:3|2:2,0:0:0:0:
143,52,34242,2,0,L|234:59,1,65,10|2,2:2|2:2,0:0:0:0:
272,163,34543,1,6,2:3:0:0:
455,186,34845,6,0,L|364:179,1,65,10|2,2:2|2:2,0:0:0:0:
401,52,35147,2,0,L|310:59,1,65,6|2,2:3|2:2,0:0:0:0:
272,163,35448,1,10,2:2:0:0:
206,373,35749,6,0,L|199:294,1,65,6|2,2:3|2:2,0:0:0:0:
336,344,36051,1,10,2:2:0:0:
455,186,36352,6,0,L|364:179,1,65,6|2,2:3|2:2,0:0:0:0:
401,52,36654,2,0,L|310:59,1,65,10|2,2:2|2:2,0:0:0:0:
272,163,36955,1,6,2:3:0:0:
89,186,37257,6,0,L|180:179,1,65,10|2,2:2|2:2,0:0:0:0:
143,52,37559,2,0,L|234:59,1,65,6|2,2:3|2:2,0:0:0:0:
272,163,37860,1,10,2:2:0:0:
336,344,38161,6,0,L|344:265,1,65,6|2,2:3|2:2,0:0:0:0:
206,373,38463,2,0,L|199:294,1,65,10|0,2:2|0:0,0:0:0:0:
95,275,38764,6,0,P|97:203|78:134,1,116.999996429443,14|10,2:1|2:2,0:0:0:0:
37,65,39216,1,2,2:2:0:0:
127,100,39367,2,0,P|151:173|157:237,1,116.999996429443,10|10,2:1|2:2,0:0:0:0:
242,344,39970,6,0,P|242:278|256:212,1,116.999996429443,10|10,2:1|2:2,0:0:0:0:
367,145,40573,1,10,2:1:0:0:
367,145,40724,1,2,2:2:0:0:
388,62,40875,1,10,2:2:0:0:
221,25,41176,6,0,P|158:26|92:58,1,116.999996429443,10|10,2:1|2:2,0:0:0:0:
44,156,41629,1,2,2:2:0:0:
117,98,41779,2,0,P|188:75|246:88,1,116.999996429443,10|10,2:1|2:2,0:0:0:0:
455,206,42382,6,0,P|373:191|319:202,1,116.999996429443,10|10,2:1|2:2,0:0:0:0:
218,291,42985,1,10,2:1:0:0:
218,291,43136,1,2,2:2:0:0:
151,352,43287,1,10,2:2:0:0:
142,191,43588,5,14,2:3:0:0:
241,373,43890,6,0,L|334:386,1,71.5000021820069,14|0,2:2|0:0,0:0:0:0:
352,310,44191,2,0,L|435:322,1,71.5000021820069,10|0,2:1|0:0,0:0:0:0:
475,221,44493,6,0,L|393:232,1,71.5000021820069,10|0,2:2|0:0,0:0:0:0:
332,173,44794,2,0,L|250:185,1,71.5000021820069,10|0,2:1|0:0,0:0:0:0:
234,266,45096,6,0,L|156:255,1,71.5000021820069,10|0,2:2|0:0,0:0:0:0:
98,317,45397,2,0,L|16:306,1,71.5000021820069,10|0,2:1|0:0,0:0:0:0:
9,213,45699,2,0,L|93:203,1,71.5000021820069,10|0,2:2|0:0,0:0:0:0:
107,114,46000,5,14,2:3:0:0:
237,15,46302,6,0,L|330:2,1,71.5000021820069,14|0,2:2|0:0,0:0:0:0:
385,63,46603,2,0,L|478:50,1,71.5000021820069,10|0,2:1|0:0,0:0:0:0:
475,163,46905,6,0,L|382:150,1,71.5000021820069,10|0,2:2|0:0,0:0:0:0:
327,211,47206,2,0,L|234:198,1,71.5000021820069,10|0,2:1|0:0,0:0:0:0:
234,113,47508,6,0,L|146:125,1,71.5000021820069,10|0,2:2|0:0,0:0:0:0:
93,67,47809,2,0,L|6:80,1,71.5000021820069,10|0,2:1|0:0,0:0:0:0:
8,182,48111,1,14,2:2:0:0:
25,267,48261,1,10,2:2:0:0:
47,355,48412,6,0,P|104:341|160:285,1,116.999996429443,14|10,2:1|2:2,0:0:0:0:
163,216,48865,1,2,2:2:0:0:
174,126,49015,2,0,P|221:73|290:53,1,116.999996429443,10|10,2:1|2:2,0:0:0:0:
375,50,49468,1,2,2:2:0:0:
294,89,49618,2,0,P|237:108|190:174,1,116.999996429443,10|10,2:1|2:2,0:0:0:0:
232,307,50222,5,10,2:1:0:0:
232,307,50372,1,2,2:2:0:0:
296,350,50523,1,10,2:2:0:0:
461,269,50825,6,0,P|426:232|361:213,1,116.999996429443,10|10,2:1|2:2,0:0:0:0:
286,215,51277,1,2,2:2:0:0:
201,225,51428,2,0,P|130:220|74:177,1,116.999996429443,10|10,2:1|2:2,0:0:0:0:
45,82,51880,1,2,2:2:0:0:
112,147,52031,2,0,P|166:173|227:169,1,116.999996429443,10|10,2:1|2:2,0:0:0:0:
323,24,52634,5,10,2:1:0:0:
323,24,52784,1,2,2:2:0:0:
388,67,52935,1,10,2:2:0:0:
393,233,53237,5,14,2:3:0:0:
466,360,53538,6,0,L|372:380,1,71.5000021820069,14|0,2:2|0:0,0:0:0:0:
292,342,53840,2,0,L|272:248,1,71.5000021820069,10|0,2:1|0:0,0:0:0:0:
317,170,54141,6,0,L|298:83,1,71.5000021820069,10|0,2:2|0:0,0:0:0:0:
210,47,54443,2,0,L|123:65,1,71.5000021820069,10|0,2:1|0:0,0:0:0:0:
85,152,54744,6,0,L|57:235,1,71.5000021820069,10|0,2:2|0:0,0:0:0:0:
116,299,55046,2,0,L|202:280,1,71.5000021820069,10|0,2:1|0:0,0:0:0:0:
227,198,55347,2,0,L|168:132,1,71.5000021820069,10|0,2:2|0:0,0:0:0:0:
123,65,55649,5,14,2:3:0:0:
298,83,55950,6,0,L|317:170,1,71.5000021820069,14|0,2:2|0:0,0:0:0:0:
273,255,56251,2,0,L|292:342,1,71.5000021820069,10|0,2:1|0:0,0:0:0:0:
379,378,56553,2,0,L|466:360,1,71.5000021820069,10|0,2:2|0:0,0:0:0:0:
487,275,56855,5,10,2:1:0:0:
461,91,57156,5,10,2:2:0:0:
277,117,57458,5,10,2:1:0:0:
303,301,57759,5,14,2:2:0:0:
387,193,58061,5,14,2:1:0:0:
387,193,62583,6,0,L|196:222,1,168.999992263794,14|14,2:2|2:1,0:0:0:0:
219,218,67407,6,0,L|425:187,1,168.999992263794,14|14,2:2|2:1,0:0:0:0:
387,193,72232,6,0,L|196:222,1,168.999992263794,14|14,2:2|2:1,0:0:0:0:
65,301,77357,6,0,P|47:258|41:210,1,77.999997619629,2|0,2:2|0:0,0:0:0:0:
68,126,77809,1,2,2:2:0:0:
92,214,77960,2,0,P|101:259|122:300,1,77.999997619629,2|0,2:2|0:0,0:0:0:0:
259,367,78563,6,0,P|255:321|237:278,1,77.999997619629,2|0,2:2|0:0,0:0:0:0:
248,183,79166,1,2,2:2:0:0:
248,183,79317,1,2,2:2:0:0:
263,144,79468,1,2,2:2:0:0:
372,17,79769,6,0,P|417:31|452:63,1,77.999997619629,2|0,2:2|0:0,0:0:0:0:
474,125,80222,1,2,2:2:0:0:
479,198,80372,2,0,P|473:244|454:283,1,77.999997619629,2|0,2:2|0:0,0:0:0:0:
406,331,80825,1,2,2:2:0:0:
417,257,80975,2,0,P|441:204|440:171,1,77.999997619629,2|0,2:2|0:0,0:0:0:0:
309,77,81578,5,2,2:2:0:0:
309,77,81729,1,2,2:2:0:0:
259,86,81880,1,2,2:2:0:0:
71,35,82181,5,14,2:3:0:0:
16,146,82483,6,0,L|4:238,1,71.5000021820069,14|0,2:2|0:0,0:0:0:0:
81,263,82784,2,0,L|69:355,1,71.5000021820069,10|0,2:1|0:0,0:0:0:0:
181,271,83086,6,0,L|169:179,1,71.5000021820069,10|0,2:2|0:0,0:0:0:0:
246,154,83387,2,0,L|234:62,1,71.5000021820069,10|0,2:1|0:0,0:0:0:0:
337,10,83689,6,0,L|325:102,1,71.5000021820069,10|0,2:2|0:0,0:0:0:0:
402,127,83990,2,0,L|390:219,1,71.5000021820069,10|0,2:1|0:0,0:0:0:0:
467,244,84292,2,0,L|455:336,1,71.5000021820069,10|0,2:2|0:0,0:0:0:0:
349,357,84593,5,14,2:3:0:0:
467,244,84895,6,0,L|479:152,1,71.5000021820069,14|0,2:2|0:0,0:0:0:0:
402,127,85196,2,0,L|414:35,1,71.5000021820069,10|0,2:1|0:0,0:0:0:0:
302,119,85498,6,0,L|314:211,1,71.5000021820069,10|0,2:2|0:0,0:0:0:0:
237,236,85799,2,0,L|249:328,1,71.5000021820069,10|0,2:1|0:0,0:0:0:0:
146,380,86101,6,0,L|158:288,1,71.5000021820069,10|0,2:2|0:0,0:0:0:0:
81,263,86402,2,0,L|93:171,1,71.5000021820069,10|0,2:1|0:0,0:0:0:0:
16,146,86704,1,10,2:2:0:0:
27,58,86854,1,8,2:2:0:0:
107,7,87005,6,0,P|176:11|226:58,1,116.999996429443,14|10,2:1|2:2,0:0:0:0:
240,119,87458,1,2,2:2:0:0:
273,201,87608,2,0,P|324:249|394:254,1,116.999996429443,10|10,2:1|2:2,0:0:0:0:
471,248,88061,1,2,2:2:0:0:
382,210,88211,2,0,P|323:187|306:127,1,116.999996429443,10|10,2:1|2:2,0:0:0:0:
395,14,88814,5,10,2:1:0:0:
395,14,88965,1,2,2:2:0:0:
449,70,89116,1,10,2:2:0:0:
470,224,89417,6,0,P|449:281|382:323,1,116.999996429443,10|10,2:1|2:2,0:0:0:0:
330,335,89870,1,2,2:2:0:0:
249,325,90021,2,0,P|210:309|168:224,1,116.999996429443,10|10,2:1|2:2,0:0:0:0:
151,155,90473,1,2,2:2:0:0:
208,222,90624,2,0,P|241:269|317:292,1,116.999996429443,10|10,2:1|2:2,0:0:0:0:
376,160,91227,5,10,2:1:0:0:
376,160,91377,1,2,2:2:0:0:
324,93,91528,1,10,2:2:0:0:
145,26,91830,5,14,2:3:0:0:
36,128,92131,6,0,L|132:149,1,71.5000021820069,14|0,2:2|0:0,0:0:0:0:
160,252,92433,2,0,L|74:233,1,71.5000021820069,10|0,2:1|0:0,0:0:0:0:
11,323,92734,6,0,L|107:344,1,71.5000021820069,10|0,2:2|0:0,0:0:0:0:
160,252,93036,2,0,L|245:270,1,71.5000021820069,10|0,2:1|0:0,0:0:0:0:
297,360,93337,6,0,L|389:336,1,71.5000021820069,10|0,2:2|0:0,0:0:0:0:
426,235,93639,2,0,L|340:257,1,71.5000021820069,10|0,2:1|0:0,0:0:0:0:
270,173,93940,2,0,L|355:150,1,71.5000021820069,10|0,2:2|0:0,0:0:0:0:
458,108,94242,5,14,2:3:0:0:
426,235,94543,2,0,L|340:257,1,71.5000021820069,14|0,2:2|0:0,0:0:0:0:
366,341,94845,2,0,L|281:364,1,71.5000021820069,10|0,2:1|0:0,0:0:0:0:
245,270,95146,2,0,L|160:252,1,71.5000021820069,10|0,2:2|0:0,0:0:0:0:
59,222,95448,5,10,2:1:0:0:
14,58,95749,5,10,2:2:0:0:
178,13,96051,5,10,2:1:0:0:
223,177,96352,5,14,2:2:0:0:
119,121,96654,5,14,2:2:0:0:
119,121,96804,2,0,L|207:93,1,71.5000021820069,10|10,2:2|2:2,0:0:0:0:
271,17,97106,1,8,2:2:0:0:
271,17,97256,2,0,L|359:45,1,71.5000021820069,10|8,2:2|2:2,0:0:0:0:
473,63,97558,2,0,L|497:229,1,143.000004364014,10|10,2:2|2:2,0:0:0:0:
444,296,98010,5,8,2:2:0:0:
444,296,98161,2,0,L|363:241,1,71.5000021820069,10|8,2:2|2:2,0:0:0:0:
271,305,98463,2,0,L|260:206,1,71.5000021820069,10|8,2:2|2:2,0:0:0:0:
139,232,98764,2,0,L|162:136,1,71.5000021820069,10|8,2:2|2:2,0:0:0:0:
151,81,99066,5,10,2:2:0:0:
151,81,99216,1,8,2:2:0:0:
151,81,99367,2,0,L|130:166,1,71.5000021820069,10|8,2:2|2:2,0:0:0:0:
268,148,99669,2,0,L|277:235,1,71.5000021820069,10|8,2:2|2:2,0:0:0:0:
397,209,99970,2,0,L|469:258,1,71.5000021820069,10|8,2:2|2:2,0:0:0:0:
489,370,100272,5,10,2:2:0:0:
489,370,100423,1,8,2:2:0:0:
489,370,100573,2,0,L|396:361,1,71.5000021820069,10|8,2:2|2:2,0:0:0:0:
302,377,100875,2,0,L|209:368,1,71.5000021820069,10|8,2:2|2:2,0:0:0:0:
115,384,101176,2,0,L|22:375,1,71.5000021820069,10|8,2:2|2:2,0:0:0:0:
16,259,101478,5,10,2:2:0:0:
16,259,101629,2,0,L|1:168,1,71.5000021820069,10|10,2:2|2:2,0:0:0:0:
105,139,101930,1,8,2:2:0:0:
105,139,102081,2,0,L|152:59,1,71.5000021820069,10|8,2:2|2:2,0:0:0:0:
252,102,102382,2,0,L|409:35,1,143.000004364014,10|10,2:2|2:2,0:0:0:0:
474,135,102835,5,8,2:2:0:0:
474,135,102985,2,0,L|496:224,1,71.5000021820069,10|8,2:2|2:2,0:0:0:0:
370,225,103287,2,0,L|360:323,1,71.5000021820069,10|8,2:2|2:2,0:0:0:0:
237,304,103588,2,0,L|191:382,1,71.5000021820069,10|8,2:2|2:2,0:0:0:0:
116,213,103890,5,10,2:2:0:0:
116,213,104041,1,8,2:2:0:0:
116,213,104191,2,0,L|104:306,1,71.5000021820069,10|8,2:2|2:2,0:0:0:0:
210,147,104493,2,0,L|231:248,1,71.5000021820069,10|8,2:2|2:2,0:0:0:0:
247,49,104794,2,0,L|317:128,1,71.5000021820069,10|8,2:2|2:2,0:0:0:0:
414,0,105096,5,10,2:2:0:0:
414,0,105247,1,8,2:2:0:0:
414,0,105397,2,0,L|409:101,1,71.5000021820069,10|8,2:2|2:2,0:0:0:0:
488,138,105699,2,0,L|484:234,1,71.5000021820069,10|8,2:2|2:2,0:0:0:0:
375,242,106000,2,0,L|371:340,1,71.5000021820069,10|0,2:2|0:0,0:0:0:0:
223,321,106302,6,0,B|180:284|120:287|80:321|80:321|117:278|114:217|79:177,1,311.999990478516,14|10,2:1|2:1,0:0:0:0:
141,47,107206,5,14,2:2:0:0:
141,47,107357,1,2,2:2:0:0:
217,78,107508,2,0,B|252:119|243:182|198:212|198:212|234:182|300:198,1,233.999992858887,14|0,2:1|0:0,0:0:0:0:
367,242,108111,2,0,P|379:195|373:148,1,77.999997619629,10|10,2:1|2:1,0:0:0:0:
327,75,108412,1,14,2:2:0:0:
500,44,108714,6,0,B|508:98|492:151|463:191|463:191|463:191|463:191|495:236|507:289|500:339,1,311.999990478516,14|10,2:1|2:1,0:0:0:0:
244,355,109618,5,10,2:2:0:0:
244,355,109769,1,2,2:2:0:0:
204,276,109920,2,0,P|206:221|227:185,1,77.999997619629,14|0,2:1|0:0,0:0:0:0:
338,201,110222,2,0,P|336:146|315:110,1,77.999997619629,10|0,2:2|0:0,0:0:0:0:
199,42,110523,1,14,2:1:0:0:
199,42,110674,1,10,2:1:0:0:
137,103,110825,1,10,2:2:0:0:
38,285,111126,6,0,B|6:253|2:206|24:169|57:151|57:151|78:190|122:209|164:200|192:175,1,311.999990478516,14|10,2:1|2:1,0:0:0:0:
320,24,112031,6,0,L|414:39,1,77.999997619629,14|2,2:2|2:2,0:0:0:0:
466,131,112332,2,0,B|483:170|464:217|421:235|384:225|384:225|375:251|382:279|399:298,1,233.999992858887,14|0,2:1|0:0,0:0:0:0:
291,378,112935,2,0,P|244:386|197:378,1,77.999997619629,10|10,2:1|2:1,0:0:0:0:
107,342,113237,1,14,2:2:0:0:
52,149,113538,6,0,B|94:160|137:138|155:99|151:61|151:61|167:219,1,311.999990478516,14|10,2:1|2:1,0:0:0:0:
355,318,114443,6,0,P|408:310|449:278,1,77.999997619629,10|2,2:2|2:2,0:0:0:0:
489,193,114744,2,0,P|478:133|450:105,1,77.999997619629,14|0,2:1|0:0,0:0:0:0:
377,37,115046,2,0,P|324:46|277:72,1,77.999997619629,10|0,2:2|0:0,0:0:0:0:
228,149,115347,1,14,2:1:0:0:
228,149,115498,1,10,2:1:0:0:
273,216,115649,1,10,2:2:0:0:
179,358,115950,6,0,B|142:366|103:342|103:342|70:322|29:338|29:338|65:312|64:259,1,233.999992858887,14|0,2:1|0:0,0:0:0:0:
44,160,116553,2,0,L|5:69,2,77.999997619629,10|10|10,2:1|2:1|2:2,0:0:0:0:
233,203,117156,6,0,B|275:214|317:181|317:130|287:103|287:103|327:122|342:164,1,233.999992858887,14|0,2:1|0:0,0:0:0:0:
365,263,117759,2,0,L|349:367,2,77.999997619629,10|10|10,2:1|2:1|2:2,0:0:0:0:
445,126,118362,6,0,L|467:71,3,38.9999988098145,14|0|0|0,2:1|0:0|0:0|0:0,0:0:0:0:
420,85,118664,2,0,L|426:35,3,38.9999988098145,10|0|0|0,2:2|0:0|0:0|0:0,0:0:0:0:
389,52,118965,2,0,L|375:5,3,38.9999988098145,10|0|8|0,2:1|0:0|2:1|0:0,0:0:0:0:
347,36,119267,2,0,L|305:10,3,38.9999988098145,10|0|0|0,2:2|0:0|0:0|0:0,0:0:0:0:
289,50,119568,6,0,B|244:83|181:72|149:29|149:29|134:106,1,233.999992858887,14|2,2:1|2:2,0:0:0:0:
42,164,120171,2,0,L|63:266,1,77.999997619629,14|8,2:1|2:1,0:0:0:0:
15,338,120473,1,10,2:2:0:0:
221,353,120774,6,0,P|271:359|323:340,1,77.999997619629,14|0,2:1|0:0,0:0:0:0:
422,357,121076,2,0,P|438:321|438:282,1,77.999997619629,10|2,2:2|2:2,0:0:0:0:
336,227,121377,2,0,L|339:123,1,77.999997619629,10|8,2:1|2:1,0:0:0:0:
401,38,121679,6,0,L|474:25,2,51.999998413086,10|2|2,2:2|2:2|2:2,0:0:0:0:
356,27,121980,2,0,L|253:42,1,77.999997619629,14|0,2:1|0:0,0:0:0:0:
202,84,122282,6,0,L|184:11,2,51.999998413086,10|2|2,2:2|2:2|2:2,0:0:0:0:
183,127,122583,2,0,L|174:235,1,77.999997619629,14|8,2:1|2:1,0:0:0:0:
97,271,122885,2,0,L|129:351,1,77.999997619629,10|0,2:2|0:0,0:0:0:0:
246,321,123186,6,0,L|255:393,2,51.999998413086,14|0|0,2:1|0:0|0:0,0:0:0:0:
283,285,123488,6,0,L|291:219,2,51.999998413086,10|0|0,2:2|0:0|0:0,0:0:0:0:
323,321,123789,6,0,L|331:388,2,51.999998413086,10|0|0,2:1|0:0|0:0,0:0:0:0:
358,285,124091,6,0,L|366:218,2,51.999998413086,10|0|0,2:2|0:0|0:0,0:0:0:0:
394,323,124392,6,0,L|466:343,2,51.999998413086,14|0|0,2:1|0:0|0:0,0:0:0:0:
434,294,124694,6,0,L|502:284,2,51.999998413086,10|0|0,2:2|0:0|0:0,0:0:0:0:
459,249,124995,6,0,L|517:219,2,51.999998413086,14|0|0,2:1|0:0|0:0,0:0:0:0:
474,193,125297,6,0,L|514:141,2,51.999998413086,14|0|0,2:2|0:0|0:0,0:0:0:0:
461,138,125598,5,14,2:1:0:0:
461,138,125749,2,0,B|470:103|452:66|420:51|388:55|388:55|379:76|362:91|337:98,1,195,2|10,2:2|2:1,0:0:0:0:
236,53,126352,1,8,2:1:0:0:
236,53,126503,2,0,L|76:38,1,130,10|14,2:2|2:1,0:0:0:0:
55,138,126955,5,0,0:0:0:0:
55,138,127106,2,0,L|34:229,1,65,10|0,2:2|0:0,0:0:0:0:
160,218,127407,2,0,L|139:309,1,65,10|8,2:1|2:1,0:0:0:0:
278,285,127709,2,0,L|257:376,1,65,10|0,2:2|0:0,0:0:0:0:
382,373,128010,5,14,2:1:0:0:
382,373,128161,1,0,0:0:0:0:
382,373,128312,2,0,L|372:285,1,65,10|0,2:2|0:0,0:0:0:0:
468,244,128613,2,0,L|458:156,1,65,10|8,2:1|2:1,0:0:0:0:
370,115,128915,2,0,L|360:27,1,65,10|0,2:2|0:0,0:0:0:0:
236,22,129216,5,14,2:1:0:0:
236,22,129367,1,0,0:0:0:0:
236,22,129518,2,0,L|220:110,1,65,10|0,2:2|0:0,0:0:0:0:
294,166,129819,2,0,L|234:232,1,65,10|8,2:1|2:1,0:0:0:0:
268,325,130121,2,0,L|175:344,1,65,10|0,2:2|0:0,0:0:0:0:
92,359,130423,5,14,2:1:0:0:
92,359,130573,2,0,L|24:309,1,65,2|10,2:2|2:2,0:0:0:0:
78,227,130875,1,0,0:0:0:0:
78,227,131025,2,0,L|39:152,1,65,10|8,2:1|2:1,0:0:0:0:
169,160,131327,2,0,L|196:2,1,130,10|14,2:2|2:1,0:0:0:0:
307,35,131779,5,0,0:0:0:0:
307,35,131930,2,0,L|399:14,1,65,10|0,2:2|0:0,0:0:0:0:
381,127,132232,2,0,L|470:118,1,65,10|8,2:1|2:1,0:0:0:0:
427,223,132533,2,0,L|503:255,1,65,10|0,2:2|0:0,0:0:0:0:
426,338,132835,5,14,2:1:0:0:
426,338,132985,1,0,0:0:0:0:
426,338,133136,2,0,L|337:327,1,65,10|0,2:2|0:0,0:0:0:0:
272,354,133438,2,0,L|183:343,1,65,10|8,2:1|2:1,0:0:0:0:
109,371,133739,2,0,L|20:360,1,65,10|0,2:2|0:0,0:0:0:0:
24,267,134041,5,14,2:1:0:0:
24,267,134191,1,0,0:0:0:0:
24,267,134342,2,0,L|12:183,1,65,10|0,2:2|0:0,0:0:0:0:
124,186,134644,2,0,L|121:98,1,65,10|8,2:1|2:1,0:0:0:0:
226,100,134945,2,0,L|237:13,1,65,10|0,2:2|0:0,0:0:0:0:
338,45,135247,5,14,2:2:0:0:
410,40,135397,1,10,2:2:0:0:
483,34,135548,1,10,2:2:0:0:
438,234,135850,6,0,L|434:326,1,65,10|8,2:2|2:2,0:0:0:0:
312,290,136151,2,0,L|308:382,1,65,10|8,2:2|2:2,0:0:0:0:
174,339,136453,5,10,2:2:0:0:
102,344,136603,1,10,2:2:0:0:
29,350,136754,1,10,2:2:0:0:
74,150,137056,6,0,L|78:58,1,65,10|8,2:2|2:2,0:0:0:0:
200,94,137357,2,0,L|204:2,1,65,10|8,2:2|2:2,0:0:0:0:
338,45,137659,5,10,2:2:0:0:
410,40,137809,1,10,2:2:0:0:
483,34,137960,1,10,2:2:0:0:
438,234,138262,6,0,L|434:326,1,65,10|8,2:2|2:2,0:0:0:0:
312,290,138563,2,0,L|308:382,1,65,10|0,2:2|0:0,0:0:0:0:
174,339,138865,6,0,L|169:386,2,38.9999988098145,2|2|2,2:2|2:2|2:2,0:0:0:0:
159,241,139468,5,2,2:2:0:0:
142,142,139769,6,0,L|135:90,1,38.9999988098145,2|0,2:2|0:0,0:0:0:0:
121,19,140071,1,14,2:1:0:0:
181,224,144593,6,0,L|387:193,1,168.999992263794,14|14,2:2|2:1,0:0:0:0:
387,193,149417,6,0,L|181:224,1,168.999992263794,14|14,2:2|2:1,0:0:0:0:
181,224,154242,6,0,L|387:193,1,168.999992263794,14|14,2:2|2:1,0:0:0:0:
483,197,159367,6,0,P|492:239|484:287,1,77.999997619629,14|8,2:1|2:2,0:0:0:0:
450,355,159819,1,2,2:2:0:0:
433,271,159970,2,0,P|439:228|429:179,1,77.999997619629,10|8,2:1|2:2,0:0:0:0:
303,78,160573,6,0,P|294:123|301:168,1,77.999997619629,10|8,2:1|2:2,0:0:0:0:
223,285,161176,5,10,2:1:0:0:
223,285,161327,1,2,2:2:0:0:
177,257,161478,1,10,2:2:0:0:
29,187,161779,6,0,P|20:145|32:98,1,77.999997619629,10|8,2:1|2:2,0:0:0:0:
70,34,162231,1,2,2:2:0:0:
76,117,162382,2,0,P|70:160|82:205,1,77.999997619629,10|8,2:1|2:2,0:0:0:0:
204,318,162985,6,0,P|213:273|209:228,1,77.999997619629,10|8,2:1|2:2,0:0:0:0:
289,99,163588,5,10,2:1:0:0:
289,99,163739,1,2,2:2:0:0:
322,129,163890,1,10,2:2:0:0:
436,30,164191,5,14,2:3:0:0:
493,158,164493,6,0,L|509:249,1,71.5000021820069,14|0,2:2|0:0,0:0:0:0:
420,245,164794,2,0,L|436:336,1,71.5000021820069,10|0,2:1|0:0,0:0:0:0:
314,267,165096,6,0,L|330:176,1,71.5000021820069,10|0,2:2|0:0,0:0:0:0:
248,183,165397,2,0,L|264:92,1,71.5000021820069,10|0,2:1|0:0,0:0:0:0:
156,34,165699,6,0,L|172:125,1,71.5000021820069,10|0,2:2|0:0,0:0:0:0:
87,126,166000,2,0,L|103:217,1,71.5000021820069,10|0,2:1|0:0,0:0:0:0:
26,244,166302,2,0,L|41:346,1,71.5000021820069,10|0,2:2|0:0,0:0:0:0:
118,361,166603,5,14,2:3:0:0:
332,358,166905,6,0,L|424:348,1,71.5000021820069,14|0,2:2|0:0,0:0:0:0:
457,259,167206,2,0,L|369:268,1,71.5000021820069,10|0,2:1|0:0,0:0:0:0:
301,167,167508,6,0,L|388:176,1,71.5000021820069,10|0,2:2|0:0,0:0:0:0:
449,76,167809,2,0,L|361:85,1,71.5000021820069,10|0,2:1|0:0,0:0:0:0:
304,15,168111,6,0,L|216:5,1,71.5000021820069,10|0,2:2|0:0,0:0:0:0:
161,74,168412,2,0,L|73:83,1,71.5000021820069,10|0,2:1|0:0,0:0:0:0:
43,178,168714,1,10,2:2:0:0:
40,252,168865,1,10,2:2:0:0:
40,326,169015,6,0,P|93:344|176:326,1,116.999996429443,14|10,2:1|2:2,0:0:0:0:
213,280,169468,1,2,2:2:0:0:
275,212,169618,2,0,P|344:195|413:215,1,116.999996429443,10|10,2:1|2:2,0:0:0:0:
459,276,170071,1,2,2:2:0:0:
379,245,170222,2,0,P|303:241|257:270,1,116.999996429443,10|10,2:1|2:2,0:0:0:0:
105,290,170825,5,10,2:1:0:0:
105,290,170975,1,2,2:2:0:0:
58,220,171126,1,10,2:2:0:0:
12,70,171428,6,0,P|52:41|133:42,1,116.999996429443,10|10,2:1|2:2,0:0:0:0:
191,82,171880,1,2,2:2:0:0:
267,123,172031,2,0,P|338:124|398:88,1,116.999996429443,10|10,2:1|2:2,0:0:0:0:
442,25,172483,1,2,2:2:0:0:
358,65,172634,2,0,P|305:85|227:63,1,116.999996429443,10|10,2:1|2:2,0:0:0:0:
115,151,173237,5,10,2:1:0:0:
115,151,173387,1,2,2:2:0:0:
107,229,173538,1,10,2:2:0:0:
98,371,173840,5,14,2:3:0:0:
246,352,174141,6,0,L|331:316,1,71.5000021820069,14|0,2:2|0:0,0:0:0:0:
406,340,174443,2,0,L|441:243,1,71.5000021820069,10|0,2:1|0:0,0:0:0:0:
359,213,174744,6,0,L|323:127,1,71.5000021820069,10|0,2:2|0:0,0:0:0:0:
340,59,175046,2,0,L|243:24,1,71.5000021820069,10|0,2:1|0:0,0:0:0:0:
216,100,175347,6,0,L|130:136,1,71.5000021820069,10|0,2:2|0:0,0:0:0:0:
70,113,175649,2,0,L|35:210,1,71.5000021820069,10|0,2:1|0:0,0:0:0:0:
99,237,175950,2,0,L|107:333,1,71.5000021820069,10|0,2:2|0:0,0:0:0:0:
209,323,176252,5,14,2:3:0:0:
135,134,176553,6,0,L|216:100,1,71.5000021820069,14|0,2:2|0:0,0:0:0:0:
256,29,176855,2,0,L|339:59,1,71.5000021820069,10|0,2:1|0:0,0:0:0:0:
325,132,177156,2,0,L|359:213,1,71.5000021820069,10|0,2:2|0:0,0:0:0:0:
401,309,177458,5,10,2:1:0:0:
209,323,177759,5,10,2:2:0:0:
195,131,178061,5,10,2:1:0:0:
387,117,178362,5,14,2:2:0:0:
401,309,178664,5,14,2:1:0:0:
401,309,178814,2,0,L|346:369,1,65,2|10,2:2|2:2,0:0:0:0:
249,322,179116,1,0,0:0:0:0:
249,322,179266,2,0,L|168:333,1,65,10|8,2:1|2:1,0:0:0:0:
80,338,179568,2,0,L|34:191,1,130,10|14,2:2|2:1,0:0:0:0:
115,129,180021,5,0,0:0:0:0:
115,129,180171,2,0,L|104:38,1,65,10|0,2:2|0:0,0:0:0:0:
244,112,180473,2,0,L|233:21,1,65,10|8,2:1|2:1,0:0:0:0:
373,95,180774,2,0,L|362:4,1,65,10|0,2:2|0:0,0:0:0:0:
474,178,181076,5,14,2:1:0:0:
474,178,181227,1,0,0:0:0:0:
474,178,181377,2,0,L|496:254,1,65,10|0,2:2|0:0,0:0:0:0:
388,266,181679,2,0,L|388:354,1,65,10|8,2:1|2:1,0:0:0:0:
264,306,181980,2,0,L|250:388,1,65,10|0,2:2|0:0,0:0:0:0:
141,272,182282,5,14,2:1:0:0:
141,272,182433,1,0,0:0:0:0:
141,272,182583,2,0,L|171:181,1,65,10|0,2:2|0:0,0:0:0:0:
273,196,182885,2,0,L|256:110,1,65,10|8,2:1|2:1,0:0:0:0:
359,87,183186,2,0,L|316:10,1,65,10|0,2:2|0:0,0:0:0:0:
205,46,183488,5,14,2:1:0:0:
205,46,183639,2,0,L|120:62,1,65,2|10,2:2|2:2,0:0:0:0:
47,140,183940,1,0,0:0:0:0:
47,140,184091,2,0,L|32:226,1,65,10|8,2:1|2:1,0:0:0:0:
28,301,184392,2,0,L|169:346,1,130,10|14,2:2|2:1,0:0:0:0:
233,268,184845,5,0,0:0:0:0:
233,268,184995,2,0,L|312:300,1,65,10|0,2:2|0:0,0:0:0:0:
318,383,185297,2,0,L|398:353,1,65,10|8,2:1|2:1,0:0:0:0:
481,367,185598,2,0,L|509:279,1,65,10|0,2:2|0:0,0:0:0:0:
460,207,185900,5,14,2:1:0:0:
460,207,186051,1,0,0:0:0:0:
460,207,186201,2,0,L|481:123,1,65,10|0,2:2|0:0,0:0:0:0:
361,125,186503,2,0,L|428:64,1,65,10|8,2:1|2:1,0:0:0:0:
295,10,186804,2,0,L|378:-2,1,65,10|0,2:2|0:0,0:0:0:0:
246,103,187106,5,14,2:1:0:0:
246,103,187257,1,0,0:0:0:0:
246,103,187407,2,0,L|167:61,1,65,10|0,2:2|0:0,0:0:0:0:
129,148,187709,2,0,L|49:130,1,65,10|8,2:1|2:1,0:0:0:0:
70,243,188010,2,0,L|-12:288,1,65,10|0,2:2|0:0,0:0:0:0:
83,369,188312,6,0,L|185:378,1,71.5000021820069,14|2,2:1|2:2,0:0:0:0:
276,341,188613,2,0,B|275:310|290:282|312:264|312:264|291:241|281:212|283:183,1,143.000004364014,10|10,2:2|2:1,0:0:0:0:
296,88,189066,1,8,2:1:0:0:
384,19,189216,2,0,L|377:183,1,143.000004364014,10|14,2:2|2:1,0:0:0:0:
453,251,189669,5,0,0:0:0:0:
453,251,189819,2,0,B|421:252|398:278|398:308|398:308|372:326|340:328|313:319,1,143.000004364014,10|10,2:2|2:1,0:0:0:0:
246,370,190272,1,8,2:1:0:0:
246,370,190423,2,0,L|151:355,1,71.5000021820069,10|0,2:2|0:0,0:0:0:0:
90,310,190724,6,0,L|37:223,1,71.5000021820069,14|0,2:1|0:0,0:0:0:0:
70,158,191026,2,0,L|55:77,1,71.5000021820069,10|0,2:2|0:0,0:0:0:0:
126,23,191327,2,0,B|172:4|225:23|225:23|226:28|226:28|227:34|227:34|277:53|325:32,1,214.500006546021,8|0,2:1|0:0,0:0:0:0:
417,2,191930,1,14,2:1:0:0:
321,197,192232,6,0,B|297:217|265:222|238:212|238:212|235:181|216:155|190:142,1,143.000004364014,10|10,2:2|2:1,0:0:0:0:
127,225,192684,1,8,2:1:0:0:
127,225,192835,2,0,L|120:317,1,71.5000021820069,10|0,2:2|0:0,0:0:0:0:
35,373,193136,6,0,L|26:277,1,71.5000021820069,14|2,2:1|2:2,0:0:0:0:
23,194,193438,2,0,B|9:166|13:134|31:111|31:111|62:119|93:105|108:80,1,143.000004364014,10|10,2:2|2:1,0:0:0:0:
163,12,193890,1,8,2:1:0:0:
163,12,194041,2,0,L|334:24,1,143.000004364014,10|14,2:2|2:1,0:0:0:0:
450,14,194493,5,0,0:0:0:0:
450,14,194644,2,0,B|477:30|485:65|472:91|472:91|440:92|415:114|408:142,1,143.000004364014,10|10,2:2|2:1,0:0:0:0:
495,185,195096,1,8,2:1:0:0:
495,185,195247,2,0,L|506:276,1,71.5000021820069,10|0,2:2|0:0,0:0:0:0:
449,356,195548,6,0,L|356:375,1,71.5000021820069,14|0,2:1|0:0,0:0:0:0:
311,280,195850,2,0,L|223:265,1,71.5000021820069,10|0,2:2|0:0,0:0:0:0:
195,174,196151,2,0,B|157:185|134:218|134:255|134:255|98:264|69:259|33:230,1,214.500006546021,8|0,2:1|0:0,0:0:0:0:
42,132,196754,1,14,2:1:0:0:
208,26,197056,6,0,B|237:15|268:19|292:34|292:34|299:65|324:87|353:90,1,143.000004364014,10|10,2:2|2:1,0:0:0:0:
438,16,197508,1,8,2:1:0:0:
438,16,197659,2,0,L|449:123,1,107.25000327301,10|0,2:2|0:0,0:0:0:0:
399,199,197960,5,14,2:2:0:0:
394,278,198111,1,10,2:2:0:0:
388,354,198262,1,10,2:2:0:0:
100,366,198563,6,0,L|11:351,1,71.5000021820069,10|8,2:2|2:2,0:0:0:0:
108,275,198865,2,0,L|14:257,1,71.5000021820069,10|8,2:2|2:2,0:0:0:0:
113,185,199166,5,10,2:2:0:0:
118,106,199317,1,10,2:2:0:0:
124,30,199468,1,10,2:2:0:0:
412,18,199769,6,0,L|501:33,1,71.5000021820069,10|8,2:2|2:2,0:0:0:0:
404,109,200071,2,0,L|498:127,1,71.5000021820069,10|8,2:2|2:2,0:0:0:0:
399,199,200372,5,10,2:2:0:0:
394,278,200523,1,10,2:2:0:0:
388,354,200674,1,10,2:2:0:0:
100,366,200975,6,0,L|11:351,1,71.5000021820069,10|8,2:2|2:2,0:0:0:0:
108,275,201277,2,0,L|14:257,1,71.5000021820069,10|0,2:2|0:0,0:0:0:0:
113,185,201578,6,0,L|53:174,2,48.750001859665,2|2|2,2:2|2:2|2:2,0:0:0:0:
260,127,202181,5,2,2:2:0:0:
300,214,202407,5,0,0:0:0:0:
300,214,202483,2,0,P|288:284|285:211,1,195.00000743866,10|0,2:2|0:0,0:0:0:0:
