osu file format v14

[General]
AudioFilename: audio.mp3
AudioLeadIn: 0
PreviewTime: 52674
Countdown: 0
SampleSet: Soft
StackLeniency: 0.5
Mode: 0
LetterboxInBreaks: 0
WidescreenStoryboard: 0

[Editor]
DistanceSpacing: 0.6
BeatDivisor: 4
GridSize: 4
TimelineZoom: 1.9

[Metadata]
Title:Heart & Soul (feat. Boostee)
TitleUnicode:Heart & Soul (feat. Boostee)
Artist:JOYCA
ArtistUnicode:JOYCA
Creator:Battquif
Version:Normal
Source:
Tags:Youtunes Nino Vella Mowlo Avicii
BeatmapID:1882717
BeatmapSetID:901501

[Difficulty]
HPDrainRate:4
CircleSize:3.5
OverallDifficulty:4
ApproachRate:5
SliderMultiplier:1.1
SliderTickRate:1

[Events]
//Background and Video events
0,0,"maxresdefault.jpg",0,0
//Break Periods
2,45292,50917
2,75491,81123
2,112792,118417
//Storyboard Layer 0 (Background)
//Storyboard Layer 1 (Fail)
//Storyboard Layer 2 (Pass)
//Storyboard Layer 3 (Foreground)
//Storyboard Sound Samples

[TimingPoints]
292,468.75,4,2,0,50,1,0
52792,-100,4,2,0,75,0,0
57479,-88.8888888888889,4,2,0,75,0,0
60292,-80,4,2,0,90,0,1
65917,-100,4,2,0,75,0,0
67792,-80,4,2,0,90,0,1
74823,-100,4,2,0,90,0,1
75292,-100,4,2,0,50,0,0
120292,-100,4,2,0,75,0,0
124979,-88.8888888888889,4,2,0,75,0,0
127792,-80,4,2,0,90,0,1
133417,-100,4,2,0,75,0,0
135292,-80,4,2,0,90,0,1
142323,-100,4,2,0,90,0,1
142792,-100,4,2,0,100,0,0

[Colours]
Combo1 : 0,64,128
Combo2 : 0,128,0

[HitObjects]
449,350,14823,5,2,0:0:0:0:
449,350,15057,1,0,0:0:0:0:
449,350,15292,2,0,P|458:296|435:247,1,110,0|2,0:0|0:0,0:0:0:0:
232,229,16698,1,2,0:0:0:0:
233,27,17635,1,2,0:0:0:0:
315,99,18104,2,0,P|371:113|428:96,1,110,0|2,0:0|0:0,0:0:0:0:
485,11,19042,5,0,0:0:0:0:
508,117,19510,2,0,P|506:172|481:221,1,110,2|0,0:0|0:0,0:0:0:0:
373,242,20448,1,2,0:0:0:0:
336,345,20917,1,0,0:0:0:0:
336,345,21151,1,0,0:0:0:0:
336,345,21385,2,0,B|254:327|254:327|205:336,1,110,2|0,0:0|0:0,0:0:0:0:
127,376,22323,1,2,0:0:0:0:
163,272,22792,6,0,P|182:214|161:160,1,110,0|2,0:0|0:0,0:0:0:0:
130,64,23729,2,0,P|181:84|235:75,1,110,0|2,0:0|0:0,0:0:0:0:
281,46,24432,1,0,0:0:0:0:
336,43,24667,2,0,B|421:59|421:59|440:81,1,110,0|2,0:0|0:0,0:0:0:0:
385,174,25604,1,0,0:0:0:0:
279,142,26073,1,2,0:0:0:0:
279,142,26307,1,0,0:0:0:0:
279,142,26542,6,0,B|261:217|261:217|285:264,1,110,0|2,0:0|0:0,0:0:0:0:
364,311,27479,2,0,B|382:236|382:236|358:189,1,110,0|2,0:0|0:0,0:0:0:0:
179,293,28885,2,0,P|125:295|87:256,1,110,2|0,0:0|0:0,0:0:0:0:
75,202,29588,2,0,P|69:147|38:103,1,110
71,57,30292,6,0,B|106:38|141:81|178:58,1,110,0|2,0:0|0:0,0:0:0:0:
274,6,31229,1,0,0:0:0:0:
280,115,31698,1,2,0:0:0:0:
383,152,32167,2,0,B|421:165|421:165|501:152,1,110,0|2,0:0|0:0,0:0:0:0:
466,261,33104,1,0,0:0:0:0:
411,270,33338,2,0,B|373:257|373:257|293:270,1,110
253,290,34042,5,0,0:0:0:0:
145,313,34510,1,2,0:0:0:0:
179,208,34979,2,0,P|183:147|159:104,1,110,0|2,0:0|0:0,0:0:0:0:
56,67,35917,2,0,P|51:128|76:171,1,110,0|2,0:0|0:0,0:0:0:0:
124,191,36620,1,0,0:0:0:0:
173,217,36854,1,0,0:0:0:0:
274,174,37323,1,2,0:0:0:0:
373,220,37792,6,0,B|384:179|384:179|372:104,2,110,0|2|0,0:0|0:0|0:0,0:0:0:0:
272,265,39198,1,2,0:0:0:0:
362,327,39667,2,0,B|403:338|403:338|478:326,2,110,0|2|0,0:0|0:0|0:0,0:0:0:0:
323,287,40838,1,0,0:0:0:0:
272,265,41073,1,2,0:0:0:0:
167,231,41542,6,0,P|117:74|244:179,1,440
228,274,52792,6,0,L|235:162,1,110,0|12,0:0|0:0,0:0:0:0:
240,54,53729,1,0,1:0:0:0:
285,85,53963,1,0,0:0:0:0:
340,82,54198,1,8,0:0:0:0:
434,25,54667,6,0,P|450:79|434:141,1,110,0|8,1:0|0:0,0:0:0:0:
399,168,55370,1,0,0:0:0:0:
366,211,55604,2,0,P|379:265|424:311,1,110,0|8,1:0|0:0,0:0:0:0:
314,258,56542,6,0,P|283:253|257:258,1,55,0|0,1:0|0:0,0:0:0:0:
208,276,57010,2,0,P|180:279|153:274,1,55,8|0,0:0|0:0,0:0:0:0:
109,243,57479,2,0,P|74:237|44:243,4,61.875002360344,0|0|8|0|4,1:0|0:0|0:0|0:0|0:0,0:0:0:0:
457,241,60292,6,2,P|422:236|389:243,1,68.75,6|0,1:2|0:0,0:0:0:0:
355,270,60760,1,8,0:0:0:0:
449,134,61463,1,2,0:0:0:0:
287,98,62167,6,2,P|299:129|320:155,1,68.75,2|0,1:2|0:0,0:0:0:0:
364,172,62635,1,8,0:0:0:0:
210,232,63338,1,2,0:0:0:0:
147,322,63807,1,2,0:0:0:0:
147,322,64042,6,2,L|65:274,2,68.75,2|0|8,1:2|0:0|0:0,0:0:0:0:
210,232,64979,2,2,L|276:216,2,68.75,2|0|8,1:2|0:0|0:0,0:0:0:0:
259,330,65917,1,0,1:0:0:0:
259,330,67792,6,2,P|300:341|336:338,1,68.75,6|0,1:2|0:0,0:0:0:0:
358,308,68260,1,8,0:0:0:0:
205,244,68963,1,2,0:0:0:0:
331,137,69667,6,2,P|299:167|283:199,1,68.75,2|0,1:2|0:0,0:0:0:0:
301,234,70135,1,8,0:0:0:0:
461,194,70838,1,2,0:0:0:0:
480,142,71073,1,8,0:0:0:0:
462,90,71307,1,2,0:0:0:0:
481,38,71542,6,2,B|453:20|453:20|409:15,2,68.75,2|0|8,1:2|0:0|0:0,0:0:0:0:
379,90,72479,2,2,B|345:85|345:85|315:66,2,68.75,2|0|8,1:2|0:0|0:0,0:0:0:0:
480,142,73417,1,4,1:2:0:0:
383,194,73885,1,8,0:0:0:0:
473,256,74354,1,0,1:0:0:0:
372,301,74823,2,0,L|362:370,2,55,8|0|4,0:0|0:0|0:0,0:0:0:0:
372,301,82323,5,0,0:0:0:0:
320,281,82557,1,0,0:0:0:0:
265,291,82792,2,0,P|226:293|198:277,1,55,2|0,0:0|0:0,0:0:0:0:
91,191,85604,6,0,P|167:166|240:202,1,165,2|0,0:0|0:0,0:0:0:0:
240,202,87479,1,2,0:0:0:0:
291,220,87713,1,0,0:0:0:0:
345,213,87948,2,0,B|421:212|421:212|455:239,1,110,0|2,0:0|0:0,0:0:0:0:
502,224,88651,6,0,P|502:139|448:86,1,165,0|2,0:0|0:0,0:0:0:0:
393,88,89588,1,0,0:0:0:0:
292,42,90057,1,0,0:0:0:0:
286,200,91229,6,0,P|297:169|300:137,2,55,2|0|0,0:0|0:0|0:0,0:0:0:0:
176,209,92167,2,0,P|233:297|341:296,1,220,2|2,0:0|0:0,0:0:0:0:
382,263,93338,2,0,P|437:255|489:271,1,110
116,331,96385,6,0,P|101:298|106:271,1,55
134,234,96854,1,2,0:0:0:0:
130,179,97088,2,0,P|177:139|230:131,1,110,0|2,0:0|0:0,0:0:0:0:
275,148,97792,6,0,B|310:162|310:162|389:157,1,110,0|2,0:0|0:0,0:0:0:0:
470,91,98729,1,0,0:0:0:0:
491,198,99198,1,2,0:0:0:0:
403,265,99667,6,0,P|410:320|451:373,1,110,0|2,0:0|0:0,0:0:0:0:
334,335,100604,1,0,0:0:0:0:
279,326,100838,2,0,B|204:338|204:338|156:324,1,110
119,308,101542,5,0,0:0:0:0:
211,248,102010,1,2,0:0:0:0:
112,198,102479,2,0,P|98:142|110:86,1,110,0|2,0:0|0:0,0:0:0:0:
206,139,103417,6,0,P|247:174|300:188,1,110,0|2,0:0|0:0,0:0:0:0:
349,162,104120,1,0,0:0:0:0:
403,163,104354,1,0,0:0:0:0:
483,87,104823,1,2,0:0:0:0:
511,193,105292,6,0,L|500:316,2,110,0|2|0,0:0|0:0|0:0,0:0:0:0:
403,163,106698,1,2,0:0:0:0:
325,240,107167,2,0,L|336:363,2,110,0|2|0,0:0|0:0|0:0,0:0:0:0:
319,185,108338,1,0,0:0:0:0:
314,130,108573,1,2,0:0:0:0:
223,64,109042,6,0,P|68:126|229:171,1,440
231,275,120292,6,0,P|216:219|234:162,1,110,0|12,0:0|0:0,0:0:0:0:
322,111,121229,1,0,1:0:0:0:
310,57,121463,1,0,0:0:0:0:
269,19,121698,1,8,0:0:0:0:
379,11,122167,6,0,B|454:10|454:10|482:31,1,110,0|8,1:0|0:0,0:0:0:0:
459,81,122870,1,0,0:0:0:0:
432,129,123104,2,0,B|431:204|431:204|452:232,1,110,0|8,1:0|0:0,0:0:0:0:
359,291,124042,6,0,P|328:279|302:282,1,55,0|0,1:0|0:0,0:0:0:0:
252,288,124510,2,0,P|237:264|234:237,1,55,8|0,0:0|0:0,0:0:0:0:
264,191,124979,2,0,P|261:163|244:130,4,61.875002360344,0|0|8|0|4,1:0|0:0|0:0|0:0|0:0,0:0:0:0:
264,191,127792,6,2,P|260:156|241:127,1,68.75,6|0,1:2|0:0,0:0:0:0:
196,119,128260,1,8,0:0:0:0:
33,145,128963,1,2,0:0:0:0:
71,305,129667,6,2,P|77:340|97:366,1,68.75,2|0,1:2|0:0,0:0:0:0:
139,377,130135,1,8,0:0:0:0:
283,296,130838,1,2,0:0:0:0:
178,260,131307,1,2,0:0:0:0:
178,260,131542,6,2,L|185:190,1,68.75,2|0,1:2|0:0,0:0:0:0:
190,150,132010,1,8,0:0:0:0:
88,192,132479,6,2,L|80:122,1,68.75,2|0,1:2|0:0,0:0:0:0:
76,82,132947,1,8,0:0:0:0:
177,42,133417,5,0,1:0:0:0:
177,41,135292,6,2,L|255:48,1,68.75,6|0,1:2|0:0,0:0:0:0:
286,50,135760,1,8,0:0:0:0:
436,117,136463,1,2,0:0:0:0:
300,212,137167,6,2,L|306:290,1,68.75,2|0,1:2|0:0,0:0:0:0:
308,321,137635,1,8,0:0:0:0:
156,254,138338,1,2,0:0:0:0:
121,210,138573,1,8,0:0:0:0:
66,201,138807,1,2,0:0:0:0:
15,223,139042,6,2,L|10:153,1,68.75,2|0,1:2|0:0,0:0:0:0:
7,113,139510,1,8,0:0:0:0:
116,118,139979,6,2,L|121:40,1,68.75,2|0,1:2|0:0,0:0:0:0:
124,8,140447,1,8,0:0:0:0:
226,48,140917,5,4,1:2:0:0:
243,157,141385,1,8,0:0:0:0:
328,88,141854,1,0,1:0:0:0:
430,128,142323,2,0,L|488:152,2,55,8|0|4,0:0|0:0|0:0,0:0:0:0:
