osu file format v14

[General]
AudioFilename: audio.mp3
AudioLeadIn: 0
PreviewTime: 52674
Countdown: 0
SampleSet: Soft
StackLeniency: 0.5
Mode: 0
LetterboxInBreaks: 0
WidescreenStoryboard: 0

[Editor]
DistanceSpacing: 0.8
BeatDivisor: 4
GridSize: 4
TimelineZoom: 1.9

[Metadata]
Title:Heart & Soul (feat. Boostee)
TitleUnicode:Heart & Soul (feat. Boostee)
Artist:JOYCA
ArtistUnicode:JOYCA
Creator:Battquif
Version:Hard
Source:
Tags:Youtunes Nino Vella Mowlo Avicii
BeatmapID:1882716
BeatmapSetID:901501

[Difficulty]
HPDrainRate:6
CircleSize:4
OverallDifficulty:6
ApproachRate:7
SliderMultiplier:1.4
SliderTickRate:1

[Events]
//Background and Video events
0,0,"maxresdefault.jpg",0,0
//Break Periods
2,45292,50017
2,75491,81423
2,112792,117517
//Storyboard Layer 0 (Background)
//Storyboard Layer 1 (Fail)
//Storyboard Layer 2 (Pass)
//Storyboard Layer 3 (Foreground)
//Storyboard Sound Samples

[TimingPoints]
292,468.75,4,2,0,50,1,0
50917,-100,4,2,0,70,0,0
52792,-100,4,2,0,75,0,0
57948,-80,4,2,0,75,0,0
60292,-66.6666666666667,4,2,0,90,0,1
60409,-66.6666666666667,4,2,0,5,0,1
60760,-66.6666666666667,4,2,0,90,0,1
62284,-66.6666666666667,4,2,0,5,0,1
62635,-66.6666666666667,4,2,0,90,0,1
63456,-66.6666666666667,4,2,0,5,0,1
63807,-66.6666666666667,4,2,0,90,0,1
63924,-66.6666666666667,4,2,0,5,0,1
64042,-66.6666666666667,4,2,0,90,0,1
65096,-66.6666666666667,4,2,0,5,0,1
65213,-66.6666666666667,4,2,0,90,0,1
65331,-66.6666666666667,4,2,0,5,0,1
65448,-66.6666666666667,4,2,0,90,0,1
65917,-66.6666666666667,4,2,0,75,0,0
66034,-66.6666666666667,4,2,0,5,0,0
67792,-66.6666666666667,4,2,0,90,0,1
67909,-66.6666666666667,4,2,0,5,0,1
68260,-66.6666666666667,4,2,0,90,0,1
69784,-66.6666666666667,4,2,0,5,0,1
70135,-66.6666666666667,4,2,0,90,0,1
70956,-66.6666666666667,4,2,0,5,0,1
71307,-66.6666666666667,4,2,0,90,0,1
71424,-66.6666666666667,4,2,0,5,0,1
71542,-66.6666666666667,4,2,0,90,0,1
72596,-66.6666666666667,4,2,0,5,0,1
72713,-66.6666666666667,4,2,0,90,0,1
72831,-66.6666666666667,4,2,0,5,0,1
72948,-66.6666666666667,4,2,0,90,0,1
75292,-100,4,2,0,50,0,0
118417,-100,4,2,0,70,0,0
120292,-100,4,2,0,75,0,0
125448,-80,4,2,0,75,0,0
127792,-66.6666666666667,4,2,0,90,0,1
127909,-66.6666666666667,4,2,0,5,0,1
128260,-66.6666666666667,4,2,0,90,0,1
129784,-66.6666666666667,4,2,0,5,0,1
130135,-66.6666666666667,4,2,0,90,0,1
130956,-66.6666666666667,4,2,0,5,0,1
131307,-66.6666666666667,4,2,0,90,0,1
131424,-66.6666666666667,4,2,0,5,0,1
131542,-66.6666666666667,4,2,0,90,0,1
132596,-66.6666666666667,4,2,0,5,0,1
132713,-66.6666666666667,4,2,0,90,0,1
132831,-66.6666666666667,4,2,0,5,0,1
132948,-66.6666666666667,4,2,0,90,0,1
133417,-66.6666666666667,4,2,0,75,0,0
133534,-66.6666666666667,4,2,0,5,0,0
135292,-66.6666666666667,4,2,0,90,0,1
135409,-66.6666666666667,4,2,0,5,0,1
135760,-66.6666666666667,4,2,0,90,0,1
137284,-66.6666666666667,4,2,0,5,0,1
137635,-66.6666666666667,4,2,0,90,0,1
138456,-66.6666666666667,4,2,0,5,0,1
138807,-66.6666666666667,4,2,0,90,0,1
138924,-66.6666666666667,4,2,0,5,0,1
139042,-66.6666666666667,4,2,0,90,0,1
140096,-66.6666666666667,4,2,0,5,0,1
140213,-66.6666666666667,4,2,0,90,0,1
140331,-66.6666666666667,4,2,0,5,0,1
140448,-66.6666666666667,4,2,0,90,0,1
141034,-66.6666666666667,4,2,0,5,0,1
141385,-66.6666666666667,4,2,0,90,0,1
142792,-100,4,2,0,100,0,0

[Colours]
Combo1 : 0,64,128
Combo2 : 0,128,0

[HitObjects]
139,262,14823,6,0,P|121:230|119:189,1,70,2|0,0:0|0:0,0:0:0:0:
175,135,15292,1,0,0:0:0:0:
118,73,15526,1,0,0:0:0:0:
118,73,15760,1,2,0:0:0:0:
264,120,16698,1,2,0:0:0:0:
403,52,17635,1,2,0:0:0:0:
403,52,18104,6,0,P|396:83|406:125,1,70
462,180,18573,1,2,0:0:0:0:
462,180,18807,1,0,0:0:0:0:
382,206,19042,2,0,P|308:198|251:229,1,140,0|2,0:0|0:0,0:0:0:0:
154,363,19979,6,0,P|176:338|177:304,1,70
124,238,20448,2,0,P|124:203|147:178,1,70,2|0,0:0|0:0,0:0:0:0:
226,149,20917,1,0,0:0:0:0:
266,75,21151,1,0,0:0:0:0:
266,75,21385,1,2,0:0:0:0:
266,75,21854,6,0,P|301:88|340:85,1,70
415,69,22323,2,0,P|386:92|369:128,1,70,2|0,0:0|0:0,0:0:0:0:
425,185,22792,2,0,B|437:278|437:278|417:323,1,140,0|2,0:0|0:0,0:0:0:0:
315,187,23729,6,0,L|324:261,1,70
335,339,24198,1,2,0:0:0:0:
257,307,24432,1,0,0:0:0:0:
257,307,24667,6,0,L|238:163,1,140,0|2,0:0|0:0,0:0:0:0:
314,18,25604,2,0,P|315:65|299:98,1,70
222,84,26073,1,2,0:0:0:0:
149,125,26307,1,0,0:0:0:0:
149,125,26542,6,0,P|83:144|17:120,1,140,0|2,0:0|0:0,0:0:0:0:
17,120,27948,1,2,0:0:0:0:
115,174,28885,6,0,P|123:212|115:246,1,70,2|0,0:0|0:0,0:0:0:0:
55,299,29354,1,0,0:0:0:0:
115,356,29588,2,0,P|148:363|183:357,1,70,0|2,0:0|0:0,0:0:0:0:
244,299,30057,1,0,0:0:0:0:
328,293,30292,6,0,P|296:232|230:215,2,140,0|2|0,0:0|0:0|0:0,0:0:0:0:
391,184,31698,1,2,0:0:0:0:
303,91,32167,2,0,B|341:59|341:59|439:46,1,140,0|2,0:0|0:0,0:0:0:0:
265,14,33104,1,0,0:0:0:0:
199,65,33338,2,0,P|158:64|128:50,1,70,0|2,0:0|0:0,0:0:0:0:
63,3,33807,1,0,0:0:0:0:
53,86,34042,6,0,B|32:181|32:181|53:225,1,140,0|2,0:0|0:0,0:0:0:0:
190,313,34979,1,0,0:0:0:0:
201,229,35213,1,0,0:0:0:0:
129,183,35448,2,0,P|156:157|187:146,1,70,2|0,0:0|0:0,0:0:0:0:
267,171,35917,6,0,L|253:27,1,140,0|2,0:0|0:0,0:0:0:0:
332,61,36620,1,0,0:0:0:0:
408,26,36854,2,0,L|482:35,1,70
510,111,37323,2,0,L|441:120,1,70,2|0,0:0|0:0,0:0:0:0:
439,204,37792,6,0,B|452:296|452:296|436:340,2,140,0|2|0,0:0|0:0|0:0,0:0:0:0:
321,248,39198,1,2,0:0:0:0:
208,192,39667,2,0,B|195:284|195:284|211:328,2,140,0|2|0,0:0|0:0|0:0,0:0:0:0:
275,141,40838,2,0,P|214:110|149:132,1,140
121,212,41542,6,0,P|8:195|85:95,2,280
105,50,50917,6,0,L|113:85,7,35,2|2|2|2|2|2|2|2,0:0|0:0|0:0|0:0|0:0|0:0|0:0|0:0,0:0:0:0:
115,126,51854,1,8,0:0:0:0:
67,194,52088,1,8,0:0:0:0:
150,204,52323,1,8,3:0:0:0:
167,206,52440,1,8,3:0:0:0:
184,209,52557,1,4,3:0:0:0:
201,212,52674,1,4,3:0:0:0:
219,215,52792,6,0,L|296:228,1,70,2|0,0:0|0:0,0:0:0:0:
335,296,53260,2,0,B|435:280|435:280|456:245,1,140,12|0,0:0|1:0,0:0:0:0:
412,173,53963,2,0,P|406:136|416:97,1,70,0|8,0:0|0:0,0:0:0:0:
456,32,54432,1,0,0:0:0:0:
371,29,54667,6,0,L|301:22,1,70,0|0,1:0|0:0,0:0:0:0:
237,76,55135,2,0,L|167:83,1,70,8|0,0:0|0:0,0:0:0:0:
118,151,55604,1,0,1:0:0:0:
216,287,56073,1,8,0:0:0:0:
222,271,56190,1,0,0:0:0:0:
224,253,56307,1,0,0:0:0:0:
222,236,56424,1,0,0:0:0:0:
213,217,56542,6,0,B|204:176|204:176|218:147,1,70,0|0,1:0|0:0,0:0:0:0:
291,188,57010,1,8,0:0:0:0:
367,152,57245,1,0,0:0:0:0:
400,277,57479,1,0,1:0:0:0:
492,186,57713,1,0,0:0:0:0:
352,154,57948,2,0,B|341:94|341:94|348:62,2,87.5,8|0|4,0:0|0:0|0:0,0:0:0:0:
399,276,59588,6,0,P|408:288|412:302,3,29.1666666666667,8|8|8|8,0:1|0:1|0:1|0:0,0:0:0:0:
277,250,60292,6,2,L|215:242,1,52.5000020027161,6|0,1:2|0:0,0:0:0:0:
117,233,60760,1,8,0:0:0:0:
117,233,61229,1,0,1:0:0:0:
157,159,61463,6,2,L|211:165,2,52.5000020027161,2|0|8,0:0|0:0|0:0,0:0:0:0:
104,39,62167,6,2,L|44:31,1,52.5000020027161,2|0,1:2|0:0,0:0:0:0:
192,57,62635,1,8,0:0:0:0:
192,57,63104,1,0,1:0:0:0:
260,105,63338,6,2,L|312:97,1,52.5000020027161,2|0,0:0|0:0,0:0:0:0:
465,121,63807,2,2,L|412:128,1,52.5000020027161,2|0,0:0|0:0,0:0:0:0:
389,164,64042,2,2,B|372:210|372:210|386:263,1,105.000004005432,2|0,1:2|0:0,0:0:0:0:
408,345,64510,1,8,0:0:0:0:
322,341,64745,5,2,0:0:0:0:
280,333,64862,1,2,0:0:0:0:
239,343,64979,2,2,L|186:352,1,52.5000020027161,2|0,1:2|0:0,0:0:0:0:
161,318,65213,2,2,L|109:309,1,52.5000020027161,2|0,0:0|0:0,0:0:0:0:
71,327,65448,1,8,0:0:0:0:
211,231,65917,6,2,L|223:174,1,52.5000020027161,2|0,1:2|0:0,0:0:0:0:
222,180,67792,6,2,L|211:232,1,52.5000020027161,6|0,1:2|0:0,0:0:0:0:
178,335,68260,1,8,0:0:0:0:
178,335,68729,1,0,1:0:0:0:
250,293,68963,6,2,L|301:303,2,52.5000020027161,2|0|8,0:0|0:0|0:0,0:0:0:0:
388,197,69667,6,2,L|439:185,1,52.5000020027161,2|0,1:2|0:0,0:0:0:0:
301,223,70135,1,8,0:0:0:0:
301,223,70604,1,0,1:0:0:0:
220,197,70838,6,2,L|169:185,1,52.5000020027161,2|0,0:0|0:0,0:0:0:0:
262,100,71307,2,2,L|313:88,1,52.5000020027161,2|0,0:0|0:0,0:0:0:0:
356,94,71542,2,2,B|406:106|406:106|457:95,1,105.000004005432,2|0,1:2|0:0,0:0:0:0:
510,29,72010,1,8,0:0:0:0:
510,163,72245,5,2,0:0:0:0:
508,204,72362,1,2,0:0:0:0:
506,245,72479,2,2,L|502:303,1,52.5000020027161,2|0,1:2|0:0,0:0:0:0:
463,308,72713,2,2,L|459:364,1,52.5000020027161,2|0,0:0|0:0,0:0:0:0:
420,375,72948,1,8,0:0:0:0:
309,258,73417,5,4,1:2:0:0:
193,308,73885,1,8,0:0:0:0:
207,182,74354,1,0,1:0:0:0:
168,107,74588,1,0,0:0:0:0:
252,111,74823,1,8,0:0:0:0:
254,93,74940,1,8,3:0:0:0:
257,76,75057,1,8,3:0:0:0:
259,59,75174,1,4,3:0:0:0:
262,41,75291,1,4,3:0:0:0:
262,41,82323,5,0,0:0:0:0:
247,123,82557,1,0,0:0:0:0:
302,186,82792,2,0,P|306:223|297:260,1,70,2|0,0:0|0:0,0:0:0:0:
299,254,85604,6,0,P|386:272|354:184,1,210,2|0,0:0|0:0,0:0:0:0:
365,186,87479,5,2,0:0:0:0:
283,164,87713,1,0,0:0:0:0:
261,82,87948,2,0,P|226:61|184:57,1,70
132,110,88417,5,2,0:0:0:0:
55,75,88651,2,0,B|43:177|43:177|53:219,1,140
129,244,89354,1,2,0:0:0:0:
63,296,89588,2,0,P|124:328|187:303,1,140
187,303,91229,5,2,0:0:0:0:
234,233,91463,1,0,0:0:0:0:
209,152,91698,2,0,P|199:111|203:81,1,70
282,107,92167,6,0,P|354:110|409:63,1,140,2|0,0:0|0:0,0:0:0:0:
381,150,92870,1,0,0:0:0:0:
432,216,93104,2,0,B|438:258|438:258|432:288,2,70,2|0|0,0:0|0:0|0:0,0:0:0:0:
348,227,93807,1,0,0:0:0:0:
272,189,94042,6,0,P|268:257|317:305,1,140,2|0,0:0|0:0,0:0:0:0:
182,238,96385,6,0,P|146:233|110:239,1,70
41,282,96854,1,2,0:0:0:0:
39,198,97088,2,0,L|32:127,1,70
22,44,97557,1,2,0:0:0:0:
98,79,97792,6,0,P|170:84|230:42,1,140,0|2,0:0|0:0,0:0:0:0:
338,103,98729,1,0,0:0:0:0:
446,38,99198,1,2,0:0:0:0:
343,107,99667,6,0,P|329:174|358:236,1,140,0|2,0:0|0:0,0:0:0:0:
506,317,100604,1,0,0:0:0:0:
432,357,100838,2,0,P|391:358|355:346,1,70,0|2,0:0|0:0,0:0:0:0:
297,297,101307,1,0,0:0:0:0:
220,331,101542,6,0,B|198:232|198:232|211:195,1,140,0|2,0:0|0:0,0:0:0:0:
286,45,102479,1,0,0:0:0:0:
315,123,102713,1,0,0:0:0:0:
372,61,102948,2,0,P|396:93|400:129,1,70,2|0,0:0|0:0,0:0:0:0:
360,191,103417,6,0,P|428:201|478:155,1,140,0|2,0:0|0:0,0:0:0:0:
441,231,104120,1,0,0:0:0:0:
465,311,104354,2,0,L|391:324,1,70
322,281,104823,2,0,L|253:268,1,70,2|0,0:0|0:0,0:0:0:0:
179,310,105292,6,0,B|75:319|75:319|40:299,2,140,0|2|0,0:0|0:0|0:0,0:0:0:0:
100,211,106698,1,2,0:0:0:0:
175,110,107167,2,0,B|71:101|71:101|36:121,2,140,0|2|0,0:0|0:0|0:0,0:0:0:0:
227,175,108338,2,0,P|296:188|357:150,1,140
282,108,109042,6,0,P|396:82|413:215,2,280
282,108,118417,6,0,L|243:101,7,35,2|2|2|2|2|2|2|2,0:0|0:0|0:0|0:0|0:0|0:0|0:0|0:0,0:0:0:0:
206,93,119354,1,8,0:0:0:0:
131,132,119588,1,8,0:0:0:0:
199,181,119823,1,8,3:0:0:0:
203,197,119940,1,8,3:0:0:0:
202,215,120057,1,4,3:0:0:0:
195,231,120174,1,4,3:0:0:0:
181,245,120292,6,0,P|156:278|154:311,1,70,2|0,0:0|0:0,0:0:0:0:
238,305,120760,2,0,B|338:293|338:293|383:309,1,140,12|0,0:0|1:0,0:0:0:0:
453,337,121463,2,0,P|475:309|480:265,1,70,0|8,0:0|0:0,0:0:0:0:
434,205,121932,1,0,0:0:0:0:
456,123,122167,6,0,L|460:46,1,70,0|0,1:0|0:0,0:0:0:0:
379,79,122635,2,0,L|375:2,1,70,8|0,0:0|0:0,0:0:0:0:
298,44,123104,1,0,1:0:0:0:
344,166,123573,1,8,0:0:0:0:
328,173,123690,1,0,0:0:0:0:
311,179,123807,1,0,0:0:0:0:
294,183,123924,1,0,0:0:0:0:
275,185,124042,6,0,B|221:179|221:179|186:186,1,70,0|0,1:0|0:0,0:0:0:0:
140,235,124510,1,8,0:0:0:0:
218,266,124745,1,0,0:0:0:0:
127,151,124979,1,0,1:0:0:0:
73,288,125213,1,0,0:0:0:0:
225,277,125448,2,0,B|284:274|284:274|316:293,2,87.5,8|0|4,0:0|0:0|0:0,0:0:0:0:
72,288,127088,6,0,P|58:286|45:279,3,29.1666666666667,8|8|8|8,0:1|0:1|0:1|0:0,0:0:0:0:
127,151,127792,6,2,L|119:98,1,52.5000020027161,6|0,1:2|0:0,0:0:0:0:
32,27,128260,1,8,0:0:0:0:
32,27,128729,1,0,1:0:0:0:
115,19,128963,6,2,L|167:25,2,52.5000020027161,2|0|8,0:0|0:0|0:0,0:0:0:0:
253,134,129667,6,2,L|307:127,1,52.5000020027161,2|0,1:2|0:0,0:0:0:0:
412,114,130135,1,8,0:0:0:0:
412,114,130604,1,0,1:0:0:0:
396,196,130838,6,2,L|343:200,1,52.5000020027161,2|0,0:0|0:0,0:0:0:0:
248,324,131307,2,2,L|195:328,1,52.5000020027161,2|0,0:0|0:0,0:0:0:0:
168,361,131542,2,2,B|117:358|117:358|78:322,1,105.000004005432,2|0,1:2|0:0,0:0:0:0:
106,242,132010,1,8,0:0:0:0:
24,219,132245,5,2,0:0:0:0:
21,177,132362,1,2,0:0:0:0:
18,135,132479,2,2,L|15:80,1,52.5000020027161,2|0,1:2|0:0,0:0:0:0:
54,69,132713,2,2,L|52:15,1,52.5000020027161,2|0,0:0|0:0,0:0:0:0:
91,1,132948,1,8,0:0:0:0:
225,133,133417,6,2,L|280:130,1,52.5000020027161,2|0,1:2|0:0,0:0:0:0:
259,131,135292,6,2,L|204:134,1,52.5000020027161,6|0,1:2|0:0,0:0:0:0:
99,139,135760,1,8,0:0:0:0:
99,139,136229,1,0,1:0:0:0:
53,209,136463,6,2,L|1:211,2,52.5000020027161,2|0|8,0:0|0:0|0:0,0:0:0:0:
216,247,137167,6,2,L|270:248,1,52.5000020027161,2|0,1:2|0:0,0:0:0:0:
129,246,137635,1,8,0:0:0:0:
129,246,138104,1,0,1:0:0:0:
78,311,138338,6,2,L|26:307,1,52.5000020027161,2|0,0:0|0:0,0:0:0:0:
159,357,138807,2,2,L|211:359,1,52.5000020027161,2|0,0:0|0:0,0:0:0:0:
248,339,139042,2,2,B|294:319|294:319|347:333,1,105.000004005432,2|0,1:2|0:0,0:0:0:0:
420,373,139510,1,8,0:0:0:0:
484,266,139745,5,2,0:0:0:0:
494,225,139862,1,2,0:0:0:0:
482,184,139979,2,2,P|475:152|475:130,1,52.5000020027161,2|0,1:2|0:0,0:0:0:0:
501,99,140213,2,2,P|500:72|493:47,1,52.5000020027161,2|0,0:0|0:0,0:0:0:0:
460,21,140448,1,8,0:0:0:0:
319,112,140917,6,2,L|329:170,1,52.5000020027161,6|0,1:2|0:0,0:0:0:0:
354,286,141385,1,8,0:0:0:0:
218,194,141854,1,0,1:0:0:0:
238,275,142088,1,0,0:0:0:0:
156,253,142323,1,8,0:0:0:0:
140,261,142440,1,8,3:0:0:0:
125,270,142557,1,8,3:0:0:0:
110,279,142674,1,4,3:0:0:0:
95,288,142791,1,4,3:0:0:0:
