osu file format v14

[General]
AudioFilename: Oraoraora.mp3
AudioLeadIn: 0
PreviewTime: 48640
Countdown: 0
SampleSet: Normal
StackLeniency: 0.7
Mode: 1
LetterboxInBreaks: 0
WidescreenStoryboard: 0

[Editor]
Bookmarks: 84368
DistanceSpacing: 0.8
BeatDivisor: 4
GridSize: 4
TimelineZoom: 2.3

[Metadata]
Title:JoJo Sono Chi no Kioku~end of THE WORLD~
TitleUnicode:ジョジョ その血の記憶~end of THE WORLD~
Artist:JO*STARS ~TOMMY, Coda, JIN~
ArtistUnicode:JO☆STARS ~TOMMY, Coda, JIN~
Creator:bank78952
Version:Oni
Source:JoJo's Bizarre Adventure: Stardust Crusaders 2nd Season
Tags:ジョジョの奇妙な冒険 スターダストクルセイダース TV size Hiroaki "TOMMY" Tominaga Hashimoto Jin Opening
BeatmapID:818239
BeatmapSetID:373481

[Difficulty]
HPDrainRate:5
CircleSize:2
OverallDifficulty:6
ApproachRate:10
SliderMultiplier:1.4
SliderTickRate:1

[Events]
//Background and Video events
0,0,"BG.jpg",0,0
//Break Periods
//Storyboard Layer 0 (Background)
//Storyboard Layer 1 (Fail)
//Storyboard Layer 2 (Pass)
//Storyboard Layer 3 (Foreground)
//Storyboard Sound Samples

[TimingPoints]
13459,272.727272727273,4,1,0,80,1,0
49459,-100,4,1,0,80,0,1
71277,-100,4,1,0,80,0,0

[HitObjects]
252,188,14549,5,0,0:0:0:0:
252,188,14686,1,0,0:0:0:0:
260,200,14822,1,8,0:0:0:0:
260,200,14959,1,0,0:0:0:0:
260,200,15095,1,8,0:0:0:0:
260,200,15231,1,0,0:0:0:0:
264,200,15299,1,0,0:0:0:0:
264,192,15368,1,8,0:0:0:0:
264,200,15640,1,0,0:0:0:0:
264,200,15913,1,8,0:0:0:0:
264,200,16049,1,0,0:0:0:0:
264,200,16186,1,8,0:0:0:0:
264,200,16322,1,0,0:0:0:0:
264,200,16459,1,8,0:0:0:0:
256,188,16731,1,0,0:0:0:0:
276,184,16868,1,0,0:0:0:0:
256,188,17004,1,8,0:0:0:0:
256,188,17140,1,0,0:0:0:0:
256,188,17277,1,8,0:0:0:0:
256,188,17413,1,0,0:0:0:0:
256,188,17549,1,8,0:0:0:0:
256,188,17686,1,8,0:0:0:0:
256,188,17754,1,8,0:0:0:0:
256,188,17822,1,8,0:0:0:0:
256,188,17959,1,8,0:0:0:0:
256,188,18231,1,0,0:0:0:0:
256,184,18504,1,0,0:0:0:0:
256,184,18640,1,8,0:0:0:0:
256,184,18777,1,0,0:0:0:0:
256,184,18913,1,4,0:0:0:0:
248,196,19322,1,8,0:0:0:0:
248,196,19459,1,0,0:0:0:0:
248,196,19595,1,0,0:0:0:0:
248,196,19731,1,8,0:0:0:0:
248,192,20004,1,0,0:0:0:0:
244,200,20140,1,8,0:0:0:0:
248,196,20413,1,0,0:0:0:0:
248,196,20549,1,8,0:0:0:0:
264,196,20686,1,8,0:0:0:0:
248,184,20822,1,0,0:0:0:0:
248,204,21095,1,8,0:0:0:0:
256,200,21231,1,0,0:0:0:0:
256,200,21504,1,0,0:0:0:0:
256,200,21640,1,8,0:0:0:0:
256,200,21777,1,0,0:0:0:0:
256,200,21913,1,8,0:0:0:0:
252,208,22186,1,8,0:0:0:0:
252,208,22322,1,8,0:0:0:0:
252,208,22459,1,0,0:0:0:0:
252,208,22595,1,0,0:0:0:0:
252,208,22663,1,0,0:0:0:0:
252,208,22731,1,8,0:0:0:0:
252,208,22868,1,0,0:0:0:0:
252,208,23004,1,8,0:0:0:0:
244,200,23277,1,8,0:0:0:0:
256,208,23413,1,0,0:0:0:0:
256,216,23686,1,0,0:0:0:0:
256,216,23822,1,8,0:0:0:0:
268,216,23959,1,0,0:0:0:0:
268,216,24095,1,8,0:0:0:0:
268,208,24368,1,12,0:0:0:0:
272,204,24640,1,4,0:0:0:0:
272,208,24913,1,12,0:0:0:0:
256,192,25459,1,8,0:0:0:0:
256,192,25595,1,0,0:0:0:0:
260,196,25868,1,0,0:0:0:0:
260,196,26004,1,8,0:0:0:0:
256,192,26277,1,0,0:0:0:0:
256,196,26549,1,12,0:0:0:0:
256,196,26822,1,4,0:0:0:0:
256,196,27095,1,12,0:0:0:0:
260,188,27368,1,8,0:0:0:0:
260,188,27504,1,0,0:0:0:0:
260,188,27572,1,0,0:0:0:0:
260,188,27640,1,0,0:0:0:0:
256,196,27913,1,8,0:0:0:0:
256,196,28049,1,8,0:0:0:0:
256,196,28186,1,0,0:0:0:0:
256,196,28322,1,0,0:0:0:0:
256,196,28459,1,8,0:0:0:0:
256,196,28595,1,0,0:0:0:0:
264,192,28731,1,0,0:0:0:0:
256,188,29004,1,8,0:0:0:0:
272,184,29140,1,0,0:0:0:0:
280,196,29277,1,0,0:0:0:0:
272,184,29413,1,0,0:0:0:0:
252,188,29549,1,8,0:0:0:0:
252,188,29822,1,8,0:0:0:0:
252,188,29959,1,0,0:0:0:0:
252,188,30095,1,0,0:0:0:0:
252,188,30231,1,8,0:0:0:0:
252,188,30368,1,0,0:0:0:0:
252,188,30504,1,0,0:0:0:0:
252,188,30640,1,8,0:0:0:0:
252,188,30777,1,8,0:0:0:0:
252,188,30845,1,8,0:0:0:0:
252,188,30913,1,8,0:0:0:0:
252,188,31049,1,0,0:0:0:0:
252,188,31118,1,0,0:0:0:0:
252,188,31186,1,8,0:0:0:0:
256,180,31322,1,0,0:0:0:0:
256,184,31595,1,12,0:0:0:0:
256,192,32004,1,4,0:0:0:0:
256,192,32186,1,8,0:0:0:0:
260,180,32368,1,0,0:0:0:0:
260,180,32549,1,8,0:0:0:0:
260,188,32822,1,8,0:0:0:0:
256,192,33095,1,0,0:0:0:0:
256,188,33368,1,8,0:0:0:0:
248,196,33640,1,0,0:0:0:0:
248,196,33777,1,0,0:0:0:0:
256,192,33913,1,8,0:0:0:0:
256,192,34186,1,8,0:0:0:0:
264,192,34368,1,8,0:0:0:0:
264,192,34549,1,0,0:0:0:0:
264,192,34731,1,0,0:0:0:0:
264,192,34913,1,8,0:0:0:0:
264,192,35095,1,0,0:0:0:0:
264,192,35277,1,8,0:0:0:0:
252,192,35549,1,0,0:0:0:0:
272,196,35686,1,0,0:0:0:0:
256,200,35822,1,8,0:0:0:0:
256,200,36095,1,0,0:0:0:0:
264,184,36231,1,0,0:0:0:0:
256,196,36368,1,4,0:0:0:0:
264,200,36549,1,8,0:0:0:0:
260,208,36731,1,0,0:0:0:0:
260,208,36913,1,0,0:0:0:0:
264,212,37186,1,8,0:0:0:0:
264,212,37459,1,0,0:0:0:0:
264,220,37731,1,8,0:0:0:0:
256,212,38004,1,0,0:0:0:0:
256,212,38140,1,0,0:0:0:0:
264,212,38277,1,8,0:0:0:0:
252,212,38413,1,8,0:0:0:0:
264,212,38549,1,0,0:0:0:0:
264,212,38913,1,8,0:0:0:0:
264,212,39095,1,0,0:0:0:0:
256,212,39277,1,0,0:0:0:0:
256,212,39459,1,8,0:0:0:0:
256,212,39640,1,0,0:0:0:0:
264,208,39913,1,8,0:0:0:0:
264,208,40049,1,0,0:0:0:0:
264,208,40186,1,0,0:0:0:0:
264,208,40322,1,8,0:0:0:0:
264,208,40459,1,0,0:0:0:0:
268,200,40595,1,8,0:0:0:0:
268,200,40731,1,0,0:0:0:0:
268,200,40868,1,0,0:0:0:0:
256,180,41277,1,8,0:0:0:0:
264,180,41413,1,0,0:0:0:0:
256,180,41822,1,0,0:0:0:0:
264,180,41958,1,0,0:0:0:0:
256,180,42368,1,8,0:0:0:0:
264,180,42504,1,0,0:0:0:0:
256,192,42913,1,8,0:0:0:0:
256,192,43049,1,8,0:0:0:0:
256,192,43186,1,0,0:0:0:0:
256,192,43322,1,8,0:0:0:0:
256,192,43595,1,8,0:0:0:0:
256,192,43731,1,0,0:0:0:0:
264,200,44004,1,8,0:0:0:0:
260,188,44822,1,12,0:0:0:0:
256,184,45095,1,4,0:0:0:0:
260,188,45368,1,0,0:0:0:0:
260,188,45504,1,0,0:0:0:0:
268,196,45640,1,8,0:0:0:0:
256,192,45913,1,0,0:0:0:0:
256,192,46049,1,0,0:0:0:0:
260,196,46322,1,8,0:0:0:0:
260,196,46459,1,0,0:0:0:0:
260,196,46595,1,0,0:0:0:0:
268,200,46663,1,0,0:0:0:0:
268,196,46731,1,8,0:0:0:0:
268,196,46868,1,0,0:0:0:0:
256,200,47004,1,8,0:0:0:0:
256,200,47140,1,8,0:0:0:0:
256,200,47209,1,8,0:0:0:0:
264,200,47277,1,0,0:0:0:0:
272,184,47549,1,0,0:0:0:0:
260,184,47686,1,0,0:0:0:0:
260,184,47822,1,8,0:0:0:0:
248,200,48095,1,0,0:0:0:0:
248,200,48231,1,0,0:0:0:0:
256,200,48368,1,8,0:0:0:0:
260,208,48504,1,0,0:0:0:0:
260,208,48572,1,0,0:0:0:0:
260,208,48640,1,8,0:0:0:0:
248,212,48777,1,8,0:0:0:0:
292,236,49049,1,0,0:0:0:0:
248,212,49186,1,8,0:0:0:0:
256,212,49322,1,0,0:0:0:0:
256,212,49459,1,4,0:0:0:0:
248,208,49731,1,8,0:0:0:0:
248,208,49868,1,0,0:0:0:0:
248,208,50004,1,8,0:0:0:0:
248,208,50140,1,0,0:0:0:0:
248,208,50209,1,0,0:0:0:0:
244,216,50277,1,8,0:0:0:0:
244,216,50413,1,0,0:0:0:0:
244,208,50549,1,0,0:0:0:0:
244,216,50686,1,8,0:0:0:0:
248,228,50754,1,8,0:0:0:0:
244,216,50822,1,8,0:0:0:0:
244,216,50959,1,0,0:0:0:0:
244,216,51095,1,0,0:0:0:0:
264,192,51231,1,8,0:0:0:0:
260,192,51368,1,8,0:0:0:0:
268,192,51504,1,0,0:0:0:0:
260,192,51777,1,8,0:0:0:0:
260,192,51913,1,8,0:0:0:0:
260,192,52049,1,0,0:0:0:0:
260,192,52186,1,8,0:0:0:0:
260,192,52322,1,0,0:0:0:0:
272,192,52390,1,0,0:0:0:0:
260,192,52459,1,8,0:0:0:0:
260,192,52595,1,0,0:0:0:0:
260,192,52731,1,0,0:0:0:0:
260,184,53004,1,8,0:0:0:0:
264,188,53277,1,0,0:0:0:0:
256,200,53413,1,0,0:0:0:0:
260,200,53481,1,0,0:0:0:0:
264,196,53549,1,8,0:0:0:0:
272,192,53686,1,8,0:0:0:0:
264,196,53822,1,4,0:0:0:0:
264,196,53959,1,0,0:0:0:0:
264,196,54027,1,8,0:0:0:0:
272,200,54095,1,8,0:0:0:0:
264,196,54231,1,8,0:0:0:0:
264,196,54368,1,0,0:0:0:0:
280,200,54504,1,0,0:0:0:0:
280,200,54572,1,0,0:0:0:0:
280,200,54640,1,8,0:0:0:0:
272,200,54777,1,8,0:0:0:0:
272,200,54913,1,4,0:0:0:0:
256,192,55186,1,12,0:0:0:0:
260,192,55459,1,12,0:0:0:0:
256,192,56004,1,8,0:0:0:0:
256,192,56186,1,0,0:0:0:0:
256,192,56368,1,8,0:0:0:0:
256,192,56549,1,0,0:0:0:0:
256,192,56731,1,0,0:0:0:0:
256,192,56913,1,8,0:0:0:0:
256,192,57095,1,0,0:0:0:0:
256,200,57368,1,8,0:0:0:0:
256,200,57504,1,0,0:0:0:0:
264,200,57640,1,0,0:0:0:0:
256,200,57709,1,0,0:0:0:0:
256,200,57777,1,0,0:0:0:0:
260,196,57913,1,8,0:0:0:0:
272,188,58049,1,0,0:0:0:0:
256,204,58118,1,0,0:0:0:0:
260,196,58186,1,8,0:0:0:0:
256,204,58459,1,8,0:0:0:0:
260,204,58731,1,0,0:0:0:0:
260,204,58868,1,0,0:0:0:0:
260,204,58936,1,0,0:0:0:0:
260,204,59004,1,8,0:0:0:0:
260,204,59277,1,0,0:0:0:0:
248,204,59413,1,0,0:0:0:0:
248,204,59481,1,0,0:0:0:0:
248,204,59549,1,8,0:0:0:0:
252,212,59686,1,8,0:0:0:0:
252,212,59822,1,0,0:0:0:0:
252,212,59959,1,0,0:0:0:0:
252,212,60027,1,0,0:0:0:0:
252,212,60095,1,8,0:0:0:0:
256,192,60368,1,0,0:0:0:0:
264,196,60777,1,8,0:0:0:0:
264,196,60913,1,0,0:0:0:0:
264,196,61049,1,0,0:0:0:0:
264,196,61186,1,8,0:0:0:0:
264,208,61459,1,8,0:0:0:0:
264,208,61640,1,0,0:0:0:0:
264,208,61822,1,8,0:0:0:0:
264,208,62004,1,8,0:0:0:0:
264,200,62277,1,0,0:0:0:0:
264,196,62549,1,8,0:0:0:0:
256,200,62959,1,0,0:0:0:0:
264,200,63231,1,0,0:0:0:0:
264,200,63368,1,8,0:0:0:0:
260,200,63640,1,0,0:0:0:0:
256,196,63913,1,0,0:0:0:0:
256,196,64186,1,0,0:0:0:0:
256,196,64322,1,0,0:0:0:0:
256,196,64390,1,0,0:0:0:0:
256,196,64459,1,8,0:0:0:0:
260,208,64595,1,8,0:0:0:0:
256,192,64731,1,4,0:0:0:0:
256,192,64868,1,0,0:0:0:0:
264,192,65004,1,8,0:0:0:0:
264,192,65140,1,0,0:0:0:0:
256,192,65413,1,0,0:0:0:0:
256,192,65549,1,8,0:0:0:0:
272,196,65686,1,0,0:0:0:0:
272,196,65754,1,0,0:0:0:0:
264,192,65822,1,8,0:0:0:0:
264,192,66095,1,8,0:0:0:0:
268,184,66368,1,0,0:0:0:0:
272,184,66640,1,8,0:0:0:0:
272,184,66777,1,0,0:0:0:0:
284,180,66913,1,8,0:0:0:0:
272,184,67049,1,0,0:0:0:0:
272,184,67186,1,8,0:0:0:0:
276,192,67459,1,0,0:0:0:0:
280,188,67731,1,8,0:0:0:0:
280,188,67868,1,0,0:0:0:0:
280,188,67936,1,0,0:0:0:0:
280,188,68004,1,0,0:0:0:0:
268,188,68140,1,0,0:0:0:0:
260,188,68209,1,0,0:0:0:0:
268,188,68277,1,8,0:0:0:0:
268,188,68413,1,8,0:0:0:0:
276,188,68549,1,0,0:0:0:0:
276,188,68686,1,0,0:0:0:0:
276,188,68822,1,8,0:0:0:0:
276,188,68959,1,8,0:0:0:0:
276,188,69027,1,8,0:0:0:0:
280,188,69095,1,0,0:0:0:0:
276,192,69368,1,8,0:0:0:0:
264,192,69504,1,0,0:0:0:0:
272,188,69777,1,0,0:0:0:0:
272,188,69913,1,8,0:0:0:0:
272,188,70186,1,8,0:0:0:0:
256,192,70595,1,0,0:0:0:0:
264,184,71004,1,8,0:0:0:0:
264,184,71277,1,12,0:0:0:0:
264,184,71413,1,12,0:0:0:0:
264,184,71549,1,12,0:0:0:0:
256,176,72095,1,8,0:0:0:0:
256,176,72231,1,0,0:0:0:0:
256,176,72367,1,0,0:0:0:0:
260,176,72640,1,0,0:0:0:0:
244,176,72913,1,0,0:0:0:0:
244,176,73049,1,0,0:0:0:0:
244,176,73118,1,0,0:0:0:0:
244,176,73186,1,8,0:0:0:0:
264,188,73322,1,8,0:0:0:0:
248,184,73459,1,0,0:0:0:0:
248,200,73868,1,0,0:0:0:0:
248,200,73936,1,0,0:0:0:0:
248,200,74004,1,8,0:0:0:0:
248,192,74277,1,0,0:0:0:0:
252,184,74549,1,8,0:0:0:0:
252,184,74686,1,8,0:0:0:0:
252,184,74822,1,0,0:0:0:0:
256,176,75095,1,8,0:0:0:0:
256,176,75231,1,0,0:0:0:0:
256,176,75368,1,8,0:0:0:0:
256,176,75504,1,0,0:0:0:0:
256,176,75640,1,0,0:0:0:0:
260,184,75709,1,0,0:0:0:0:
248,172,75777,1,0,0:0:0:0:
248,172,75913,1,8,0:0:0:0:
248,172,76049,1,8,0:0:0:0:
248,172,76186,1,0,0:0:0:0:
248,172,76322,1,8,0:0:0:0:
248,172,76459,1,0,0:0:0:0:
248,172,76595,1,8,0:0:0:0:
248,172,76731,1,0,0:0:0:0:
284,160,76799,1,0,0:0:0:0:
248,172,76868,1,0,0:0:0:0:
248,172,77004,1,8,0:0:0:0:
248,172,77140,1,8,0:0:0:0:
248,172,77277,1,0,0:0:0:0:
248,172,77413,1,8,0:0:0:0:
248,172,77549,1,0,0:0:0:0:
248,172,77686,1,8,0:0:0:0:
248,172,77822,1,0,0:0:0:0:
248,172,77890,1,0,0:0:0:0:
248,188,77959,1,0,0:0:0:0:
248,172,78095,1,8,0:0:0:0:
248,172,78231,1,8,0:0:0:0:
248,172,78368,1,0,0:0:0:0:
248,172,78504,1,8,0:0:0:0:
256,164,78640,1,0,0:0:0:0:
256,164,78777,1,8,0:0:0:0:
256,172,78913,1,0,0:0:0:0:
268,168,78981,1,0,0:0:0:0:
268,168,79049,1,0,0:0:0:0:
256,172,79186,1,8,0:0:0:0:
256,172,79322,1,8,0:0:0:0:
256,172,79459,1,0,0:0:0:0:
256,172,79595,1,8,0:0:0:0:
256,172,79731,1,0,0:0:0:0:
256,172,79868,1,8,0:0:0:0:
248,180,80549,1,4,0:0:0:0:
256,192,80822,12,0,84095,0:0:0:0:
355,184,84368,5,0,0:0:0:0:
256,184,84640,1,0,0:0:0:0:
248,192,84913,1,8,0:0:0:0:
248,192,85095,1,8,0:0:0:0:
248,192,85277,1,0,0:0:0:0:
248,192,85459,1,8,0:0:0:0:
248,192,85640,1,0,0:0:0:0:
248,192,85822,1,8,0:0:0:0:
248,192,86004,1,8,0:0:0:0:
248,192,86186,1,8,0:0:0:0:
248,192,86368,1,0,0:0:0:0:
248,192,86549,1,12,0:0:0:0:
