osu file format v14

[General]
AudioFilename: audio.mp3
AudioLeadIn: 0
PreviewTime: 48640
Countdown: 0
SampleSet: Normal
StackLeniency: 0.7
Mode: 1
LetterboxInBreaks: 0
WidescreenStoryboard: 0

[Editor]
DistanceSpacing: 1.2
BeatDivisor: 4
GridSize: 32
TimelineZoom: 2.799999

[Metadata]
Title:JoJo Sono Chi no Kioku~end of THE WORLD~
TitleUnicode:ジョジョ その血の記憶~end of THE WORLD~
Artist:JO*STARS ~TOMMY, Coda, JIN~
ArtistUnicode:JO☆STARS ~TOMMY, Coda, JIN~
Creator:Oui
Version:Inner Oni
Source:JoJo's Bizarre Adventure: Stardust Crusaders 2nd Season
Tags:Kimyou na Bouken part 3 Opening TV size
BeatmapID:950755
BeatmapSetID:442080

[Difficulty]
HPDrainRate:7
CircleSize:2
OverallDifficulty:5
ApproachRate:5
SliderMultiplier:1.4
SliderTickRate:1

[Events]
//Background and Video events
0,0,"bg.png",0,0
//Break Periods
//Storyboard Layer 0 (Background)
//Storyboard Layer 1 (Fail)
//Storyboard Layer 2 (Pass)
//Storyboard Layer 3 (Foreground)
//Storyboard Sound Samples

[TimingPoints]
11277,272.727272727273,4,1,0,80,1,0
32004,-133.333333333333,4,1,0,80,0,0
36368,-100,4,1,0,80,0,0
41277,-133.333333333333,4,1,0,80,0,0
42913,-100,4,1,0,80,0,0
49458,-100,4,1,0,80,0,1
60367,-100,4,1,0,80,0,0
60777,-200,4,1,0,80,0,0
63913,-100,4,1,0,80,0,0
71959,-100,4,1,0,80,0,0
75640,-100,4,1,0,80,0,1
79867,-100,4,1,0,80,0,0
80754,-25,4,1,0,80,0,0
84368,-66.6666666666667,4,1,0,80,0,0

[HitObjects]
256,192,11277,12,0,14277,0:0:0:0:
256,192,14549,5,0,0:0:0:0:
256,192,14618,1,0,0:0:0:0:
256,192,14686,1,0,0:0:0:0:
256,192,14822,1,8,0:0:0:0:
256,192,14959,1,0,0:0:0:0:
256,192,15027,1,0,0:0:0:0:
256,192,15095,1,0,0:0:0:0:
256,192,15231,1,0,0:0:0:0:
256,192,15368,1,8,0:0:0:0:
256,192,15504,1,0,0:0:0:0:
256,192,15640,5,0,0:0:0:0:
256,192,15708,1,0,0:0:0:0:
256,192,15777,1,8,0:0:0:0:
256,192,15913,1,8,0:0:0:0:
256,192,16050,1,0,0:0:0:0:
256,192,16118,1,0,0:0:0:0:
256,192,16186,1,8,0:0:0:0:
256,192,16322,1,0,0:0:0:0:
256,192,16459,1,8,0:0:0:0:
256,192,16595,1,0,0:0:0:0:
256,192,16731,5,8,0:0:0:0:
256,192,16868,1,0,0:0:0:0:
256,192,17004,1,8,0:0:0:0:
256,192,17141,1,0,0:0:0:0:
256,192,17209,1,0,0:0:0:0:
256,192,17277,1,8,0:0:0:0:
256,192,17413,1,0,0:0:0:0:
256,192,17550,1,8,0:0:0:0:
256,192,17686,1,0,0:0:0:0:
256,192,17822,5,8,0:0:0:0:
256,192,17959,1,0,0:0:0:0:
256,192,18095,1,0,0:0:0:0:
256,192,18163,1,0,0:0:0:0:
256,192,18232,1,8,0:0:0:0:
256,192,18368,1,0,0:0:0:0:
256,192,18436,1,0,0:0:0:0:
256,192,18504,1,8,0:0:0:0:
256,192,18572,1,0,0:0:0:0:
256,192,18640,1,8,0:0:0:0:
256,192,18709,1,8,0:0:0:0:
256,192,18777,1,0,0:0:0:0:
256,192,18845,1,0,0:0:0:0:
256,192,18913,1,8,0:0:0:0:
256,192,19322,1,8,0:0:0:0:
256,192,19390,1,8,0:0:0:0:
256,192,19459,1,0,0:0:0:0:
256,192,19731,1,0,0:0:0:0:
256,192,20004,1,8,0:0:0:0:
256,192,20072,1,8,0:0:0:0:
256,192,20140,1,0,0:0:0:0:
256,192,20413,1,0,0:0:0:0:
256,192,20549,1,8,0:0:0:0:
256,192,20618,1,8,0:0:0:0:
256,192,20686,1,0,0:0:0:0:
256,192,20822,1,8,0:0:0:0:
256,192,20890,1,8,0:0:0:0:
256,192,20959,1,0,0:0:0:0:
256,192,21095,1,8,0:0:0:0:
256,192,21231,1,0,0:0:0:0:
256,192,21299,1,0,0:0:0:0:
256,192,21368,1,0,0:0:0:0:
256,192,21504,1,0,0:0:0:0:
256,192,21640,1,8,0:0:0:0:
256,192,21777,1,0,0:0:0:0:
256,192,21845,1,0,0:0:0:0:
256,192,21913,1,8,0:0:0:0:
256,192,22049,1,0,0:0:0:0:
256,192,22186,1,8,0:0:0:0:
256,192,22254,1,0,0:0:0:0:
256,192,22322,1,0,0:0:0:0:
256,192,22459,1,8,0:0:0:0:
256,192,22527,1,0,0:0:0:0:
256,192,22595,1,0,0:0:0:0:
256,192,22731,1,8,0:0:0:0:
256,192,22799,1,0,0:0:0:0:
256,192,22868,1,0,0:0:0:0:
256,192,23004,1,8,0:0:0:0:
256,192,23277,1,8,0:0:0:0:
256,192,23413,1,0,0:0:0:0:
256,192,23481,1,8,0:0:0:0:
256,192,23549,1,0,0:0:0:0:
256,192,23617,1,0,0:0:0:0:
256,192,23686,1,8,0:0:0:0:
256,192,23822,1,8,0:0:0:0:
256,192,24095,1,8,0:0:0:0:
256,192,24368,1,4,0:0:0:0:
256,192,24640,1,12,0:0:0:0:
256,192,24913,1,12,0:0:0:0:
256,192,25459,1,8,0:0:0:0:
256,192,25595,1,0,0:0:0:0:
256,192,25868,1,0,0:0:0:0:
256,192,26004,1,8,0:0:0:0:
256,192,26277,1,0,0:0:0:0:
256,192,26549,1,12,0:0:0:0:
256,192,26822,1,12,0:0:0:0:
256,192,27095,1,12,0:0:0:0:
256,192,27368,1,0,0:0:0:0:
256,192,27504,1,0,0:0:0:0:
256,192,27640,2,0,P|256:64|384:96,1,280
256,192,28322,1,0,0:0:0:0:
256,192,28459,1,8,0:0:0:0:
256,192,28595,1,8,0:0:0:0:
256,192,28731,1,0,0:0:0:0:
256,192,29277,1,8,0:0:0:0:
256,192,29345,1,8,0:0:0:0:
256,192,29413,1,0,0:0:0:0:
256,192,29549,1,8,0:0:0:0:
256,192,29686,1,0,0:0:0:0:
256,192,29822,1,8,0:0:0:0:
256,192,29958,1,0,0:0:0:0:
256,192,30027,1,0,0:0:0:0:
256,192,30095,1,8,0:0:0:0:
256,192,30231,1,8,0:0:0:0:
256,192,30299,1,8,0:0:0:0:
256,192,30368,1,0,0:0:0:0:
256,192,30436,1,0,0:0:0:0:
256,192,30504,1,0,0:0:0:0:
256,192,30572,1,0,0:0:0:0:
256,192,30640,1,8,0:0:0:0:
256,192,30708,1,0,0:0:0:0:
256,192,30777,1,0,0:0:0:0:
256,192,30845,1,0,0:0:0:0:
256,192,30913,1,8,0:0:0:0:
256,192,31049,1,0,0:0:0:0:
256,192,31118,1,0,0:0:0:0:
256,192,31186,1,8,0:0:0:0:
256,192,31322,1,0,0:0:0:0:
256,192,31595,1,12,0:0:0:0:
256,192,32004,1,8,0:0:0:0:
256,192,32186,1,0,0:0:0:0:
256,192,32458,1,0,0:0:0:0:
256,192,32595,1,8,0:0:0:0:
256,192,32867,1,0,0:0:0:0:
256,192,33095,1,8,0:0:0:0:
256,192,33367,1,8,0:0:0:0:
256,192,34186,1,8,0:0:0:0:
256,192,34368,1,0,0:0:0:0:
256,192,34595,1,0,0:0:0:0:
256,192,34731,1,8,0:0:0:0:
256,192,34958,1,0,0:0:0:0:
256,192,35140,1,0,0:0:0:0:
256,192,35277,1,8,0:0:0:0:
256,192,36368,1,8,0:0:0:0:
256,192,36436,1,0,0:0:0:0:
256,192,36504,1,0,0:0:0:0:
256,192,36572,1,8,0:0:0:0:
256,192,36640,1,0,0:0:0:0:
256,192,36709,1,0,0:0:0:0:
256,192,36777,1,8,0:0:0:0:
256,192,36845,1,0,0:0:0:0:
256,192,36913,1,8,0:0:0:0:
256,192,36981,1,0,0:0:0:0:
256,192,37049,1,0,0:0:0:0:
256,192,37118,1,0,0:0:0:0:
256,192,37186,1,8,0:0:0:0:
256,192,37254,1,0,0:0:0:0:
256,192,37322,1,0,0:0:0:0:
256,192,37390,1,0,0:0:0:0:
256,192,37459,1,8,0:0:0:0:
256,192,37527,1,0,0:0:0:0:
256,192,37595,1,0,0:0:0:0:
256,192,37663,1,0,0:0:0:0:
256,192,37731,1,8,0:0:0:0:
256,192,37867,1,8,0:0:0:0:
256,192,38004,1,8,0:0:0:0:
256,192,38072,1,0,0:0:0:0:
256,192,38140,1,0,0:0:0:0:
256,192,38277,1,8,0:0:0:0:
256,192,38413,1,0,0:0:0:0:
256,192,38549,1,8,0:0:0:0:
256,192,38890,1,8,0:0:0:0:
256,192,39027,1,0,0:0:0:0:
256,192,39231,1,0,0:0:0:0:
256,192,39436,1,8,0:0:0:0:
256,192,39640,1,8,0:0:0:0:
256,192,39913,1,8,0:0:0:0:
256,192,40049,1,0,0:0:0:0:
256,192,40186,1,0,0:0:0:0:
256,192,40322,1,0,0:0:0:0:
256,192,40459,1,8,0:0:0:0:
256,192,40731,1,4,0:0:0:0:
256,192,41277,1,12,0:0:0:0:
256,192,41822,1,4,0:0:0:0:
256,192,42368,1,12,0:0:0:0:
256,192,42913,1,8,0:0:0:0:
256,192,43049,1,8,0:0:0:0:
256,192,43186,1,0,0:0:0:0:
256,192,43322,1,8,0:0:0:0:
256,192,43595,1,8,0:0:0:0:
256,192,43731,1,0,0:0:0:0:
256,192,44822,1,12,0:0:0:0:
256,192,45095,1,8,0:0:0:0:
256,192,45231,1,0,0:0:0:0:
256,192,45368,1,0,0:0:0:0:
256,192,45504,1,8,0:0:0:0:
256,192,45640,1,8,0:0:0:0:
256,192,45777,1,0,0:0:0:0:
256,192,45913,1,12,0:0:0:0:
256,192,46322,1,8,0:0:0:0:
256,192,46459,1,8,0:0:0:0:
256,192,46595,1,0,0:0:0:0:
256,192,46731,1,8,0:0:0:0:
256,192,46868,1,8,0:0:0:0:
256,192,47004,1,8,0:0:0:0:
256,192,47140,1,0,0:0:0:0:
256,192,47277,1,12,0:0:0:0:
256,192,47549,1,0,0:0:0:0:
256,192,47686,1,0,0:0:0:0:
256,192,47822,1,12,0:0:0:0:
256,192,48095,1,0,0:0:0:0:
256,192,48367,1,8,0:0:0:0:
256,192,48436,1,0,0:0:0:0:
256,192,48504,1,0,0:0:0:0:
256,192,48640,1,8,0:0:0:0:
256,192,48777,1,0,0:0:0:0:
256,192,48913,1,0,0:0:0:0:
256,192,48981,1,0,0:0:0:0:
256,192,49049,1,0,0:0:0:0:
256,192,49186,1,8,0:0:0:0:
256,192,49322,1,0,0:0:0:0:
256,192,49459,1,8,0:0:0:0:
256,192,49527,1,0,0:0:0:0:
256,192,49595,1,0,0:0:0:0:
256,192,49731,1,8,0:0:0:0:
256,192,49868,1,0,0:0:0:0:
256,192,50004,1,8,0:0:0:0:
256,192,50072,1,8,0:0:0:0:
256,192,50140,1,0,0:0:0:0:
256,192,50277,1,8,0:0:0:0:
256,192,50413,1,0,0:0:0:0:
256,192,50549,1,8,0:0:0:0:
256,192,50617,1,0,0:0:0:0:
256,192,50686,1,8,0:0:0:0:
256,192,50822,1,8,0:0:0:0:
256,192,50890,1,0,0:0:0:0:
256,192,50959,1,8,0:0:0:0:
256,192,51027,1,0,0:0:0:0:
256,192,51095,1,8,0:0:0:0:
256,192,51163,1,8,0:0:0:0:
256,192,51231,1,0,0:0:0:0:
256,192,51368,1,0,0:0:0:0:
256,192,51504,1,0,0:0:0:0:
256,192,51572,1,0,0:0:0:0:
256,192,51640,1,0,0:0:0:0:
256,192,51708,1,0,0:0:0:0:
256,192,51776,1,8,0:0:0:0:
256,192,51913,1,8,0:0:0:0:
256,192,52049,1,0,0:0:0:0:
256,192,52186,1,8,0:0:0:0:
256,192,52254,1,0,0:0:0:0:
256,192,52322,1,8,0:0:0:0:
256,192,52458,1,8,0:0:0:0:
256,192,52527,1,8,0:0:0:0:
256,192,52595,1,0,0:0:0:0:
256,192,52731,1,4,0:0:0:0:
256,192,53004,1,12,0:0:0:0:
256,192,53277,1,12,0:0:0:0:
256,192,53822,1,8,0:0:0:0:
256,192,53890,1,0,0:0:0:0:
256,192,53959,1,8,0:0:0:0:
256,192,54027,1,0,0:0:0:0:
256,192,54095,1,0,0:0:0:0:
256,192,54163,1,0,0:0:0:0:
256,192,54231,1,8,0:0:0:0:
256,192,54368,1,8,0:0:0:0:
256,192,54504,1,0,0:0:0:0:
256,192,54640,1,0,0:0:0:0:
256,192,54777,1,8,0:0:0:0:
256,192,54913,1,4,0:0:0:0:
256,192,55186,1,12,0:0:0:0:
256,192,55459,1,12,0:0:0:0:
256,192,56004,1,8,0:0:0:0:
256,192,56231,1,8,0:0:0:0:
256,192,56413,1,8,0:0:0:0:
256,192,56618,1,8,0:0:0:0:
256,192,56822,1,8,0:0:0:0:
256,192,56959,1,8,0:0:0:0:
256,192,57140,1,0,0:0:0:0:
256,192,57368,1,0,0:0:0:0:
256,192,57504,1,8,0:0:0:0:
256,192,57640,1,8,0:0:0:0:
256,192,57708,1,8,0:0:0:0:
256,192,57777,1,0,0:0:0:0:
256,192,57913,1,8,0:0:0:0:
256,192,57981,1,8,0:0:0:0:
256,192,58050,1,0,0:0:0:0:
256,192,58186,1,8,0:0:0:0:
256,192,58254,1,8,0:0:0:0:
256,192,58322,1,0,0:0:0:0:
256,192,58459,1,8,0:0:0:0:
256,192,58595,1,0,0:0:0:0:
256,192,58731,1,8,0:0:0:0:
256,192,58799,1,0,0:0:0:0:
256,192,58868,1,0,0:0:0:0:
256,192,59004,1,12,0:0:0:0:
256,192,59140,1,0,0:0:0:0:
256,192,59277,1,8,0:0:0:0:
256,192,59345,1,0,0:0:0:0:
256,192,59414,1,0,0:0:0:0:
256,192,59550,1,12,0:0:0:0:
256,192,59686,1,0,0:0:0:0:
256,192,59822,1,8,0:0:0:0:
256,192,59890,1,0,0:0:0:0:
256,192,59959,1,8,0:0:0:0:
256,192,60027,1,0,0:0:0:0:
256,192,60095,1,8,0:0:0:0:
256,192,60231,1,0,0:0:0:0:
256,192,60368,1,8,0:0:0:0:
256,192,60777,1,8,0:0:0:0:
256,192,60981,1,0,0:0:0:0:
256,192,61186,1,0,0:0:0:0:
256,192,61459,1,8,0:0:0:0:
256,192,61595,1,0,0:0:0:0:
256,192,61868,1,0,0:0:0:0:
256,192,62004,1,8,0:0:0:0:
256,192,62277,1,8,0:0:0:0:
256,192,62549,1,8,0:0:0:0:
256,192,62959,1,8,0:0:0:0:
256,192,63231,1,0,0:0:0:0:
256,192,63367,1,8,0:0:0:0:
256,192,63640,1,0,0:0:0:0:
256,192,63913,1,0,0:0:0:0:
256,192,64186,1,0,0:0:0:0:
256,192,64459,1,8,0:0:0:0:
256,192,64731,1,8,0:0:0:0:
256,192,64799,1,0,0:0:0:0:
256,192,64868,1,0,0:0:0:0:
256,192,65004,1,8,0:0:0:0:
256,192,65140,1,8,0:0:0:0:
256,192,65277,1,0,0:0:0:0:
256,192,65413,1,0,0:0:0:0:
256,192,65549,1,8,0:0:0:0:
256,192,65686,1,4,0:0:0:0:
256,192,65822,1,4,0:0:0:0:
256,192,66095,1,4,0:0:0:0:
256,192,66368,1,12,0:0:0:0:
256,192,66640,1,4,0:0:0:0:
256,192,66777,1,12,0:0:0:0:
256,192,66913,1,0,0:0:0:0:
256,192,67049,1,0,0:0:0:0:
256,192,67118,1,0,0:0:0:0:
256,192,67186,1,8,0:0:0:0:
256,192,67322,1,0,0:0:0:0:
256,192,67459,1,8,0:0:0:0:
256,192,67527,1,8,0:0:0:0:
256,192,67595,1,0,0:0:0:0:
256,192,67663,1,0,0:0:0:0:
256,192,67731,1,8,0:0:0:0:
256,192,67868,1,0,0:0:0:0:
256,192,68004,1,8,0:0:0:0:
256,192,68277,1,8,0:0:0:0:
256,192,68345,1,0,0:0:0:0:
256,192,68413,1,0,0:0:0:0:
256,192,68549,1,0,0:0:0:0:
256,192,68822,1,8,0:0:0:0:
256,192,69095,1,8,0:0:0:0:
256,192,69163,1,8,0:0:0:0:
256,192,69231,1,8,0:0:0:0:
256,192,69368,1,8,0:0:0:0:
256,192,69504,1,8,0:0:0:0:
256,192,69640,1,0,0:0:0:0:
256,192,69913,1,8,0:0:0:0:
256,192,70186,1,0,0:0:0:0:
256,192,70595,1,0,0:0:0:0:
256,192,71004,1,8,0:0:0:0:
256,192,71277,1,8,0:0:0:0:
256,192,71413,1,0,0:0:0:0:
256,192,71549,1,8,0:0:0:0:
256,192,73049,1,0,0:0:0:0:
256,192,73118,1,0,0:0:0:0:
256,192,73186,1,8,0:0:0:0:
256,192,73459,1,0,0:0:0:0:
256,192,73867,1,0,0:0:0:0:
256,192,74004,1,8,0:0:0:0:
256,192,74277,1,0,0:0:0:0:
256,192,74549,1,8,0:0:0:0:
256,192,74618,1,0,0:0:0:0:
256,192,74686,1,8,0:0:0:0:
256,192,74754,1,0,0:0:0:0:
256,192,74822,1,0,0:0:0:0:
256,192,74959,1,0,0:0:0:0:
256,192,75095,1,8,0:0:0:0:
256,192,75231,1,8,0:0:0:0:
256,192,75299,1,0,0:0:0:0:
256,192,75368,1,0,0:0:0:0:
256,192,75504,1,8,0:0:0:0:
256,192,75640,1,0,0:0:0:0:
256,192,75777,1,8,0:0:0:0:
256,192,75913,1,0,0:0:0:0:
256,192,75981,1,0,0:0:0:0:
256,192,76049,1,8,0:0:0:0:
256,192,76186,1,0,0:0:0:0:
256,192,76322,1,8,0:0:0:0:
256,192,76459,1,0,0:0:0:0:
256,192,76527,1,0,0:0:0:0:
256,192,76595,1,8,0:0:0:0:
256,192,76731,1,0,0:0:0:0:
256,192,76799,1,0,0:0:0:0:
256,192,76868,1,8,0:0:0:0:
256,192,77004,1,0,0:0:0:0:
256,192,77072,1,0,0:0:0:0:
256,192,77140,1,8,0:0:0:0:
256,192,77277,1,0,0:0:0:0:
256,192,77345,1,0,0:0:0:0:
256,192,77413,1,8,0:0:0:0:
256,192,77549,1,0,0:0:0:0:
256,192,77618,1,0,0:0:0:0:
256,192,77686,1,8,0:0:0:0:
256,192,77822,1,0,0:0:0:0:
256,192,77891,1,0,0:0:0:0:
256,192,77959,1,8,0:0:0:0:
256,192,78027,1,8,0:0:0:0:
256,192,78095,1,0,0:0:0:0:
256,192,78163,1,0,0:0:0:0:
256,192,78231,1,8,0:0:0:0:
256,192,78368,1,0,0:0:0:0:
256,192,78436,1,0,0:0:0:0:
256,192,78505,1,8,0:0:0:0:
256,192,78572,1,8,0:0:0:0:
256,192,78640,1,0,0:0:0:0:
256,192,78709,1,0,0:0:0:0:
256,192,78777,1,8,0:0:0:0:
256,192,78913,1,0,0:0:0:0:
256,192,78982,1,0,0:0:0:0:
256,192,79050,1,8,0:0:0:0:
256,192,79118,1,8,0:0:0:0:
256,192,79186,1,0,0:0:0:0:
256,192,79254,1,0,0:0:0:0:
256,192,79322,1,8,0:0:0:0:
256,192,79391,1,0,0:0:0:0:
256,192,79459,1,0,0:0:0:0:
256,192,79528,1,0,0:0:0:0:
256,192,79596,1,8,0:0:0:0:
256,192,79663,1,8,0:0:0:0:
256,192,79732,1,0,0:0:0:0:
256,192,79800,1,0,0:0:0:0:
256,192,79868,1,8,0:0:0:0:
256,192,80549,1,4,0:0:0:0:
256,192,80686,1,4,0:0:0:0:
256,192,80959,12,0,83822,0:0:0:0:
256,192,84368,5,4,0:0:0:0:
256,192,84640,1,4,0:0:0:0:
256,192,84913,1,12,0:0:0:0:
256,192,85095,1,4,0:0:0:0:
256,192,85277,1,4,0:0:0:0:
256,192,85459,1,12,0:0:0:0:
256,192,85640,1,4,0:0:0:0:
256,192,85822,1,4,0:0:0:0:
256,192,86004,1,4,0:0:0:0:
256,192,86186,1,12,0:0:0:0:
256,192,86368,1,4,0:0:0:0:
256,192,86549,1,12,0:0:0:0:
