osu file format v14

[General]
AudioFilename: audio.mp3
AudioLeadIn: 0
PreviewTime: 48640
Countdown: 0
SampleSet: Soft
StackLeniency: 0.7
Mode: 3
LetterboxInBreaks: 0
SpecialStyle: 0
WidescreenStoryboard: 1

[Editor]
DistanceSpacing: 2
BeatDivisor: 4
GridSize: 4
TimelineZoom: 1.2

[Metadata]
Title:JoJo Sono Chi no Kioku ~end of THE WORLD~ (TV Size)
TitleUnicode:ジョジョ その血の記憶 ~end of THE WORLD~ (TV Size)
Artist:JO*STARS ~TOMMY, Coda, JIN~
ArtistUnicode:JO☆STARS ~TOMMY, Coda, JIN~
Creator:menphiss
Version:Normal
Source:ジョジョの奇妙な冒険 スターダストクルセイダース
Tags:jojo's bizarre adventure: stardust crusaders second season kimyou na bouken part 3 opening hiroaki "tommy" tominaga hashimoto jin 藤林聖子 shoko fujibayashi 田中公平 kohei tanaka 村瀨恭久 yasuhisa murase japanese anime Apis035 rock jrock j-rock
BeatmapID:1990344
BeatmapSetID:953252

[Difficulty]
HPDrainRate:7
CircleSize:4
OverallDifficulty:7
ApproachRate:5
SliderMultiplier:1.4
SliderTickRate:1

[Events]
//Background and Video events
0,0,"Jotaro.jpg",0,0
//Break Periods
//Storyboard Layer 0 (Background)
//Storyboard Layer 1 (Fail)
//Storyboard Layer 2 (Pass)
//Storyboard Layer 3 (Foreground)
//Storyboard Layer 4 (Overlay)
//Storyboard Sound Samples
Sample,36640,0,"hihat.wav",70
Sample,36913,0,"hihat.wav",70
Sample,37459,0,"hihat.wav",70
Sample,38004,0,"hihat.wav",70
Sample,45640,0,"hihat.wav",70
Sample,46731,0,"hihat.wav",70
Sample,47822,0,"hihat.wav",70
Sample,48368,0,"hihat.wav",70
Sample,49186,0,"hihat.wav",70
Sample,49459,0,"hihat.wav",40
Sample,50549,0,"hihat.wav",40
Sample,51640,0,"hihat.wav",40
Sample,52731,0,"hihat.wav",40
Sample,56822,0,"hihat.wav",40
Sample,57095,0,"hihat.wav",40
Sample,57368,0,"hihat.wav",40
Sample,57913,0,"hihat.wav",40
Sample,68004,0,"hihat.wav",40
Sample,68549,0,"hihat.wav",40
Sample,75640,0,"hihat.wav",40
Sample,75913,0,"hihat.wav",40
Sample,76186,0,"hihat.wav",40
Sample,76459,0,"hihat.wav",40
Sample,76731,0,"hihat.wav",40
Sample,77004,0,"hihat.wav",40
Sample,77277,0,"hihat.wav",40
Sample,77549,0,"hihat.wav",40
Sample,77822,0,"hihat.wav",40
Sample,78095,0,"hihat.wav",40
Sample,78368,0,"hihat.wav",40
Sample,78640,0,"hihat.wav",40
Sample,79186,0,"hihat.wav",40
Sample,79459,0,"hihat.wav",40
Sample,79731,0,"hihat.wav",40

[TimingPoints]
13459,272.727272727273,4,2,1,60,1,0
18913,-100.0,4,2,1,50,0,0
32004,-100.0,4,2,1,45,0,0
36368,-100.0,4,2,1,30,0,0
48777,-100.0,4,2,1,35,0,0
48913,-100.0,4,2,1,40,0,0
49049,-100.0,4,2,1,45,0,0
49186,-100.0,4,2,1,50,0,0
49322,-100.0,4,2,1,55,0,0
49459,-100.0,4,2,1,60,0,0
60368,-100.0,4,2,1,50,0,0
64731,-100.0,4,2,1,60,0,1
71686,-100.0,4,2,1,60,0,0
75640,-100.0,4,2,1,60,0,1
80686,-100.0,4,2,1,60,0,0

[HitObjects]
192,192,13459,128,0,14549:0:0:0:0:
320,192,14549,1,2,0:0:0:0:
448,192,14549,1,4,0:0:0:0:
64,192,14822,1,8,0:0:0:0:
448,192,14822,1,0,0:0:0:70:hihat.wav
320,192,14959,1,2,0:0:0:0:
192,192,15231,1,2,0:0:0:0:
64,192,15368,1,8,0:0:0:0:
448,192,15368,1,0,0:0:0:70:hihat.wav
192,192,15640,1,2,0:0:0:0:
64,192,15913,1,8,0:0:0:0:
320,192,15913,1,0,0:0:0:70:hihat.wav
448,192,16049,1,2,0:0:0:0:
64,192,16322,1,2,0:0:0:0:
192,192,16459,1,8,0:0:0:0:
320,192,16459,1,0,0:0:0:70:hihat.wav
64,192,16731,1,2,0:0:0:0:
192,192,17004,1,8,0:0:0:0:
448,192,17004,1,0,0:0:0:70:hihat.wav
320,192,17140,1,2,0:0:0:0:
448,192,17413,1,2,0:0:0:0:
64,192,17549,128,8,17822:0:0:0:0:
192,192,17549,1,0,0:0:0:70:hihat.wav
320,192,17822,1,8,0:0:0:0:
448,192,17822,128,4,18368:0:0:0:0:
192,192,17959,1,6,0:0:0:0:
64,192,18231,1,6,0:0:0:0:
192,192,18368,128,0,18913:0:0:0:0:
320,192,18640,128,6,18913:0:0:0:0:
64,192,18913,1,4,0:0:0:0:
448,192,18913,1,2,0:0:0:0:
320,192,19186,1,0,0:0:0:0:
192,192,19459,1,0,0:0:0:0:
320,192,19731,1,8,0:0:0:0:
448,192,19731,1,0,0:0:0:0:
64,192,20004,1,2,0:0:0:0:
448,192,20277,1,0,0:0:0:0:
320,192,20549,1,0,0:0:0:0:
192,192,20822,1,8,0:0:0:0:
448,192,20822,1,0,0:0:0:0:
64,192,21095,1,2,0:0:0:0:
320,192,21368,1,0,0:0:0:0:
448,192,21640,1,0,0:0:0:0:
192,192,21913,1,8,0:0:0:0:
320,192,21913,1,0,0:0:0:0:
448,192,22186,128,2,22459:0:0:0:0:
64,192,22459,128,2,22731:0:0:0:0:
320,192,22731,128,2,23004:0:0:0:0:
192,192,23004,128,2,23277:0:0:0:0:
448,192,23004,1,8,0:0:0:0:
64,192,23277,1,2,0:0:0:0:
448,192,23549,1,0,0:0:0:0:
64,192,23822,1,0,0:0:0:0:
320,192,24095,1,8,0:0:0:0:
448,192,24095,1,0,0:0:0:0:
64,192,24368,1,2,0:0:0:0:
192,192,24368,1,4,0:0:0:0:
192,192,24640,1,4,0:0:0:0:
448,192,24640,1,2,0:0:0:0:
320,192,24913,1,4,0:0:0:0:
448,192,24913,1,2,0:0:0:0:
192,192,25186,1,8,0:0:0:0:
448,192,25459,1,2,0:0:0:0:
64,192,25731,1,0,0:0:0:0:
320,192,26004,1,0,0:0:0:0:
192,192,26277,1,8,0:0:0:0:
448,192,26277,1,0,0:0:0:0:
64,192,26549,1,2,0:0:0:0:
320,192,26549,1,4,0:0:0:0:
64,192,26822,1,4,0:0:0:0:
448,192,26822,1,2,0:0:0:0:
192,192,27095,1,2,0:0:0:0:
448,192,27095,1,4,0:0:0:0:
320,192,27368,1,8,0:0:0:0:
64,192,27640,1,2,0:0:0:0:
448,192,27640,1,4,0:0:0:0:
192,192,27913,1,8,0:0:0:0:
320,192,27913,1,0,0:0:0:0:
64,192,28049,1,2,0:0:0:0:
320,192,28322,1,2,0:0:0:0:
192,192,28459,1,8,0:0:0:0:
448,192,28459,1,0,0:0:0:0:
320,192,28731,1,2,0:0:0:0:
64,192,29004,1,8,0:0:0:0:
448,192,29004,1,0,0:0:0:0:
192,192,29140,1,2,0:0:0:0:
320,192,29413,1,2,0:0:0:0:
192,192,29549,1,8,0:0:0:0:
448,192,29549,1,0,0:0:0:0:
64,192,29822,1,2,0:0:0:0:
192,192,30095,1,2,0:0:0:0:
320,192,30368,1,2,0:0:0:0:
448,192,30640,1,2,0:0:0:0:
64,192,30913,1,2,0:0:0:0:
448,192,31049,1,2,0:0:0:0:
320,192,31186,1,8,0:0:0:0:
192,192,31595,128,6,32004:0:0:0:0:
64,192,32004,128,6,33095:0:0:0:0:
320,192,33095,128,2,34186:0:0:0:0:
448,192,34186,128,2,35277:0:0:0:0:
64,192,35277,128,2,36368:0:0:0:0:
320,192,35549,1,2,0:0:0:0:
192,192,35822,1,2,0:0:0:0:
448,192,36095,1,2,0:0:0:0:
192,192,36368,1,2,0:0:0:0:
320,192,36368,1,4,0:0:0:0:
448,192,36640,1,2,0:0:0:0:
64,192,36913,1,2,0:0:0:0:
320,192,37049,1,2,0:0:0:0:
192,192,37186,1,10,0:0:0:0:
448,192,37186,1,0,0:0:0:70:hihat.wav
320,192,37459,1,2,0:0:0:0:
64,192,37731,1,10,0:0:0:0:
192,192,37731,1,0,0:0:0:70:hihat.wav
448,192,38004,1,2,0:0:0:0:
192,192,38140,1,2,0:0:0:0:
64,192,38277,1,10,0:0:0:0:
320,192,38277,1,0,0:0:0:70:hihat.wav
448,192,38549,128,6,39095:0:0:0:0:
320,192,39095,128,6,39640:0:0:0:0:
192,192,39640,128,6,40459:0:0:0:0:
448,192,39913,128,8,40459:0:0:0:0:
320,192,40731,1,8,0:0:0:0:
448,192,40731,1,4,0:0:0:0:
64,192,41277,1,8,0:0:0:0:
192,192,41277,1,4,0:0:0:0:
320,192,41822,1,8,0:0:0:0:
448,192,41822,1,4,0:0:0:0:
64,192,42368,1,8,0:0:0:0:
192,192,42368,1,4,0:0:0:0:
448,192,42913,1,8,0:0:0:0:
320,192,43049,1,8,0:0:0:0:
64,192,43186,1,8,0:0:0:0:
192,192,43322,1,8,0:0:0:0:
320,192,43595,1,8,0:0:0:0:
448,192,43731,128,12,44004:0:0:0:0:
64,192,44004,128,0,44822:0:0:0:0:
320,192,44822,1,0,0:0:0:70:clap.wav
192,192,45095,1,2,0:0:0:0:
448,192,45095,128,4,47004:0:0:0:0:
64,192,45640,1,8,0:0:0:0:
320,192,45913,1,4,0:0:0:0:
192,192,46322,1,8,0:0:0:0:
64,192,46731,1,8,0:0:0:0:
320,192,47004,1,2,0:0:0:0:
192,192,47277,1,2,0:0:0:0:
320,192,47277,128,4,48368:0:0:0:0:
64,192,47686,1,2,0:0:0:0:
448,192,47822,1,8,0:0:0:0:
192,192,48095,1,2,0:0:0:0:
64,192,48368,1,8,0:0:0:0:
192,192,48640,128,6,49459:0:0:0:0:
448,192,49186,1,2,0:0:0:0:
320,192,49459,1,6,0:0:0:0:
64,192,49731,1,8,0:0:0:0:
448,192,49731,1,0,0:0:0:40:hihat.wav
192,192,50004,1,0,0:0:0:40:hihat.wav
64,192,50140,1,2,0:0:0:0:
320,192,50277,1,8,0:0:0:0:
448,192,50277,1,0,0:0:0:40:hihat.wav
64,192,50549,1,2,0:0:0:0:
192,192,50822,1,8,0:0:0:0:
320,192,50822,1,0,0:0:0:40:hihat.wav
64,192,50959,1,2,0:0:0:0:
448,192,51231,1,2,0:0:0:0:
64,192,51368,1,8,0:0:0:0:
192,192,51368,1,0,0:0:0:40:hihat.wav
320,192,51640,1,2,0:0:0:0:
64,192,51913,1,8,0:0:0:0:
448,192,51913,1,0,0:0:0:40:hihat.wav
192,192,52049,1,2,0:0:0:0:
320,192,52322,1,2,0:0:0:0:
64,192,52459,1,8,0:0:0:0:
192,192,52459,1,0,0:0:0:40:hihat.wav
448,192,52731,1,2,0:0:0:0:
192,192,53004,1,8,0:0:0:0:
320,192,53004,1,0,0:0:0:40:hihat.wav
64,192,53140,1,2,0:0:0:0:
192,192,53413,1,2,0:0:0:0:
320,192,53549,1,8,0:0:0:0:
448,192,53549,1,0,0:0:0:40:hihat.wav
64,192,53822,1,2,0:0:0:0:
192,192,53822,1,4,0:0:0:0:
320,192,54095,1,8,0:0:0:0:
448,192,54095,1,0,0:0:0:40:hihat.wav
192,192,54231,1,2,0:0:0:0:
320,192,54504,1,2,0:0:0:0:
64,192,54640,1,8,0:0:0:0:
448,192,54640,1,0,0:0:0:40:hihat.wav
192,192,54913,1,4,0:0:0:0:
320,192,54913,1,2,0:0:0:0:
64,192,55186,1,6,0:0:0:0:
448,192,55186,1,8,0:0:0:0:
192,192,55459,1,4,0:0:0:0:
320,192,55459,128,2,55868:0:0:0:0:
192,192,56004,1,6,0:0:0:0:
320,192,56277,1,8,0:0:0:0:
448,192,56277,1,0,0:0:0:40:hihat.wav
64,192,56549,128,0,57095:0:0:0:40:hihat.wav
320,192,56822,1,8,0:0:0:0:
192,192,57095,128,2,58186:0:0:0:0:
448,192,57368,1,8,0:0:0:0:
320,192,57640,1,0,0:0:0:40:hihat.wav
64,192,57913,1,8,0:0:0:0:
448,192,58186,128,2,59277:0:0:0:0:
64,192,58459,1,8,0:0:0:0:
192,192,58459,1,4,0:0:0:0:
64,192,59004,1,8,0:0:0:0:
192,192,59004,1,4,0:0:0:0:
64,192,59277,128,2,59822:0:0:0:0:
320,192,59549,1,8,0:0:0:0:
448,192,59549,1,4,0:0:0:0:
320,192,60095,1,8,0:0:0:0:
448,192,60095,1,4,0:0:0:0:
192,192,60368,128,6,61459:0:0:0:0:
64,192,60777,1,2,0:0:0:0:
448,192,61186,1,8,0:0:0:0:
64,192,61459,128,2,62549:0:0:0:0:
320,192,61868,1,2,0:0:0:0:
448,192,62277,1,8,0:0:0:0:
320,192,62549,128,2,63640:0:0:0:0:
192,192,62959,1,2,0:0:0:0:
64,192,63368,1,8,0:0:0:0:
192,192,63640,128,2,64731:0:0:0:0:
448,192,64049,1,2,0:0:0:0:
320,192,64459,1,8,0:0:0:0:
64,192,64731,1,6,0:0:0:0:
320,192,65004,1,8,0:0:0:0:
448,192,65004,1,0,0:0:0:40:hihat.wav
64,192,65277,1,0,0:0:0:40:hihat.wav
320,192,65413,1,2,0:0:0:0:
192,192,65549,1,8,0:0:0:0:
448,192,65549,1,0,0:0:0:40:hihat.wav
320,192,65822,1,6,0:0:0:0:
64,192,66095,1,8,0:0:0:0:
192,192,66095,1,0,0:0:0:40:hihat.wav
320,192,66368,1,0,0:0:0:40:hihat.wav
64,192,66504,1,2,0:0:0:0:
192,192,66640,1,8,0:0:0:0:
448,192,66640,1,0,0:0:0:40:hihat.wav
320,192,66913,1,6,0:0:0:0:
192,192,67186,1,8,0:0:0:0:
448,192,67186,1,0,0:0:0:40:hihat.wav
320,192,67459,1,0,0:0:0:40:hihat.wav
448,192,67595,1,2,0:0:0:0:
64,192,67731,1,8,0:0:0:0:
192,192,67731,1,0,0:0:0:40:hihat.wav
448,192,68004,1,2,0:0:0:0:
64,192,68140,1,2,0:0:0:0:
192,192,68277,1,8,0:0:0:0:
320,192,68277,1,0,0:0:0:40:hihat.wav
64,192,68549,1,2,0:0:0:0:
320,192,68686,1,2,0:0:0:0:
192,192,68822,1,8,0:0:0:0:
448,192,68822,1,0,0:0:0:40:hihat.wav
320,192,69095,1,0,0:0:0:0:
64,192,69368,1,8,0:0:0:0:
192,192,69368,1,0,0:0:0:40:hihat.wav
448,192,69640,1,0,0:0:0:40:hihat.wav
64,192,69777,1,2,0:0:0:0:
192,192,69913,1,8,0:0:0:0:
320,192,69913,1,0,0:0:0:40:hihat.wav
64,192,70186,1,2,0:0:0:0:
448,192,70595,1,6,0:0:0:0:
192,192,71004,1,6,0:0:0:0:
448,192,71277,1,2,0:0:0:0:
64,192,71413,1,10,0:0:0:0:
320,192,71549,1,10,0:0:0:0:
192,192,72368,128,0,73049:0:0:0:0:
320,192,73049,1,2,0:0:0:0:
64,192,73186,128,12,73868:0:0:0:0:
448,192,73459,1,6,0:0:0:0:
192,192,73868,1,2,0:0:0:0:
320,192,74004,128,12,74549:0:0:0:0:
64,192,74549,128,8,74822:0:0:0:0:
192,192,74822,128,6,75640:0:0:0:0:
448,192,75640,128,10,76731:0:0:0:0:
320,192,75913,1,8,0:0:0:0:
192,192,76186,1,2,0:0:0:0:
64,192,76459,1,8,0:0:0:0:
320,192,76731,128,2,77822:0:0:0:0:
192,192,77004,1,8,0:0:0:0:
64,192,77277,1,2,0:0:0:0:
448,192,77549,1,8,0:0:0:0:
192,192,77822,128,2,78913:0:0:0:0:
64,192,78095,1,8,0:0:0:0:
448,192,78368,1,8,0:0:0:0:
320,192,78640,1,8,0:0:0:0:
64,192,78913,128,8,80004:0:0:0:0:
448,192,78913,128,0,79186:0:0:0:40:hihat.wav
320,192,79186,128,8,79459:0:0:0:0:
192,192,79459,128,8,79731:0:0:0:0:
320,192,79731,128,8,80004:0:0:0:0:
320,192,80549,128,4,84368:0:0:0:0:
448,192,80549,128,2,84368:0:0:0:0:
64,192,84368,1,2,0:0:0:0:
192,192,84640,1,2,0:0:0:0:
448,192,84913,1,8,0:0:0:0:
320,192,85095,1,2,0:0:0:0:
192,192,85277,1,2,0:0:0:0:
64,192,85459,1,8,0:0:0:0:
320,192,85640,1,2,0:0:0:0:
448,192,85822,1,8,0:0:0:0:
64,192,86004,1,2,0:0:0:0:
192,192,86186,1,2,0:0:0:0:
320,192,86368,1,8,0:0:0:0:
64,192,86549,1,6,0:0:0:0:
448,192,86549,1,0,0:0:0:70:clap.wav
