osu file format v14

[General]
AudioFilename: audio.mp3
AudioLeadIn: 0
PreviewTime: 48640
Countdown: 0
SampleSet: Soft
StackLeniency: 0.7
Mode: 3
LetterboxInBreaks: 0
SpecialStyle: 0
WidescreenStoryboard: 1

[Editor]
DistanceSpacing: 2
BeatDivisor: 4
GridSize: 4
TimelineZoom: 1.2

[Metadata]
Title:JoJo Sono Chi no Kioku ~end of THE WORLD~ (TV Size)
TitleUnicode:ジョジョ その血の記憶 ~end of THE WORLD~ (TV Size)
Artist:JO*STARS ~TOMMY, Coda, JIN~
ArtistUnicode:JO☆STARS ~TOMMY, Coda, JIN~
Creator:menphiss
Version:Hard
Source:ジョジョの奇妙な冒険 スターダストクルセイダース
Tags:jojo's bizarre adventure: stardust crusaders second season kimyou na bouken part 3 opening hiroaki "tommy" tominaga hashimoto jin 藤林聖子 shoko fujibayashi 田中公平 kohei tanaka 村瀨恭久 yasuhisa murase japanese anime Apis035 rock jrock j-rock
BeatmapID:1990342
BeatmapSetID:953252

[Difficulty]
HPDrainRate:7.5
CircleSize:4
OverallDifficulty:8
ApproachRate:5
SliderMultiplier:1.4
SliderTickRate:1

[Events]
//Background and Video events
0,0,"Jotaro.jpg",0,0
//Break Periods
//Storyboard Layer 0 (Background)
//Storyboard Layer 1 (Fail)
//Storyboard Layer 2 (Pass)
//Storyboard Layer 3 (Foreground)
//Storyboard Layer 4 (Overlay)
//Storyboard Sound Samples
Sample,46731,0,"hihat.wav",70
Sample,48913,0,"hihat.wav",70
Sample,49186,0,"hihat.wav",70
Sample,68549,0,"hihat.wav",40
Sample,76186,0,"hihat.wav",40
Sample,77277,0,"hihat.wav",40

[TimingPoints]
13459,272.727272727273,4,2,1,60,1,0
18231,-95.2380952380952,4,2,1,60,0,0
18504,-90.9090909090909,4,2,1,60,0,0
18913,-100,4,2,1,50,0,0
22186,-90.9090909090909,4,2,1,50,0,0
22254,-125,4,2,1,50,0,0
22322,-90.9090909090909,4,2,1,50,0,0
22390,-125,4,2,1,50,0,0
22459,-90.9090909090909,4,2,1,50,0,0
22527,-125,4,2,1,50,0,0
22595,-90.9090909090909,4,2,1,50,0,0
22663,-125,4,2,1,50,0,0
22731,-90.9090909090909,4,2,1,50,0,0
22799,-125,4,2,1,50,0,0
22868,-90.9090909090909,4,2,1,50,0,0
22936,-125,4,2,1,50,0,0
23004,-90.9090909090909,4,2,1,50,0,0
23072,-125,4,2,1,50,0,0
23140,-90.9090909090909,4,2,1,50,0,0
23209,-125,4,2,1,50,0,0
23277,-100,4,2,1,50,0,0
24368,-90.9090909090909,4,2,1,50,0,0
24504,-125,4,2,1,50,0,0
24640,-90.9090909090909,4,2,1,50,0,0
24777,-125,4,2,1,50,0,0
24913,-100,4,2,1,50,0,0
26549,-90.9090909090909,4,2,1,50,0,0
26686,-125,4,2,1,50,0,0
26822,-90.9090909090909,4,2,1,50,0,0
26959,-125,4,2,1,50,0,0
27095,-100,4,2,1,50,0,0
31595,-111.111111111111,4,2,1,50,0,0
32004,-111.111111111111,4,2,1,45,0,0
36368,-100,4,2,1,30,0,0
38549,-111.111111111111,4,2,1,30,0,0
40459,-100,4,2,1,30,0,0
42913,-90.9090909090909,4,2,1,30,0,0
42981,-125,4,2,1,30,0,0
43049,-90.9090909090909,4,2,1,30,0,0
43118,-125,4,2,1,30,0,0
43186,-90.9090909090909,4,2,1,30,0,0
43254,-125,4,2,1,30,0,0
43322,-90.9090909090909,4,2,1,30,0,0
43459,-125,4,2,1,30,0,0
43595,-90.9090909090909,4,2,1,30,0,0
43663,-125,4,2,1,30,0,0
43731,-90.9090909090909,4,2,1,30,0,0
44004,-125,4,2,1,30,0,0
44822,-111.111111111111,4,2,1,30,0,0
44959,-100,4,2,1,30,0,0
48777,-100,4,2,1,35,0,0
48913,-100,4,2,1,40,0,0
49049,-100,4,2,1,45,0,0
49186,-100,4,2,1,50,0,0
49322,-100,4,2,1,55,0,0
49459,-100,4,2,1,60,0,0
55459,-111.111111111111,4,2,1,60,0,0
55868,-100,4,2,1,60,0,0
60368,-117.647058823529,4,2,1,50,0,0
64459,-105.263157894737,4,2,1,50,0,0
64731,-100,4,2,1,60,0,1
70186,-90.9090909090909,4,2,1,60,0,1
70390,-125,4,2,1,60,0,1
70595,-90.9090909090909,4,2,1,60,0,1
70799,-125,4,2,1,60,0,1
71004,-90.9090909090909,4,2,1,60,0,1
71140,-125,4,2,1,60,0,1
71277,-90.9090909090909,4,2,1,60,0,1
71345,-125,4,2,1,60,0,1
71413,-90.9090909090909,4,2,1,60,0,1
71481,-125,4,2,1,60,0,1
71549,-100,4,2,1,60,0,1
71686,-100,4,2,1,60,0,0
72231,-111.111111111111,4,2,1,60,0,0
73049,-100,4,2,1,60,0,0
75640,-100,4,2,1,60,0,1
80004,-100,4,2,1,60,0,0
80686,-90.9090909090909,4,2,1,60,0,0
83277,-100,4,2,1,60,0,0
84368,-90.9090909090909,4,2,1,60,0,0
84504,-125,4,2,1,60,0,0
84640,-90.9090909090909,4,2,1,60,0,0
84777,-125,4,2,1,60,0,0
84913,-90.9090909090909,4,2,1,60,0,0
85004,-125,4,2,1,60,0,0
85095,-90.9090909090909,4,2,1,60,0,0
85186,-125,4,2,1,60,0,0
85277,-90.9090909090909,4,2,1,60,0,0
85368,-125,4,2,1,60,0,0
85459,-90.9090909090909,4,2,1,60,0,0
85549,-125,4,2,1,60,0,0
85640,-83.3333333333333,4,2,1,60,0,0
85731,-125,4,2,1,60,0,0
85822,-90.9090909090909,4,2,1,60,0,0
85913,-125,4,2,1,60,0,0
86004,-90.9090909090909,4,2,1,60,0,0
86095,-125,4,2,1,60,0,0
86186,-90.9090909090909,4,2,1,60,0,0
86277,-125,4,2,1,60,0,0
86368,-90.9090909090909,4,2,1,60,0,0
86459,-125,4,2,1,60,0,0
86549,-100,4,2,1,60,0,0

[HitObjects]
64,192,13459,128,0,14549:0:0:0:0:
192,192,14004,128,0,14549:0:0:0:0:
320,192,14549,1,2,0:0:0:0:
448,192,14549,1,4,0:0:0:0:
192,192,14686,1,0,0:0:0:0:
64,192,14822,1,8,0:0:0:0:
448,192,14822,1,0,0:0:0:70:hihat.wav
192,192,14959,1,2,0:0:0:0:
320,192,14959,1,0,0:0:0:0:
64,192,15095,1,0,0:0:0:70:hihat.wav
320,192,15231,1,2,0:0:0:0:
448,192,15231,1,0,0:0:0:0:
64,192,15368,1,8,0:0:0:0:
192,192,15368,1,0,0:0:0:70:hihat.wav
448,192,15504,1,0,0:0:0:0:
192,192,15640,1,2,0:0:0:0:
320,192,15640,1,0,0:0:0:0:
64,192,15777,1,0,0:0:0:0:
192,192,15913,1,8,0:0:0:0:
448,192,15913,1,0,0:0:0:70:hihat.wav
64,192,16049,1,2,0:0:0:0:
320,192,16049,1,0,0:0:0:0:
448,192,16186,1,0,0:0:0:70:hihat.wav
192,192,16322,1,2,0:0:0:0:
320,192,16322,1,0,0:0:0:0:
64,192,16459,1,8,0:0:0:0:
448,192,16459,1,0,0:0:0:70:hihat.wav
192,192,16595,1,0,0:0:0:0:
64,192,16731,1,2,0:0:0:0:
320,192,16731,1,0,0:0:0:0:
448,192,16868,1,0,0:0:0:0:
64,192,17004,1,8,0:0:0:0:
192,192,17004,1,0,0:0:0:70:hihat.wav
320,192,17140,1,2,0:0:0:0:
448,192,17140,1,0,0:0:0:0:
192,192,17277,1,0,0:0:0:70:hihat.wav
64,192,17413,1,2,0:0:0:0:
448,192,17413,1,0,0:0:0:0:
192,192,17549,1,8,0:0:0:0:
320,192,17549,1,0,0:0:0:70:hihat.wav
64,192,17686,1,8,0:0:0:0:
320,192,17754,1,8,0:0:0:0:
448,192,17822,1,12,0:0:0:0:
192,192,17959,128,6,18231:0:0:0:0:
320,192,18231,128,6,18504:0:0:0:0:
448,192,18504,1,6,0:0:0:0:
64,192,18640,1,6,0:0:0:0:
192,192,18709,1,0,0:0:0:0:
448,192,18777,1,8,0:0:0:0:
320,192,18845,1,0,0:0:0:0:
64,192,18913,1,4,0:0:0:0:
192,192,18913,1,2,0:0:0:0:
448,192,19049,1,0,0:0:0:0:
192,192,19186,1,0,0:0:0:0:
320,192,19322,1,2,0:0:0:0:
64,192,19459,1,0,0:0:0:0:
192,192,19595,1,2,0:0:0:0:
64,192,19731,1,8,0:0:0:0:
320,192,19731,1,0,0:0:0:0:
448,192,19868,1,0,0:0:0:0:
320,192,20004,1,2,0:0:0:0:
192,192,20140,1,0,0:0:0:0:
448,192,20277,1,0,0:0:0:0:
64,192,20413,1,2,0:0:0:0:
320,192,20549,1,0,0:0:0:0:
192,192,20686,1,2,0:0:0:0:
64,192,20822,1,8,0:0:0:0:
448,192,20822,1,0,0:0:0:0:
192,192,20959,1,0,0:0:0:0:
320,192,21095,1,2,0:0:0:0:
64,192,21231,1,2,0:0:0:0:
448,192,21368,1,0,0:0:0:0:
192,192,21504,1,2,0:0:0:0:
320,192,21640,1,0,0:0:0:0:
64,192,21777,1,2,0:0:0:0:
192,192,21913,1,8,0:0:0:0:
320,192,21913,1,0,0:0:0:0:
448,192,22049,1,0,0:0:0:0:
64,192,22186,1,2,0:0:0:0:
192,192,22322,1,0,0:0:0:0:
448,192,22459,1,2,0:0:0:0:
320,192,22595,1,0,0:0:0:0:
192,192,22731,1,2,0:0:0:0:
64,192,22868,1,0,0:0:0:0:
192,192,23004,1,2,0:0:0:0:
320,192,23004,1,8,0:0:0:0:
448,192,23140,1,0,0:0:0:0:
64,192,23277,1,2,0:0:0:0:
320,192,23413,1,0,0:0:0:0:
192,192,23549,1,0,0:0:0:0:
448,192,23686,1,2,0:0:0:0:
320,192,23822,1,0,0:0:0:0:
64,192,23959,1,2,0:0:0:0:
192,192,24095,1,8,0:0:0:0:
448,192,24095,1,0,0:0:0:0:
320,192,24231,1,0,0:0:0:0:
64,192,24368,128,2,24640:0:0:0:0:
192,192,24368,1,4,0:0:0:0:
320,192,24640,128,4,24913:0:0:0:0:
448,192,24640,1,2,0:0:0:0:
64,192,24913,1,4,0:0:0:0:
192,192,24913,128,2,25459:0:0:0:0:
448,192,25186,1,8,0:0:0:0:
64,192,25459,1,2,0:0:0:0:
448,192,25595,1,0,0:0:0:0:
320,192,25731,1,0,0:0:0:0:
192,192,25868,1,2,0:0:0:0:
64,192,26004,1,0,0:0:0:0:
320,192,26140,1,2,0:0:0:0:
192,192,26277,1,8,0:0:0:0:
448,192,26277,1,0,0:0:0:0:
64,192,26413,1,0,0:0:0:0:
320,192,26549,1,2,0:0:0:0:
448,192,26549,128,4,26822:0:0:0:0:
64,192,26822,1,4,0:0:0:0:
192,192,26822,128,2,27095:0:0:0:0:
320,192,27095,128,2,27640:0:0:0:0:
448,192,27095,1,4,0:0:0:0:
64,192,27368,1,8,0:0:0:0:
192,192,27640,1,2,0:0:0:0:
448,192,27640,1,4,0:0:0:0:
64,192,27777,1,0,0:0:0:0:
192,192,27913,1,8,0:0:0:0:
320,192,27913,1,0,0:0:0:0:
64,192,28049,1,2,0:0:0:0:
448,192,28049,1,0,0:0:0:0:
320,192,28186,1,0,0:0:0:0:
64,192,28322,1,2,0:0:0:0:
192,192,28322,1,0,0:0:0:0:
320,192,28459,1,8,0:0:0:0:
448,192,28459,1,0,0:0:0:0:
192,192,28595,1,0,0:0:0:0:
64,192,28731,1,2,0:0:0:0:
320,192,28731,1,0,0:0:0:0:
448,192,28868,1,0,0:0:0:0:
64,192,29004,1,8,0:0:0:0:
320,192,29004,1,0,0:0:0:0:
192,192,29140,1,2,0:0:0:0:
448,192,29140,1,0,0:0:0:0:
320,192,29277,1,0,0:0:0:0:
64,192,29413,1,2,0:0:0:0:
192,192,29413,1,0,0:0:0:0:
320,192,29549,1,8,0:0:0:0:
448,192,29549,1,0,0:0:0:0:
64,192,29686,1,0,0:0:0:0:
192,192,29822,1,2,0:0:0:0:
320,192,30095,1,2,0:0:0:0:
64,192,30368,1,2,0:0:0:0:
448,192,30640,1,2,0:0:0:0:
192,192,30913,1,2,0:0:0:0:
448,192,31049,1,2,0:0:0:0:
320,192,31118,1,2,0:0:0:0:
64,192,31186,1,8,0:0:0:0:
192,192,31186,1,0,0:0:0:0:
320,192,31322,1,2,0:0:0:0:
192,192,31595,128,2,32004:0:0:0:0:
448,192,31595,1,4,0:0:0:0:
64,192,32004,1,2,0:0:0:0:
320,192,32004,128,4,33095:0:0:0:0:
448,192,32277,1,2,0:0:0:0:
64,192,32549,1,2,0:0:0:0:
448,192,32822,1,2,0:0:0:0:
64,192,33095,128,2,34186:0:0:0:0:
192,192,33095,1,0,0:0:0:0:
320,192,33368,1,2,0:0:0:0:
448,192,33640,1,2,0:0:0:0:
192,192,33913,1,2,0:0:0:0:
320,192,34186,1,2,0:0:0:0:
448,192,34186,128,0,35277:0:0:0:0:
64,192,34459,1,2,0:0:0:0:
320,192,34731,1,2,0:0:0:0:
64,192,35004,1,2,0:0:0:0:
192,192,35277,128,2,36368:0:0:0:0:
320,192,35277,1,0,0:0:0:0:
448,192,35549,1,2,0:0:0:0:
320,192,35822,1,2,0:0:0:0:
64,192,36095,1,2,0:0:0:0:
320,192,36368,1,2,0:0:0:0:
448,192,36368,1,4,0:0:0:0:
64,192,36504,1,0,0:0:0:0:
192,192,36640,1,2,0:0:0:0:
320,192,36640,1,0,0:0:0:70:hihat.wav
448,192,36777,1,0,0:0:0:0:
64,192,36913,1,2,0:0:0:0:
320,192,36913,1,0,0:0:0:70:hihat.wav
192,192,37049,1,2,0:0:0:0:
448,192,37049,1,0,0:0:0:0:
64,192,37186,1,10,0:0:0:0:
320,192,37186,1,0,0:0:0:70:hihat.wav
192,192,37322,1,2,0:0:0:0:
320,192,37459,1,2,0:0:0:0:
448,192,37459,1,0,0:0:0:70:hihat.wav
192,192,37595,1,2,0:0:0:0:
64,192,37731,1,10,0:0:0:0:
448,192,37731,1,0,0:0:0:70:hihat.wav
320,192,37868,1,2,0:0:0:0:
64,192,38004,1,2,0:0:0:0:
192,192,38004,1,0,0:0:0:70:hihat.wav
320,192,38140,1,2,0:0:0:0:
448,192,38140,1,0,0:0:0:0:
64,192,38277,1,10,0:0:0:0:
192,192,38277,1,0,0:0:0:70:hihat.wav
448,192,38413,1,2,0:0:0:0:
192,192,38549,1,4,0:0:0:0:
320,192,38549,128,2,39095:0:0:0:0:
64,192,39095,1,4,0:0:0:0:
192,192,39095,128,2,39640:0:0:0:0:
64,192,39640,128,4,40459:0:0:0:0:
448,192,39640,1,2,0:0:0:0:
320,192,39913,1,8,0:0:0:0:
192,192,40049,1,2,0:0:0:0:
448,192,40186,1,2,0:0:0:0:
320,192,40322,1,2,0:0:0:0:
192,192,40459,1,8,0:0:0:0:
320,192,40731,1,8,0:0:0:0:
448,192,40731,1,4,0:0:0:0:
320,192,41004,1,2,0:0:0:0:
64,192,41277,1,8,0:0:0:0:
192,192,41277,1,4,0:0:0:0:
192,192,41549,1,2,0:0:0:0:
320,192,41822,1,8,0:0:0:0:
448,192,41822,1,4,0:0:0:0:
448,192,42095,1,2,0:0:0:0:
64,192,42368,1,8,0:0:0:0:
192,192,42368,1,4,0:0:0:0:
320,192,42504,1,2,0:0:0:0:
64,192,42640,1,2,0:0:0:0:
448,192,42777,1,2,0:0:0:0:
64,192,42913,1,8,0:0:0:0:
320,192,42913,1,0,0:0:0:0:
192,192,43049,1,8,0:0:0:0:
448,192,43049,1,0,0:0:0:0:
64,192,43186,1,8,0:0:0:0:
320,192,43186,1,0,0:0:0:0:
192,192,43322,1,8,0:0:0:0:
448,192,43322,1,0,0:0:0:0:
192,192,43595,1,8,0:0:0:0:
320,192,43595,1,0,0:0:0:0:
64,192,43731,1,8,0:0:0:0:
448,192,43731,1,4,0:0:0:0:
64,192,44004,128,0,44822:0:0:0:0:
192,192,44004,1,0,0:0:0:0:
320,192,44822,1,0,0:0:0:70:clap.wav
192,192,45095,1,2,0:0:0:0:
448,192,45095,1,4,0:0:0:0:
64,192,45231,1,0,0:0:0:0:
192,192,45368,128,0,47004:0:0:0:70:hihat.wav
448,192,45368,1,0,0:0:0:0:
320,192,45504,1,2,0:0:0:0:
64,192,45640,1,8,0:0:0:0:
448,192,45640,1,0,0:0:0:70:hihat.wav
64,192,45913,1,4,0:0:0:0:
448,192,45913,1,0,0:0:0:0:
320,192,46049,1,0,0:0:0:0:
64,192,46322,1,8,0:0:0:0:
320,192,46459,1,0,0:0:0:70:hihat.wav
64,192,46595,1,0,0:0:0:0:
448,192,46731,1,8,0:0:0:0:
320,192,46868,1,2,0:0:0:0:
64,192,47004,128,2,47277:0:0:0:0:
448,192,47004,1,0,0:0:0:0:
320,192,47140,1,2,0:0:0:0:
192,192,47277,1,2,0:0:0:0:
448,192,47277,128,4,48368:0:0:0:0:
64,192,47549,1,0,0:0:0:70:hihat.wav
192,192,47686,1,2,0:0:0:0:
64,192,47822,1,8,0:0:0:0:
320,192,47822,1,0,0:0:0:70:hihat.wav
192,192,47959,1,0,0:0:0:0:
320,192,48095,1,2,0:0:0:0:
192,192,48368,1,8,0:0:0:0:
320,192,48368,1,0,0:0:0:70:hihat.wav
64,192,48504,1,2,0:0:0:0:
192,192,48572,1,2,0:0:0:0:
320,192,48640,1,2,0:0:0:0:
448,192,48640,1,4,0:0:0:0:
64,192,48777,1,2,0:0:0:0:
448,192,48913,1,2,0:0:0:0:
192,192,49049,1,2,0:0:0:0:
320,192,49186,1,2,0:0:0:0:
64,192,49322,1,2,0:0:0:0:
192,192,49459,1,6,0:0:0:0:
448,192,49459,1,0,0:0:0:40:hihat.wav
320,192,49595,1,0,0:0:0:0:
64,192,49731,1,8,0:0:0:0:
448,192,49731,1,0,0:0:0:40:hihat.wav
192,192,49868,1,2,0:0:0:0:
320,192,49868,1,0,0:0:0:0:
64,192,50004,1,0,0:0:0:40:hihat.wav
320,192,50140,1,2,0:0:0:0:
448,192,50140,1,0,0:0:0:0:
64,192,50277,1,8,0:0:0:0:
192,192,50277,1,0,0:0:0:40:hihat.wav
320,192,50413,1,0,0:0:0:0:
64,192,50549,1,2,0:0:0:0:
448,192,50549,1,0,0:0:0:40:hihat.wav
192,192,50686,1,0,0:0:0:0:
64,192,50822,1,8,0:0:0:0:
320,192,50822,1,0,0:0:0:40:hihat.wav
192,192,50959,1,2,0:0:0:0:
448,192,50959,1,0,0:0:0:0:
320,192,51095,1,0,0:0:0:40:hihat.wav
64,192,51231,1,2,0:0:0:0:
192,192,51231,1,0,0:0:0:0:
320,192,51368,1,8,0:0:0:0:
448,192,51368,1,0,0:0:0:40:hihat.wav
64,192,51504,1,0,0:0:0:0:
192,192,51640,1,2,0:0:0:0:
448,192,51640,1,0,0:0:0:40:hihat.wav
320,192,51777,1,0,0:0:0:0:
64,192,51913,1,8,0:0:0:0:
448,192,51913,1,0,0:0:0:40:hihat.wav
192,192,52049,1,2,0:0:0:0:
320,192,52049,1,0,0:0:0:0:
64,192,52186,1,0,0:0:0:40:hihat.wav
192,192,52322,1,2,0:0:0:0:
448,192,52322,1,0,0:0:0:0:
64,192,52459,1,8,0:0:0:0:
320,192,52459,1,0,0:0:0:40:hihat.wav
192,192,52595,1,0,0:0:0:0:
320,192,52731,1,2,0:0:0:0:
448,192,52731,1,0,0:0:0:40:hihat.wav
64,192,52868,1,0,0:0:0:0:
192,192,53004,1,8,0:0:0:0:
320,192,53004,1,0,0:0:0:40:hihat.wav
64,192,53140,1,2,0:0:0:0:
448,192,53140,1,0,0:0:0:0:
320,192,53277,1,0,0:0:0:40:hihat.wav
64,192,53413,1,2,0:0:0:0:
192,192,53413,1,0,0:0:0:0:
320,192,53549,1,8,0:0:0:0:
448,192,53549,1,0,0:0:0:40:hihat.wav
192,192,53686,1,0,0:0:0:0:
64,192,53822,1,2,0:0:0:0:
320,192,53822,1,4,0:0:0:0:
192,192,53959,1,0,0:0:0:0:
320,192,54095,1,8,0:0:0:0:
448,192,54095,1,0,0:0:0:40:hihat.wav
64,192,54231,1,2,0:0:0:0:
192,192,54231,1,0,0:0:0:0:
448,192,54368,1,0,0:0:0:40:hihat.wav
64,192,54504,1,2,0:0:0:0:
320,192,54504,1,0,0:0:0:0:
192,192,54640,1,8,0:0:0:0:
448,192,54640,1,0,0:0:0:40:hihat.wav
320,192,54777,1,0,0:0:0:0:
64,192,54913,1,4,0:0:0:0:
448,192,54913,1,2,0:0:0:0:
192,192,55186,1,6,0:0:0:0:
448,192,55186,1,8,0:0:0:0:
320,192,55459,128,4,55868:0:0:0:0:
448,192,55459,1,2,0:0:0:0:
64,192,56004,1,2,0:0:0:0:
192,192,56004,1,4,0:0:0:0:
320,192,56140,1,0,0:0:0:0:
64,192,56277,1,8,0:0:0:0:
448,192,56277,1,0,0:0:0:40:hihat.wav
192,192,56413,1,2,0:0:0:0:
320,192,56413,1,0,0:0:0:0:
64,192,56549,1,0,0:0:0:40:hihat.wav
448,192,56549,128,0,57095:0:0:0:0:
320,192,56686,1,2,0:0:0:0:
64,192,56822,1,8,0:0:0:0:
192,192,56822,1,0,0:0:0:40:hihat.wav
320,192,56959,1,0,0:0:0:0:
64,192,57095,1,2,0:0:0:0:
192,192,57095,128,0,58186:0:0:0:40:hihat.wav
320,192,57231,1,0,0:0:0:0:
64,192,57368,1,8,0:0:0:0:
448,192,57368,1,0,0:0:0:40:hihat.wav
320,192,57504,1,2,0:0:0:0:
64,192,57640,1,0,0:0:0:40:hihat.wav
448,192,57777,1,2,0:0:0:0:
64,192,57913,1,8,0:0:0:0:
320,192,57913,1,0,0:0:0:40:hihat.wav
448,192,58049,1,0,0:0:0:0:
64,192,58186,128,2,60368:0:0:0:0:
320,192,58186,1,0,0:0:0:0:
192,192,58322,1,2,0:0:0:0:
320,192,58459,1,8,0:0:0:0:
448,192,58459,1,4,0:0:0:0:
192,192,58595,1,2,0:0:0:0:
320,192,58731,1,2,0:0:0:0:
448,192,58868,1,2,0:0:0:0:
192,192,59004,1,8,0:0:0:0:
320,192,59004,1,4,0:0:0:0:
448,192,59140,1,2,0:0:0:0:
192,192,59277,1,2,0:0:0:0:
320,192,59413,1,2,0:0:0:0:
192,192,59549,1,8,0:0:0:0:
448,192,59549,1,4,0:0:0:0:
320,192,59686,1,0,0:0:0:0:
192,192,59822,1,8,0:0:0:0:
448,192,59959,1,2,0:0:0:0:
192,192,60095,1,8,0:0:0:0:
320,192,60095,1,4,0:0:0:0:
448,192,60231,1,8,0:0:0:0:
192,192,60368,128,2,61459:0:0:0:0:
320,192,60368,1,4,0:0:0:0:
448,192,60777,1,2,0:0:0:0:
320,192,61049,1,2,0:0:0:0:
448,192,61186,1,8,0:0:0:0:
64,192,61459,1,2,0:0:0:0:
320,192,61459,128,0,62549:0:0:0:0:
64,192,61868,1,2,0:0:0:0:
448,192,62140,1,2,0:0:0:0:
192,192,62277,1,8,0:0:0:0:
64,192,62549,1,2,0:0:0:0:
448,192,62549,128,0,63640:0:0:0:0:
320,192,62959,1,2,0:0:0:0:
64,192,63231,1,2,0:0:0:0:
320,192,63368,1,8,0:0:0:0:
64,192,63640,128,2,64731:0:0:0:0:
192,192,63640,1,0,0:0:0:0:
320,192,63913,1,0,0:0:0:0:
448,192,64049,1,2,0:0:0:0:
192,192,64322,1,2,0:0:0:0:
320,192,64459,1,8,0:0:0:0:
192,192,64731,1,2,0:0:0:0:
448,192,64731,1,4,0:0:0:0:
320,192,64868,1,0,0:0:0:0:
64,192,65004,1,8,0:0:0:0:
192,192,65004,1,0,0:0:0:40:hihat.wav
320,192,65140,1,2,0:0:0:0:
448,192,65140,1,0,0:0:0:0:
64,192,65277,1,0,0:0:0:40:hihat.wav
192,192,65413,1,2,0:0:0:0:
320,192,65413,1,0,0:0:0:0:
64,192,65549,1,8,0:0:0:0:
448,192,65549,1,0,0:0:0:40:hihat.wav
320,192,65686,1,0,0:0:0:0:
192,192,65822,1,4,0:0:0:0:
448,192,65822,1,2,0:0:0:0:
64,192,65959,1,0,0:0:0:0:
320,192,66095,1,8,0:0:0:0:
448,192,66095,1,0,0:0:0:40:hihat.wav
64,192,66231,1,2,0:0:0:0:
192,192,66231,1,0,0:0:0:0:
448,192,66368,1,0,0:0:0:40:hihat.wav
192,192,66504,1,2,0:0:0:0:
320,192,66504,1,0,0:0:0:0:
64,192,66640,1,8,0:0:0:0:
448,192,66640,1,0,0:0:0:40:hihat.wav
320,192,66777,1,0,0:0:0:0:
64,192,66913,1,2,0:0:0:0:
192,192,66913,1,4,0:0:0:0:
448,192,67049,1,0,0:0:0:0:
192,192,67186,1,8,0:0:0:0:
320,192,67186,1,0,0:0:0:40:hihat.wav
64,192,67322,1,2,0:0:0:0:
448,192,67322,1,0,0:0:0:0:
320,192,67459,1,0,0:0:0:40:hihat.wav
64,192,67595,1,2,0:0:0:0:
192,192,67595,1,0,0:0:0:0:
320,192,67731,1,8,0:0:0:0:
448,192,67731,1,0,0:0:0:40:hihat.wav
64,192,67868,1,0,0:0:0:0:
192,192,68004,1,2,0:0:0:0:
448,192,68004,1,0,0:0:0:40:hihat.wav
320,192,68140,1,2,0:0:0:0:
64,192,68209,1,2,0:0:0:0:
192,192,68277,1,8,0:0:0:0:
448,192,68277,1,0,0:0:0:40:hihat.wav
64,192,68413,1,2,0:0:0:0:
320,192,68413,1,0,0:0:0:0:
192,192,68549,1,2,0:0:0:0:
320,192,68686,1,2,0:0:0:0:
448,192,68686,1,0,0:0:0:0:
64,192,68822,1,8,0:0:0:0:
192,192,68822,1,0,0:0:0:40:hihat.wav
320,192,68959,1,8,0:0:0:0:
448,192,68959,1,0,0:0:0:0:
64,192,69095,1,0,0:0:0:0:
192,192,69095,1,0,0:0:0:0:
320,192,69231,1,0,0:0:0:0:
192,192,69368,1,8,0:0:0:0:
448,192,69368,1,0,0:0:0:40:hihat.wav
64,192,69504,1,2,0:0:0:0:
320,192,69504,1,0,0:0:0:0:
448,192,69640,1,0,0:0:0:40:hihat.wav
64,192,69777,1,2,0:0:0:0:
192,192,69777,1,0,0:0:0:0:
320,192,69913,1,8,0:0:0:0:
448,192,69913,1,0,0:0:0:40:hihat.wav
192,192,70049,1,0,0:0:0:0:
320,192,70186,1,2,0:0:0:0:
448,192,70186,1,0,0:0:0:0:
64,192,70595,1,2,0:0:0:0:
192,192,70595,1,4,0:0:0:0:
64,192,71004,1,2,0:0:0:0:
448,192,71004,1,4,0:0:0:0:
192,192,71277,1,2,0:0:0:0:
320,192,71277,1,0,0:0:0:0:
64,192,71413,1,8,0:0:0:0:
448,192,71413,1,2,0:0:0:0:
192,192,71549,1,2,0:0:0:0:
320,192,71549,1,8,0:0:0:0:
64,192,72095,1,0,0:0:0:0:
192,192,72231,1,0,0:0:0:0:
320,192,72368,1,0,0:0:0:0:
448,192,72368,128,0,73049:0:0:0:0:
320,192,73049,1,2,0:0:0:0:
192,192,73118,1,2,0:0:0:0:
64,192,73186,1,8,0:0:0:0:
448,192,73186,1,4,0:0:0:0:
320,192,73459,128,6,73868:0:0:0:0:
448,192,73868,1,2,0:0:0:0:
64,192,74004,128,4,74549:0:0:0:0:
192,192,74004,1,8,0:0:0:0:
448,192,74277,1,2,0:0:0:0:
192,192,74549,1,8,0:0:0:0:
320,192,74549,128,0,74822:0:0:0:0:
448,192,74686,1,2,0:0:0:0:
64,192,74822,1,4,0:0:0:0:
448,192,74822,128,2,75640:0:0:0:0:
192,192,74959,1,2,0:0:0:0:
320,192,75095,1,8,0:0:0:0:
192,192,75231,1,2,0:0:0:0:
64,192,75368,1,2,0:0:0:0:
320,192,75504,1,2,0:0:0:0:
64,192,75640,1,10,0:0:0:0:
192,192,75640,128,0,76731:0:0:0:40:hihat.wav
320,192,75777,1,2,0:0:0:0:
64,192,75913,1,8,0:0:0:0:
448,192,75913,1,0,0:0:0:40:hihat.wav
320,192,76049,1,2,0:0:0:0:
64,192,76186,1,2,0:0:0:0:
448,192,76322,1,2,0:0:0:0:
64,192,76459,1,8,0:0:0:0:
320,192,76459,1,0,0:0:0:40:hihat.wav
448,192,76595,1,2,0:0:0:0:
64,192,76731,1,2,0:0:0:0:
320,192,76731,128,0,77822:0:0:0:40:hihat.wav
448,192,76868,1,2,0:0:0:0:
64,192,77004,1,8,0:0:0:0:
192,192,77004,1,0,0:0:0:40:hihat.wav
448,192,77140,1,2,0:0:0:0:
64,192,77277,1,2,0:0:0:0:
192,192,77413,1,0,0:0:0:0:
64,192,77549,1,8,0:0:0:0:
448,192,77549,1,0,0:0:0:40:hihat.wav
192,192,77686,1,0,0:0:0:0:
64,192,77822,128,2,78913:0:0:0:0:
448,192,77822,1,0,0:0:0:40:hihat.wav
192,192,77959,1,2,0:0:0:0:
320,192,78095,1,8,0:0:0:0:
448,192,78095,1,0,0:0:0:40:hihat.wav
192,192,78231,1,2,0:0:0:0:
320,192,78368,1,8,0:0:0:0:
448,192,78368,1,0,0:0:0:40:hihat.wav
192,192,78504,1,2,0:0:0:0:
320,192,78640,1,8,0:0:0:0:
448,192,78640,1,0,0:0:0:40:hihat.wav
192,192,78777,1,2,0:0:0:0:
320,192,78913,1,8,0:0:0:0:
448,192,78913,128,0,80004:0:0:0:40:hihat.wav
192,192,79049,1,0,0:0:0:0:
64,192,79186,1,8,0:0:0:0:
320,192,79186,1,0,0:0:0:40:hihat.wav
192,192,79322,1,2,0:0:0:0:
64,192,79459,1,8,0:0:0:0:
320,192,79459,1,0,0:0:0:40:hihat.wav
192,192,79595,1,2,0:0:0:0:
64,192,79731,1,8,0:0:0:0:
320,192,79731,1,0,0:0:0:40:hihat.wav
192,192,79868,1,0,0:0:0:0:
192,192,80549,128,4,84368:0:0:0:0:
320,192,80549,128,2,84368:0:0:0:0:
448,192,84368,1,2,0:0:0:0:
64,192,84640,1,2,0:0:0:0:
320,192,84913,1,8,0:0:0:0:
192,192,85095,1,2,0:0:0:0:
448,192,85277,1,2,0:0:0:0:
64,192,85459,1,8,0:0:0:0:
192,192,85640,1,2,0:0:0:0:
448,192,85822,1,8,0:0:0:0:
64,192,86004,1,2,0:0:0:0:
320,192,86186,1,2,0:0:0:0:
192,192,86368,1,8,0:0:0:0:
320,192,86549,1,6,0:0:0:0:
448,192,86549,1,0,0:0:0:70:clap.wav
