osu file format v14

[General]
AudioFilename: audio.mp3
AudioLeadIn: 0
PreviewTime: 215803
Countdown: 0
SampleSet: None
StackLeniency: 0.3
Mode: 0
LetterboxInBreaks: 0
WidescreenStoryboard: 1

[Editor]
Bookmarks: 15076,16167,19440,22712,23803,24894,27076,30758,31576,32122,32531,32803,34712,35803,36894,39076,39622,40167,41258,41803,42349,43440,45622,46440,47258,48894,49576,49985,51076,51622,52712,70712,76167,82440,82712,83803,84894,90349,93622,94167,94712,99076,101258,102076,102349,103440,107803,108349,109440,109712,110531,111076,112167,112985,114349,115440,116531,117076,117622,118167,118712,120622,123076,125258,128531,197258,243076,244167,245258,246349,247440,248531,249622,250712
DistanceSpacing: 1.2
BeatDivisor: 4
GridSize: 4
TimelineZoom: 2.699999

[Metadata]
Title:JoJo Sono Chi no Kioku ~end of THE WORLD~
TitleUnicode:ジョジョ その血の記憶~end of THE WORLD~
Artist:JO*STARS ~TOMMY, Coda, JIN~
ArtistUnicode:JO☆STARS ~TOMMY, Coda, JIN~
Creator:FDX
Version:FINAL!
Source:ジョジョの奇妙な冒険
Tags:
BeatmapID:1924458
BeatmapSetID:921523

[Difficulty]
HPDrainRate:4.6
CircleSize:4.2
OverallDifficulty:9.5
ApproachRate:9.9
SliderMultiplier:2
SliderTickRate:1

[Events]
//Background and Video events
0,0,"JOTARO VS DIO.jpg",0,0
//Break Periods
//Storyboard Layer 0 (Background)
//Storyboard Layer 1 (Fail)
//Storyboard Layer 2 (Pass)
//Storyboard Layer 3 (Foreground)
//Storyboard Sound Samples

[TimingPoints]
9622,272.727272727273,4,2,0,100,1,0
15076,-83.3333333333333,4,2,0,100,0,0
16167,-80.6451612903226,4,2,0,100,0,0
17258,-78.125,4,2,0,100,0,0
19440,-95.2380952380952,4,2,0,100,0,0
24894,-68.9655172413793,4,2,0,100,0,1
25031,-68.9655172413793,4,2,0,100,0,0
25167,-68.9655172413793,4,2,0,100,0,1
25303,-68.9655172413793,4,2,0,100,0,0
25440,-68.9655172413793,4,2,0,100,0,1
25712,-95.2380952380952,4,2,0,100,0,0
27076,-68.9655172413793,4,2,0,100,0,1
27212,-68.9655172413793,4,2,0,100,0,0
27349,-68.9655172413793,4,2,0,100,0,1
27485,-68.9655172413793,4,2,0,100,0,0
27622,-68.9655172413793,4,2,0,100,0,1
27894,-95.2380952380952,4,2,0,100,0,0
32531,-88.4955752212389,4,2,0,100,0,0
33622,-81.3008130081301,4,2,0,100,0,0
33894,-88.4955752212389,4,2,0,100,0,0
34712,-81.3008130081301,4,2,0,100,0,0
34985,-88.4955752212389,4,2,0,100,0,0
35803,-81.3008130081301,4,2,0,100,0,0
35940,-88.4955752212389,4,2,0,100,0,0
39076,-107.52688172043,4,2,0,100,0,0
40167,-88.4955752212389,4,2,0,100,0,0
41258,-80,4,2,0,100,0,0
44531,-181.818181818182,4,2,0,100,0,0
45622,-133.333333333334,4,2,0,100,0,0
49167,-86.9565217391307,4,2,0,100,0,0
49985,-80.0000000000001,4,2,0,100,0,1
55440,-71.4285714285714,4,2,0,100,0,1
56258,-80.0000000000001,4,2,0,100,0,1
60894,-125,4,2,0,100,0,0
65258,-80.0000000000001,4,2,0,100,0,1
77241,-80.0000000000001,4,2,0,100,0,0
77258,-80.0000000000001,4,2,0,100,0,1
78332,-80.0000000000001,4,2,0,100,0,0
78349,-80.0000000000001,4,2,0,100,0,1
79423,-80.0000000000001,4,2,0,100,0,0
79440,-80.0000000000001,4,2,0,100,0,1
79508,-80.0000000000001,4,2,0,100,0,0
79576,-80.0000000000001,4,2,0,100,0,1
79644,-80.0000000000001,4,2,0,100,0,0
79712,-80.0000000000001,4,2,0,100,0,1
79781,-80.0000000000001,4,2,0,100,0,0
79849,-80.0000000000001,4,2,0,100,0,1
79917,-80.0000000000001,4,2,0,100,0,0
79985,-80.0000000000001,4,2,0,100,0,1
80053,-80.0000000000001,4,2,0,100,0,0
80122,-80.0000000000001,4,2,0,100,0,1
80190,-80.0000000000001,4,2,0,100,0,0
80258,-80.0000000000001,4,2,0,100,0,1
80326,-80.0000000000001,4,2,0,100,0,0
80394,-80.0000000000001,4,2,0,100,0,1
80531,-90.9090909090909,4,2,0,100,0,0
81622,-71.4285714285714,4,2,0,100,0,0
82440,-90.9090909090909,4,2,0,100,0,0
98531,-86.9565217391304,4,2,0,100,0,0
99076,-83.3333333333333,4,2,0,100,0,0
101258,-90.9090909090909,4,2,0,100,0,0
102349,-111.111111111111,4,2,0,100,0,0
103440,-95.2380952380952,4,2,0,100,0,0
109440,-153.846153846154,4,2,0,100,0,0
109712,-105.263157894737,4,2,0,100,0,0
109985,-95.2380952380952,4,2,0,100,0,0
110258,-133.333333333333,4,2,0,100,0,0
110531,-95.2380952380952,4,2,0,100,0,0
110803,-133.333333333333,4,2,0,100,0,0
112167,-86.9565217391303,4,2,0,100,0,0
116531,-95.2380952380952,4,2,0,100,0,0
118712,-86.9565217391304,4,2,0,100,0,1
119803,-83.3333333333333,4,2,0,100,0,1
120076,-142.857142857143,4,2,0,100,0,1
120349,-166.666666666667,4,2,0,100,0,1
120622,-73.5294117647059,4,2,0,100,0,1
120894,-100,4,2,0,100,0,0
243076,-100,4,2,0,100,0,1
244099,-100,4,2,0,100,0,0
244167,-100,4,2,0,100,0,1
244235,-100,4,2,0,100,0,0
244303,-100,4,2,0,100,0,1
244372,-100,4,2,0,100,0,0
244440,-100,4,2,0,100,0,1
244508,-100,4,2,0,100,0,0
244576,-100,4,2,0,100,0,1
244644,-100,4,2,0,100,0,0
244712,-100,4,2,0,100,0,1
244781,-100,4,2,0,100,0,0
244849,-100,4,2,0,100,0,1
244917,-100,4,2,0,100,0,0
244985,-100,4,2,0,100,0,1
245053,-100,4,2,0,100,0,0
245122,-100,4,2,0,100,0,1
245241,-100,4,2,0,100,0,0
245258,-100,4,2,0,100,0,1
246281,-100,4,2,0,100,0,0
246349,-100,4,2,0,100,0,1
246417,-100,4,2,0,100,0,0
246485,-100,4,2,0,100,0,1
246553,-100,4,2,0,100,0,0
246622,-100,4,2,0,100,0,1
246690,-100,4,2,0,100,0,0
246758,-100,4,2,0,100,0,1
246826,-100,4,2,0,100,0,0
246894,-100,4,2,0,100,0,1
246962,-100,4,2,0,100,0,0
247031,-100,4,2,0,100,0,1
247099,-100,4,2,0,100,0,0
247167,-100,4,2,0,100,0,1
247235,-100,4,2,0,100,0,0
247303,-100,4,2,0,100,0,1
247372,-100,4,2,0,100,0,0
247423,-100,4,2,0,100,0,0
247440,-100,4,2,0,100,0,1
248462,-100,4,2,0,100,0,0
248531,-100,4,2,0,100,0,1
248599,-100,4,2,0,100,0,0
248667,-100,4,2,0,100,0,1
248735,-100,4,2,0,100,0,0
248803,-100,4,2,0,100,0,1
248872,-100,4,2,0,100,0,0
248940,-100,4,2,0,100,0,1
249008,-100,4,2,0,100,0,0
249076,-100,4,2,0,100,0,1
249144,-100,4,2,0,100,0,0
249212,-100,4,2,0,100,0,1
249281,-100,4,2,0,100,0,0
249349,-100,4,2,0,100,0,1
249417,-100,4,2,0,100,0,0
249485,-100,4,2,0,100,0,1
249604,-100,4,2,0,100,0,0
249622,-100,4,2,0,100,0,1
250695,-100,4,2,0,100,0,0
250712,-100,4,2,0,100,0,1
250781,-100,4,2,0,100,0,0
250849,-100,4,2,0,100,0,1
250917,-100,4,2,0,100,0,0
250985,-100,4,2,0,100,0,1
251053,-100,4,2,0,100,0,0
251122,-100,4,2,0,100,0,1
251190,-100,4,2,0,100,0,0
251258,-100,4,2,0,100,0,1
251326,-100,4,2,0,100,0,0
251394,-100,4,2,0,100,0,1
251462,-100,4,2,0,100,0,0
251531,-100,4,2,0,100,0,1
251599,-100,4,2,0,100,0,0
251667,-100,4,2,0,100,0,1
251735,-100,4,2,0,100,0,0
251803,-100,4,2,0,100,0,1
251872,-100,4,2,0,100,0,0
252485,-136.054421768707,4,2,0,100,0,0

[Colours]
Combo1 : 255,242,202
Combo2 : 196,0,0
Combo3 : 254,250,101
Combo4 : 182,96,253

[HitObjects]
194,337,243076,5,0,0:0:0:0:
79,179,243212,1,0,0:0:0:0:
264,239,243349,1,0,0:0:0:0:
79,299,243485,1,0,0:0:0:0:
194,142,243622,1,0,0:0:0:0:
194,337,243758,1,0,0:0:0:0:
79,179,243894,1,0,0:0:0:0:
264,239,244031,1,0,0:0:0:0:
79,299,244167,5,0,0:0:0:0:
194,89,244304,1,0,0:0:0:0:
224,327,244440,1,0,0:0:0:0:
60,151,244576,1,0,0:0:0:0:
296,197,244712,1,0,0:0:0:0:
79,299,244849,1,0,0:0:0:0:
223,34,244986,1,0,0:0:0:0:
260,368,245122,1,0,0:0:0:0:
428,152,245258,5,0,0:0:0:0:
328,294,245394,1,0,0:0:0:0:
324,119,245531,1,0,0:0:0:0:
429,257,245667,1,0,0:0:0:0:
263,208,245803,1,0,0:0:0:0:
428,152,245940,1,0,0:0:0:0:
328,294,246076,1,0,0:0:0:0:
324,119,246213,1,0,0:0:0:0:
454,275,246349,5,0,0:0:0:0:
231,208,246485,1,0,0:0:0:0:
453,133,246622,1,0,0:0:0:0:
319,324,246758,1,0,0:0:0:0:
314,89,246895,1,0,0:0:0:0:
497,288,247031,1,0,0:0:0:0:
174,191,247167,1,0,0:0:0:0:
512,72,247304,1,0,0:0:0:0:
204,76,247440,5,0,0:0:0:0:
109,227,247576,1,0,0:0:0:0:
277,164,247712,1,0,0:0:0:0:
105,116,247849,1,0,0:0:0:0:
217,255,247985,1,0,0:0:0:0:
204,76,248122,1,0,0:0:0:0:
109,227,248258,1,0,0:0:0:0:
277,164,248394,1,0,0:0:0:0:
76,97,248531,5,0,0:0:0:0:
232,288,248667,1,0,0:0:0:0:
212,41,248804,1,0,0:0:0:0:
82,250,248940,1,0,0:0:0:0:
313,162,249076,1,0,0:0:0:0:
38,79,249212,1,0,0:0:0:0:
254,344,249348,1,0,0:0:0:0:
228,1,249485,1,0,0:0:0:0:
180,304,249622,5,0,0:0:0:0:
379,153,249758,1,0,0:0:0:0:
127,153,249894,1,0,0:0:0:0:
331,301,250031,1,0,0:0:0:0:
254,61,250167,1,0,0:0:0:0:
143,357,250303,5,0,0:0:0:0:
437,134,250439,1,0,0:0:0:0:
65,134,250575,1,0,0:0:0:0:
416,352,250712,6,0,L|352:288,1,50
95,32,250849,2,0,L|160:96,1,50
256,419,250985,6,0,L|255:328,1,50
256,0,251122,2,0,L|256:57,1,50
96,352,251258,6,0,L|160:288,1,50
416,32,251394,2,0,L|352:96,1,50
64,192,251531,6,0,L|154:192,1,50
448,192,251667,2,0,L|357:192,1,50
20,192,251803,5,0,0:0:0:0:
92,224,252349,1,0,0:0:0:0:
168,288,252485,6,0,B|200:204|144:44|72:60|-56:164|-20:200|24:376|88:340|144:320|144:320|220:320|220:320|216:128|216:128|276:104|328:128|348:148|344:224|252:228|252:228|368:332|368:332|384:200|412:88|412:88|476:204|504:336|504:336|472:256|472:256|432:268|364:256,1,1910.99991106339
256,28,256167,5,0,0:0:0:0:
256,28,256440,5,0,0:0:0:0:
208,180,256712,6,0,B|160:168|160:168|80:188,2,97.9999954391482
296,288,257258,6,0,B|344:300|344:300|424:280,2,97.9999954391482
296,88,257803,5,0,0:0:0:0:
136,280,257985,5,0,0:0:0:0:
388,200,258167,5,0,0:0:0:0:
92,56,258349,5,0,0:0:0:0:
