osu file format v14

[General]
AudioFilename: audio.mp3
AudioLeadIn: 0
PreviewTime: 78317
Countdown: 0
SampleSet: Soft
StackLeniency: 0.5
Mode: 0
LetterboxInBreaks: 0
WidescreenStoryboard: 0

[Editor]
Bookmarks: 244,15981,31719,47457,63194,78932,109916,126145,141883,157621,189096,204834,220571,236309,267784,283522,299260
DistanceSpacing: 0.3
BeatDivisor: 4
GridSize: 4
TimelineZoom: 1

[Metadata]
Title:CRAZY DIAMOND
TitleUnicode:CRAZY DIAMOND
Artist:JOE D TOASTER
ArtistUnicode:JOE D TOASTER
Creator:Castagne
Version:CRAZY LOVE
Source:
Tags:super eurobeat 212 electronic english italodisco d.
BeatmapID:3223031
BeatmapSetID:1578469

[Difficulty]
HPDrainRate:5
CircleSize:3.5
OverallDifficulty:7.8
ApproachRate:8
SliderMultiplier:1.6
SliderTickRate:1

[Events]
//Background and Video events
0,0,"charts_of_the_universe_by_themefinland_ddilzoe.jpg",0,0
//Break Periods
2,220771,231625
//Storyboard Layer 0 (Background)
//Storyboard Layer 1 (Fail)
//Storyboard Layer 2 (Pass)
//Storyboard Layer 3 (Foreground)
//Storyboard Layer 4 (Overlay)
//Storyboard Sound Samples

[TimingPoints]
244,491.803278688525,4,2,1,40,1,0
244,-133.333333333333,4,2,1,60,0,0
15981,-66.6666666666667,4,2,0,70,0,1
16227,-66.6666666666667,4,2,0,70,0,0
31719,-100,4,2,1,60,0,0
47457,-100,4,2,1,50,0,0
63194,-100,4,2,1,60,0,0
78932,-66.6666666666667,4,3,1,70,0,1
109916,-100,4,2,1,80,0,0
110039,-100,4,2,1,60,0,0
126145,-100,4,2,1,50,0,0
141883,-100,4,2,1,60,0,0
157621,-66.6666666666667,4,3,1,70,0,1
188604,-66.6666666666667,4,2,1,80,0,0
189096,-100,4,2,1,60,0,0
204834,-133.333333333333,4,2,1,50,0,0
218850,-100,4,2,1,60,0,0
236309,-66.6666666666667,4,2,0,70,0,1
236555,-66.6666666666667,4,2,0,70,0,0
266063,-66.6666666666667,4,2,1,70,0,0
266309,-66.6666666666667,4,2,0,70,0,0
267784,-66.6666666666667,4,3,1,70,0,1
283522,-100,4,2,1,60,0,0

[Colours]
Combo1 : 64,107,151
Combo2 : 204,151,91
Combo3 : 128,158,63
Combo4 : 119,83,51

[HitObjects]
299,310,244,6,0,L|227:308,2,60.0000022888184,4|0|0,0:0|0:0|0:0,0:0:0:0:
382,358,981,1,2,0:0:0:0:
382,358,1104,1,2,0:0:0:0:
348,235,1473,1,0,0:0:0:0:
432,282,1719,1,0,0:0:0:0:
432,282,2211,6,0,P|442:243|460:200,2,60.0000022888184
346,157,2948,1,2,0:0:0:0:
346,157,3071,1,2,0:0:0:0:
478,129,3440,1,0,0:0:0:0:
419,17,3686,2,0,P|412:59|409:99,1,60.0000022888184
255,106,4178,5,0,0:0:0:0:
214,15,4424,2,0,P|181:21|145:30,1,60.0000022888184,8|0,0:0|0:0,0:0:0:0:
62,72,4916,1,0,0:0:0:0:
62,72,5039,1,0,0:0:0:0:
165,126,5284,1,0,0:0:0:0:
166,145,5407,1,0,0:0:0:0:
168,166,5530,1,0,0:0:0:0:
186,183,5653,1,0,0:0:0:0:
189,204,5776,1,0,0:0:0:0:
192,226,5899,1,0,0:0:0:0:
194,248,6022,1,0,0:0:0:0:
195,268,6145,6,0,L|274:270,2,60.0000022888184
99,341,6883,1,0,0:0:0:0:
99,341,7006,1,0,0:0:0:0:
27,266,7375,1,0,0:0:0:0:
194,142,7621,1,8,0:0:0:0:
194,142,7744,1,8,0:0:0:0:
194,142,7866,1,8,0:0:0:0:
95,191,8112,6,0,P|84:151|78:113,2,60.0000022888184,4|0|0,0:0|0:0|0:0,0:0:0:0:
236,55,8850,1,2,0:0:0:0:
236,55,8973,1,2,0:0:0:0:
143,2,9342,1,0,0:0:0:0:
194,142,9588,1,0,0:0:0:0:
194,142,10080,6,0,L|274:137,2,60.0000022888184
312,239,10817,1,2,0:0:0:0:
312,239,10940,1,2,0:0:0:0:
451,177,11309,1,0,0:0:0:0:
393,95,11555,1,0,0:0:0:0:
393,95,11801,1,0,0:0:0:0:
421,284,12047,5,0,0:0:0:0:
357,367,12293,2,0,P|316:372|279:382,1,60.0000022888184,8|0,0:0|0:0,0:0:0:0:
219,306,12784,1,0,0:0:0:0:
219,306,12907,1,0,0:0:0:0:
347,144,13153,1,0,0:0:0:0:
316,143,13276,1,2,0:0:0:0:
285,142,13399,1,2,0:0:0:0:
254,170,13522,1,2,0:0:0:0:
223,170,13645,1,2,0:0:0:0:
192,170,13768,1,2,0:0:0:0:
161,170,13891,1,2,0:0:0:0:
130,170,14014,6,0,P|111:215|103:246,2,60.0000022888184
277,211,14752,2,8,L|275:196,2,15.0000005722046
209,268,14998,1,8,0:0:0:0:
217,321,15121,1,8,0:0:0:0:
250,363,15244,1,8,0:0:0:0:
300,381,15366,1,8,0:0:0:0:
352,369,15489,1,8,0:0:0:0:
352,369,15981,5,4,1:2:0:0:
435,321,16104,1,0,0:0:0:0:
407,224,16227,2,0,L|343:233,1,60.0000022888184
183,283,16473,2,0,P|198:221|223:154,1,120.000004577637,10|0,0:0|0:0,0:0:0:0:
179,0,16842,2,0,P|164:62|139:129,1,120.000004577637,2|0,0:0|0:0,0:0:0:0:
59,77,17211,1,2,0:0:0:0:
267,91,17457,1,8,0:0:0:0:
267,91,17580,1,0,0:0:0:0:
267,91,17703,2,0,L|338:86,1,60.0000022888184
512,189,17948,5,4,1:2:0:0:
456,123,18071,1,0,0:0:0:0:
381,168,18194,2,0,L|390:236,1,60.0000022888184
451,39,18440,2,0,P|383:19|316:-10,1,120.000004577637,10|0,0:0|0:0,0:0:0:0:
289,214,18809,2,0,P|231:230|175:252,1,120.000004577637,2|0,0:0|0:0,0:0:0:0:
84,183,19178,1,2,0:0:0:0:
275,329,19424,1,8,0:0:0:0:
275,329,19547,1,0,0:0:0:0:
275,329,19670,2,0,L|349:334,1,60.0000022888184
210,134,19916,5,0,1:0:0:0:
168,212,20039,1,0,0:0:0:0:
84,183,20162,2,0,L|11:176,1,60.0000022888184
152,19,20407,2,0,P|213:44|285:61,1,120.000004577637,10|0,0:0|0:0,0:0:0:0:
294,189,20776,2,0,P|355:164|427:147,1,120.000004577637,2|0,0:0|0:0,0:0:0:0:
470,73,21145,1,2,0:0:0:0:
407,261,21391,1,8,0:0:0:0:
407,261,21514,1,0,0:0:0:0:
407,261,21637,2,0,L|404:333,1,60.0000022888184
217,371,21883,5,0,1:0:0:0:
151,302,22006,1,0,0:0:0:0:
231,251,22129,2,0,L|298:252,1,60.0000022888184
151,302,22375,2,0,P|86:294|27:279,1,120.000004577637,10|0,0:0|0:0,0:0:0:0:
84,85,22744,2,0,P|92:150|107:209,1,120.000004577637,2|0,0:0|0:0,0:0:0:0:
8,189,23112,1,2,0:0:0:0:
207,7,23358,1,8,0:0:0:0:
207,7,23481,1,0,0:0:0:0:
207,7,23604,2,0,L|139:5,1,60.0000022888184
256,85,23850,5,0,1:0:0:0:
323,150,23973,1,0,0:0:0:0:
366,60,24096,2,0,L|365:-14,1,60.0000022888184
422,140,24342,2,0,P|411:202|388:283,1,120.000004577637,10|0,0:0|0:0,0:0:0:0:
486,311,24711,2,0,P|497:249|520:168,1,120.000004577637,2|0,0:0|0:0,0:0:0:0:
512,98,25080,1,2,0:0:0:0:
334,158,25325,1,8,0:0:0:0:
334,158,25448,1,0,0:0:0:0:
334,158,25571,2,0,L|328:82,1,60.0000022888184
204,19,25817,5,0,1:0:0:0:
217,114,25940,1,0,0:0:0:0:
126,102,26063,2,0,L|46:98,1,60.0000022888184
7,263,26309,2,0,P|67:233|138:210,1,120.000004577637,10|0,0:0|0:0,0:0:0:0:
112,323,26678,2,0,P|172:353|243:376,1,120.000004577637,2|0,0:0|0:0,0:0:0:0:
321,339,27047,1,2,0:0:0:0:
210,262,27293,1,8,0:0:0:0:
210,262,27416,1,0,0:0:0:0:
210,262,27539,2,0,L|206:190,1,60.0000022888184
298,72,27784,5,0,1:0:0:0:
298,72,27907,1,0,0:0:0:0:
298,72,28030,2,0,L|217:65,1,60.0000022888184
358,175,28276,2,0,P|385:115|407:47,1,120.000004577637,10|0,0:0|0:0,0:0:0:0:
471,160,28645,2,0,P|444:220|422:288,1,120.000004577637,2|0,0:0|0:0,0:0:0:0:
323,273,29014,1,2,0:0:0:0:
411,71,29260,1,8,0:0:0:0:
411,71,29383,1,0,0:0:0:0:
411,71,29506,2,0,L|338:60,1,60.0000022888184
200,144,29752,5,0,1:0:0:0:
136,91,29875,1,0,0:0:0:0:
199,32,29998,2,0,L|262:23,1,60.0000022888184
295,186,30244,2,0,P|239:231|199:275,1,120.000004577637,10|0,0:0|0:0,0:0:0:0:
118,192,30612,2,0,P|62:147|22:103,1,120.000004577637,2|0,0:0|0:0,0:0:0:0:
72,29,30981,2,8,L|74:-7,4,30.0000011444092,10|8|8|8|12,0:3|0:3|0:3|0:3|0:3,0:3:0:0:
83,325,31719,5,12,0:0:0:0:
154,263,31965,2,0,P|219:284|316:332,1,160
306,330,32580,1,0,0:0:0:0:
368,253,32825,1,0,0:0:0:0:
368,253,32948,1,0,0:0:0:0:
273,127,33194,6,0,L|281:218,1,80,2|0,0:1|0:0,0:0:0:0:
459,233,33686,2,2,P|476:182|491:110,2,120
361,176,34670,1,0,0:0:0:0:
295,257,34916,2,0,P|345:283|379:304,1,80
440,240,35407,1,0,0:0:0:0:
225,193,35653,5,8,0:0:0:0:
149,151,35899,2,0,P|162:101|201:-4,1,160
209,0,36514,1,0,0:0:0:0:
273,89,36760,1,0,0:0:0:0:
273,89,36883,1,0,0:0:0:0:
63,17,37129,6,0,L|48:101,1,80,2|0,0:1|0:0,0:0:0:0:
71,264,37621,2,2,P|134:254|220:229,2,120
244,321,38604,1,8,0:3:0:0:
261,320,38727,1,8,0:3:0:0:
277,320,38850,1,8,0:3:0:0:
293,320,38973,1,8,0:3:0:0:
308,320,39096,1,8,0:3:0:0:
258,164,39342,1,8,0:3:0:0:
258,164,39465,1,8,0:3:0:0:
258,164,39588,5,4,0:0:0:0:
354,199,39834,2,0,P|347:149|317:38,1,160
310,38,40448,1,0,0:0:0:0:
223,71,40694,1,0,0:0:0:0:
223,71,40817,1,0,0:0:0:0:
433,144,41063,6,0,L|521:146,1,80,2|0,0:1|0:0,0:0:0:0:
373,308,41555,2,2,P|297:297|228:280,2,120
467,351,42539,1,0,0:0:0:0:
512,208,42784,2,0,P|471:232|438:262,1,80
349,215,43276,1,0,0:0:0:0:
461,97,43522,5,0,0:0:0:0:
386,42,43768,2,0,P|345:32|306:15,1,80,8|0,0:0|0:0,0:0:0:0:
205,33,44260,1,0,0:0:0:0:
168,181,44506,2,2,P|224:154|301:125,2,120
18,85,45489,6,0,P|49:145|97:261,1,160
169,309,46227,2,8,L|165:277,2,20,8|8|8,0:3|0:3|0:3,0:3:0:0:
242,368,46473,1,8,0:3:0:0:
269,370,46596,1,8,0:3:0:0:
296,371,46719,1,8,0:3:0:0:
323,373,46842,1,8,0:3:0:0:
350,374,46965,1,8,0:3:0:0:
291,180,47211,1,8,0:3:0:0:
291,180,47334,1,8,0:3:0:0:
291,180,47457,6,0,P|229:188|112:207,1,160,4|0,0:3|0:0,0:0:0:0:
192,88,48194,1,0,0:0:0:0:
277,276,48440,2,0,L|372:286,1,80,2|0,0:1|0:0,0:0:0:0:
458,206,48809,1,2,0:3:0:0:
458,206,48932,2,0,L|378:197,1,80
269,38,49424,6,0,P|348:29|435:11,1,160,4|0,0:0|0:0,0:0:0:0:
509,51,50162,1,0,0:0:0:0:
461,126,50407,2,0,L|457:210,1,80,2|0,0:3|0:0,0:0:0:0:
355,251,50776,1,2,0:3:0:0:
355,251,50899,2,0,L|358:171,1,80
181,131,51391,6,0,P|190:192|216:299,2,160,4|0|0,0:0|0:0|0:0,0:0:0:0:
276,67,52621,1,2,0:3:0:0:
276,67,52744,1,2,0:3:0:0:
276,67,52866,2,0,L|273:152,1,80
64,199,53358,6,0,P|79:130|87:30,1,160,2|0,0:0|0:0,0:0:0:0:
171,11,54096,1,0,0:0:0:0:
196,118,54342,1,8,0:1:0:0:
196,118,54588,1,8,0:1:0:0:
287,58,54834,1,8,0:3:0:0:
314,59,54957,1,8,0:3:0:0:
341,60,55080,1,8,0:3:0:0:
456,173,55325,6,0,P|472:122|482:72,2,80,4|8|0,0:3|0:0|0:0,0:0:0:0:
353,147,56063,1,0,0:0:0:0:
404,265,56309,2,0,L|501:260,1,80,2|0,0:3|0:0,0:0:0:0:
310,229,56678,1,2,0:3:0:0:
310,229,56801,2,0,L|230:233,1,80
158,319,57293,6,0,P|109:313|-29:278,1,160,4|0,0:0|0:0,0:0:0:0:
0,379,58030,1,0,0:0:0:0:
54,212,58276,2,0,L|50:123,1,80,2|0,0:3|0:0,0:0:0:0:
148,99,58645,1,2,0:3:0:0:
148,99,58768,2,0,L|151:178,1,80
297,361,59260,6,0,P|308:290|317:189,2,160,4|0|0,0:0|0:0|0:0,0:0:0:0:
404,316,60489,1,2,0:3:0:0:
404,316,60612,1,2,0:3:0:0:
404,316,60735,2,0,L|409:213,1,80
409,60,61227,5,2,0:3:0:0:
324,110,61473,2,0,P|280:100|233:76,1,80,8|0,0:0|0:0,0:0:0:0:
213,8,61965,1,0,0:0:0:0:
216,211,62211,1,0,0:3:0:0:
146,270,62457,1,8,0:3:0:0:
292,312,62703,1,8,0:3:0:0:
315,316,62825,1,8,0:3:0:0:
411,208,63071,1,8,0:3:0:0:
391,205,63194,6,0,P|393:154|404:33,1,160,4|0,0:3|0:0,0:0:0:0:
288,15,63932,1,0,0:0:0:0:
272,31,64055,2,0,P|224:38|154:-6,1,120
300,123,64670,1,2,0:0:0:0:
274,133,64793,1,2,0:0:0:0:
254,152,64916,1,2,0:0:0:0:
241,177,65039,1,2,0:0:0:0:
237,204,65162,6,0,P|260:262|278:369,1,160,4|0,0:3|0:0,0:0:0:0:
57,351,65899,1,0,0:0:0:0:
69,336,66022,2,0,P|128:332|218:321,1,120
368,372,66637,1,0,0:0:0:0:
435,297,66883,1,0,0:0:0:0:
219,210,67129,6,0,P|271:183|359:111,1,160,2|0,0:0|0:0,0:0:0:0:
458,154,67866,1,0,0:0:0:0:
478,137,67989,2,0,P|485:87|415:37,1,120
388,216,68604,1,2,0:0:0:0:
390,243,68727,1,2,0:0:0:0:
393,270,68850,1,2,0:0:0:0:
305,82,69096,6,0,P|233:77|136:62,1,160
190,158,69834,1,0,0:0:0:0:
190,158,70080,2,0,L|91:151,1,80
316,227,70571,1,8,0:3:0:0:
181,345,70817,1,8,0:3:0:0:
153,342,70940,1,8,0:3:0:0:
125,339,71063,6,0,P|130:274|136:233,1,80,4|0,0:3|0:0,0:0:0:0:
221,183,71555,1,2,0:0:0:0:
221,85,71801,1,0,0:0:0:0:
62,139,72047,2,0,P|108:138|159:102,1,80
252,200,72539,1,2,0:0:0:0:
271,220,72662,1,2,0:0:0:0:
296,231,72784,1,2,0:0:0:0:
324,231,72907,1,2,0:0:0:0:
351,223,73030,6,0,P|349:169|327:48,1,160,2|0,0:0|0:0,0:0:0:0:
412,46,73768,1,0,0:0:0:0:
255,117,74014,2,0,L|152:112,1,80
282,239,74506,1,8,0:0:0:0:
125,230,74752,1,8,0:0:0:0:
126,257,74875,1,8,0:0:0:0:
128,284,74998,6,0,P|179:295|230:314,1,80,4|0,0:3|0:0,0:0:0:0:
381,380,75489,1,2,0:0:0:0:
479,350,75735,1,0,0:0:0:0:
326,267,75981,2,0,L|335:180,1,80
458,99,76473,1,0,0:0:0:0:
433,86,76596,1,0,0:0:0:0:
405,81,76719,1,0,0:0:0:0:
377,86,76842,1,0,0:0:0:0:
353,101,76965,1,0,0:0:0:0:
256,192,77211,12,0,78440,0:0:0:0:
162,21,78932,5,4,1:0:0:0:
162,21,79055,1,0,0:0:0:0:
162,21,79178,2,0,L|157:113,1,60.0000022888184
249,257,79424,2,0,P|251:183|248:117,1,120.000004577637,10|0,0:2|0:0,0:0:0:0:
244,123,79793,1,8,0:2:0:0:
406,262,80039,1,8,0:2:0:0:
411,219,80162,1,0,0:0:0:0:
509,37,80407,1,10,0:2:0:0:
479,66,80530,1,2,0:2:0:0:
437,67,80653,1,2,0:2:0:0:
405,39,80776,1,2,0:2:0:0:
392,7,80899,6,0,P|322:27|256:49,1,120.000004577637,2|0,1:0|0:0,0:0:0:0:
129,88,81268,1,0,0:0:0:0:
129,88,81391,2,0,P|199:108|265:130,1,120.000004577637,8|0,0:2|0:0,0:0:0:0:
259,133,81760,1,8,0:2:0:0:
407,182,82006,1,8,0:2:0:0:
410,147,82129,1,0,0:0:0:0:
269,319,82375,1,10,0:2:0:0:
205,363,82498,1,2,0:2:0:0:
127,352,82621,1,2,0:2:0:0:
88,283,82744,1,2,0:2:0:0:
113,209,82866,6,0,P|194:217|253:228,1,120.000004577637,4|0,1:0|0:0,0:0:0:0:
383,250,83235,1,0,0:0:0:0:
416,128,83358,2,0,P|335:120|276:109,1,120.000004577637,10|0,0:2|0:0,0:0:0:0:
281,101,83727,1,8,0:2:0:0:
159,29,83973,1,8,0:2:0:0:
165,71,84096,1,0,0:0:0:0:
298,25,84342,1,8,0:2:0:0:
315,22,84465,1,0,0:0:0:0:
332,19,84588,1,0,0:0:0:0:
216,137,84834,6,0,P|228:212|237:274,1,120.000004577637,2|0,1:0|0:0,0:0:0:0:
120,266,85203,1,0,0:0:0:0:
120,266,85325,2,0,P|128:325|138:384,1,120.000004577637,10|0,0:2|0:0,0:0:0:0:
369,383,85694,6,0,P|312:364|254:345,1,120.000004577637,8|0,0:3|0:0,0:0:0:0:
239,347,86063,1,8,0:3:0:0:
421,143,86309,1,4,0:3:0:0:
303,3,86555,1,0,0:0:0:0:
246,0,86678,1,0,0:0:0:0:
211,34,86801,5,4,1:0:0:0:
211,34,86924,1,0,0:0:0:0:
211,34,87047,2,0,L|210:104,1,60.0000022888184
331,281,87293,2,0,P|336:217|337:147,1,120.000004577637,10|0,0:2|0:0,0:0:0:0:
335,150,87662,1,8,0:2:0:0:
457,188,87907,1,8,0:2:0:0:
463,143,88030,1,0,0:0:0:0:
212,140,88276,1,10,0:2:0:0:
226,191,88399,1,2,0:2:0:0:
196,236,88522,1,2,0:2:0:0:
141,237,88645,1,2,0:2:0:0:
108,193,88768,6,0,P|114:133|118:68,1,120.000004577637,2|0,1:0|0:0,0:0:0:0:
248,31,89137,1,0,0:0:0:0:
254,123,89260,2,0,P|248:183|244:248,1,120.000004577637,10|0,0:2|0:0,0:0:0:0:
235,255,89629,1,8,0:2:0:0:
391,190,89875,1,8,0:2:0:0:
366,182,89998,1,0,0:0:0:0:
426,36,90244,1,8,0:2:0:0:
445,23,90366,1,0,0:2:0:0:
469,19,90489,1,0,0:2:0:0:
486,23,90612,1,0,0:2:0:0:
511,41,90735,5,4,0:0:0:0:
511,41,90858,1,0,0:0:0:0:
511,41,90981,2,0,L|501:115,1,60.0000022888184
505,310,91227,2,0,P|490:245|474:189,1,120.000004577637,10|0,0:2|0:0,0:0:0:0:
478,181,91596,1,8,0:2:0:0:
363,277,91842,1,8,0:2:0:0:
350,272,91965,1,0,0:0:0:0:
222,146,92211,1,8,0:2:0:0:
241,144,92334,1,0,0:2:0:0:
262,142,92457,1,0,0:2:0:0:
285,140,92580,1,0,0:2:0:0:
309,138,92703,5,4,1:0:0:0:
76,227,92948,2,0,P|151:257|202:281,1,120.000004577637,8|0,0:0|0:0,0:0:0:0:
112,79,93440,2,8,L|110:120,2,30.0000011444092,8|8|8,0:3|0:3|0:3,0:3:0:0:
183,10,93686,1,8,0:3:0:0:
260,4,93809,1,8,0:3:0:0:
320,53,93932,1,8,0:3:0:0:
320,131,94055,1,8,0:3:0:0:
294,204,94178,1,8,0:3:0:0:
312,279,94301,1,8,0:3:0:0:
380,316,94424,1,8,0:3:0:0:
454,292,94547,1,8,0:3:0:0:
494,217,94670,5,4,1:0:0:0:
494,217,94793,1,0,0:0:0:0:
494,217,94916,2,0,L|485:150,1,60.0000022888184
390,1,95162,2,0,P|357:60|319:109,1,120.000004577637,10|0,0:2|0:0,0:0:0:0:
309,110,95530,1,8,0:2:0:0:
161,64,95776,1,8,0:2:0:0:
156,42,95899,1,0,0:0:0:0:
56,155,96145,1,10,0:2:0:0:
19,195,96268,1,2,0:2:0:0:
9,248,96391,1,2,0:2:0:0:
28,298,96514,1,2,0:2:0:0:
67,334,96637,6,0,P|146:352|211:369,1,120.000004577637,2|0,1:0|0:0,0:0:0:0:
165,237,97006,1,0,0:0:0:0:
165,237,97129,2,0,P|244:219|309:202,1,120.000004577637,10|0,0:2|0:0,0:0:0:0:
288,197,97498,1,8,0:2:0:0:
395,364,97744,1,8,0:2:0:0:
342,353,97866,1,0,0:0:0:0:
501,153,98112,1,10,0:2:0:0:
488,94,98235,1,2,0:2:0:0:
445,52,98358,1,2,0:2:0:0:
386,37,98481,1,2,0:2:0:0:
328,55,98604,6,0,P|257:103|230:125,1,120.000004577637,4|0,1:0|0:0,0:0:0:0:
142,158,98973,1,0,0:0:0:0:
164,71,99096,2,0,P|93:23|66:1,1,120.000004577637,10|0,0:2|0:0,0:0:0:0:
54,3,99465,1,8,0:2:0:0:
105,164,99711,1,8,0:2:0:0:
81,167,99834,1,0,0:0:0:0:
55,296,100080,1,10,0:2:0:0:
75,303,100203,1,2,0:0:0:0:
96,310,100325,1,2,0:0:0:0:
195,217,100571,6,0,P|261:203|319:182,1,120.000004577637,2|0,1:0|0:0,0:0:0:0:
381,264,100940,1,0,0:0:0:0:
381,264,101063,2,0,P|315:278|257:299,1,120.000004577637,10|0,0:2|0:0,0:0:0:0:
314,77,101432,6,0,P|380:114|440:156,1,120.000004577637,8|0,0:3|0:0,0:0:0:0:
429,158,101801,1,8,0:3:0:0:
416,0,102047,1,4,0:3:0:0:
248,157,102293,1,0,0:0:0:0:
194,164,102416,1,0,0:0:0:0:
162,136,102539,5,4,1:0:0:0:
162,136,102662,1,0,0:0:0:0:
162,136,102784,2,0,L|165:67,1,60.0000022888184
70,274,103030,2,0,P|128:316|182:361,1,120.000004577637,10|0,0:2|0:0,0:0:0:0:
172,361,103399,1,8,0:2:0:0:
70,163,103645,1,8,0:2:0:0:
74,187,103768,1,0,0:0:0:0:
261,319,104014,1,8,0:2:0:0:
296,286,104137,1,0,0:2:0:0:
343,284,104260,1,0,0:2:0:0:
383,309,104383,1,0,0:2:0:0:
396,355,104506,6,0,P|400:293|399:221,1,120.000004577637,2|0,1:0|0:0,0:0:0:0:
498,132,104875,1,0,0:0:0:0:
498,132,104999,2,0,P|494:194|495:266,1,120.000004577637,10|0,0:2|0:0,0:0:0:0:
497,267,105366,1,8,0:2:0:0:
309,216,105612,1,8,0:2:0:0:
294,211,105735,1,0,0:0:0:0:
198,109,105981,1,10,0:2:0:0:
221,106,106104,1,2,0:2:0:0:
240,103,106227,1,2,0:2:0:0:
256,101,106350,1,2,0:2:0:0:
283,108,106473,5,6,0:0:0:0:
283,108,106596,1,0,0:0:0:0:
283,108,106719,2,0,L|290:178,1,60.0000022888184
417,262,106965,2,0,P|446:200|484:140,1,120.000004577637,10|0,0:2|0:0,0:0:0:0:
465,143,107334,1,8,0:2:0:0:
382,40,107580,1,8,0:2:0:0:
361,37,107703,1,0,0:0:0:0:
313,194,107948,1,8,0:2:0:0:
293,198,108071,1,0,0:2:0:0:
273,203,108194,1,0,0:2:0:0:
250,207,108317,1,0,0:2:0:0:
230,211,108440,5,4,1:0:0:0:
52,68,108686,2,0,P|109:85|164:109,1,120.000004577637,8|0,0:0|0:0,0:0:0:0:
272,332,109178,2,8,L|275:374,2,30.0000011444092,8|8|8,0:3|0:3|0:3,0:3:0:0:
308,250,109424,1,8,0:3:0:0:
371,204,109547,1,8,0:3:0:0:
447,219,109670,1,8,0:3:0:0:
494,281,109793,1,8,0:3:0:0:
473,358,109916,1,8,0:3:0:0:
436,26,110407,5,4,0:0:0:0:
361,98,110653,2,0,P|280:93|193:80,1,160
197,75,111268,1,0,0:0:0:0:
192,172,111514,1,0,0:0:0:0:
192,172,111637,1,0,0:0:0:0:
17,224,111883,6,0,L|115:215,1,80,2|0,0:1|0:0,0:0:0:0:
205,276,112375,2,2,P|262:296|344:331,2,120
239,190,113358,1,0,0:0:0:0:
155,122,113604,2,0,P|146:173|141:219,1,80
142,200,114096,1,0,0:0:0:0:
218,46,114342,5,8,0:0:0:0:
299,98,114588,2,0,P|360:116|471:156,1,160
459,157,115203,1,0,0:0:0:0:
413,242,115448,1,0,0:0:0:0:
413,242,115571,1,0,0:0:0:0:
503,35,115817,6,0,L|391:43,1,80,2|0,0:1|0:0,0:0:0:0:
290,182,116309,2,2,P|353:167|428:139,2,120
172,124,117293,1,8,0:3:0:0:
169,143,117416,1,8,0:3:0:0:
164,165,117539,1,8,0:3:0:0:
160,187,117662,1,8,0:3:0:0:
157,207,117784,1,8,0:3:0:0:
234,348,118030,1,8,0:3:0:0:
234,348,118153,1,8,0:3:0:0:
234,348,118276,5,4,0:0:0:0:
294,272,118522,2,0,P|350:280|456:304,1,160
462,314,119137,1,0,0:0:0:0:
375,379,119383,1,0,0:0:0:0:
375,379,119506,1,0,0:0:0:0:
369,97,119752,6,0,L|378:195,1,80,2|0,0:1|0:0,0:0:0:0:
245,194,120244,2,2,P|246:119|254:56,2,120
59,276,121227,1,0,0:0:0:0:
125,209,121473,2,0,P|156:258|167:288,1,80
229,368,121965,1,0,0:0:0:0:
422,315,122211,5,0,0:0:0:0:
338,344,122457,2,0,P|338:303|343:256,1,80,8|0,0:0|0:0,0:0:0:0:
262,227,122948,1,0,0:0:0:0:
361,157,123194,2,2,L|487:147,2,120
102,192,124178,2,0,P|116:131|209:93,1,160
374,42,124916,2,8,L|377:12,2,20,8|8|8,0:3|0:3|0:3,0:3:0:0:
408,130,125162,1,8,0:3:0:0:
411,156,125284,1,8,0:3:0:0:
415,177,125407,1,8,0:3:0:0:
418,197,125530,1,8,0:3:0:0:
421,217,125653,1,8,0:3:0:0:
285,346,125899,1,8,0:3:0:0:
285,346,126022,1,8,0:3:0:0:
285,346,126145,6,0,P|290:277|304:183,1,160,4|0,0:3|0:0,0:0:0:0:
421,217,126883,1,0,0:0:0:0:
372,94,127129,2,0,P|325:88|263:83,1,80,2|0,0:1|0:0,0:0:0:0:
426,19,127498,1,2,0:3:0:0:
426,19,127621,2,0,P|473:25|535:30,1,80
303,187,128112,6,0,P|225:192|124:199,1,160,4|0,0:0|0:0,0:0:0:0:
62,167,128850,1,0,0:0:0:0:
191,104,129096,2,0,L|294:97,1,80,2|0,0:3|0:0,0:0:0:0:
261,2,129465,1,2,0:3:0:0:
261,2,129588,2,0,L|364:9,1,80
449,219,130080,6,0,P|393:247|302:327,1,160,4|0,0:0|0:0,0:0:0:0:
251,240,130817,1,0,0:0:0:0:
138,335,131063,2,0,P|183:359|214:383,1,80,2|0,0:3|0:0,0:0:0:0:
117,239,131432,1,2,0:3:0:0:
117,239,131555,2,0,P|72:215|41:191,1,80
110,60,132047,6,0,P|199:49|280:33,1,160,2|0,0:0|0:0,0:0:0:0:
361,65,132784,1,0,0:0:0:0:
300,163,133030,1,8,0:1:0:0:
300,163,133276,1,8,0:1:0:0:
206,142,133522,1,8,0:3:0:0:
203,162,133645,1,8,0:3:0:0:
200,182,133768,1,8,0:3:0:0:
384,198,134014,6,0,P|460:184|496:181,2,80,4|8|0,0:0|0:0|0:0,0:0:0:0:
255,83,134752,1,0,0:0:0:0:
205,165,134998,2,0,L|196:281,1,80,2|0,0:3|0:0,0:0:0:0:
270,372,135366,1,2,0:3:0:0:
270,372,135489,2,0,L|276:292,1,80
30,185,135981,6,0,P|61:228|110:331,1,160,4|0,0:0|0:0,0:0:0:0:
115,118,136719,1,0,0:0:0:0:
194,190,136965,2,0,L|289:195,1,80,2|0,0:3|0:0,0:0:0:0:
200,280,137334,1,2,0:3:0:0:
200,280,137457,2,0,L|120:275,1,80
239,83,137948,6,0,P|302:68|406:28,2,160,4|0|0,0:0|0:0|0:0,0:0:0:0:
366,168,139178,1,2,0:3:0:0:
366,168,139301,1,2,0:3:0:0:
366,168,139424,2,0,L|473:175,1,80
268,236,139916,5,2,0:0:0:0:
178,164,140162,2,0,P|174:210|177:256,1,80,8|0,0:0|0:0,0:0:0:0:
251,100,140653,1,0,0:0:0:0:
80,7,140899,1,0,0:0:0:0:
121,87,141145,1,8,0:3:0:0:
91,212,141391,1,8,0:3:0:0:
63,207,141514,1,8,0:3:0:0:
171,347,141760,1,8,0:3:0:0:
197,338,141883,6,0,P|244:331|377:323,1,160,4|0,0:3|0:0,0:0:0:0:
497,306,142621,1,0,0:0:0:0:
509,280,142744,2,0,P|498:229|434:194,1,120
257,193,143358,1,2,0:0:0:0:
226,182,143481,1,2,0:0:0:0:
208,159,143604,1,2,0:0:0:0:
204,131,143727,1,2,0:0:0:0:
210,103,143850,6,0,P|286:113|402:135,1,160,4|0,0:3|0:0,0:0:0:0:
292,244,144588,1,0,0:0:0:0:
315,260,144711,2,0,P|341:318|354:398,1,120
131,120,145325,1,0,0:0:0:0:
56,192,145571,1,0,0:0:0:0:
215,211,145817,6,0,P|221:142|225:29,1,160,2|0,0:0|0:0,0:0:0:0:
426,118,146555,1,0,0:0:0:0:
446,98,146678,2,0,P|401:54|312:57,1,120
360,216,147293,1,2,0:0:0:0:
387,210,147416,1,2,0:0:0:0:
414,204,147539,1,2,0:0:0:0:
175,282,147784,6,0,P|225:296|344:343,1,160,2|0,0:0|0:0,0:0:0:0:
404,382,148522,1,0,0:0:0:0:
416,292,148768,2,0,L|511:284,1,80
239,151,149260,1,8,0:3:0:0:
355,49,149506,1,8,0:3:0:0:
355,49,149629,1,8,0:3:0:0:
355,49,149752,6,0,P|336:101|323:146,1,80,4|0,0:3|0:0,0:0:0:0:
313,296,150244,1,2,0:0:0:0:
306,210,150489,1,0,0:0:0:0:
154,250,150735,2,0,P|209:249|243:280,1,80
382,346,151227,1,2,0:0:0:0:
409,345,151350,1,2,0:0:0:0:
433,332,151473,1,2,0:0:0:0:
449,309,151596,1,2,0:0:0:0:
456,282,151719,6,0,P|397:296|290:333,1,160,2|0,0:0|0:0,0:0:0:0:
317,125,152457,1,0,0:0:0:0:
255,209,152703,2,0,P|298:221|354:229,1,80
443,192,153194,1,8,0:0:0:0:
191,281,153440,1,8,0:0:0:0:
167,296,153563,1,8,0:0:0:0:
138,296,153686,6,0,P|140:247|148:204,1,80,4|0,0:3|0:0,0:0:0:0:
198,90,154178,1,2,0:0:0:0:
247,170,154424,1,0,0:0:0:0:
356,33,154670,2,0,P|309:24|251:20,1,80
402,216,155162,1,0,0:0:0:0:
388,252,155284,1,0,0:0:0:0:
356,282,155407,1,0,0:0:0:0:
308,289,155530,1,0,0:0:0:0:
273,273,155653,1,0,0:0:0:0:
256,192,155899,12,0,157129,0:0:0:0:
415,112,157621,5,4,1:0:0:0:
415,112,157744,1,0,0:0:0:0:
415,112,157866,2,0,L|332:107,1,60.0000022888184
176,0,158112,2,0,P|243:7|313:10,1,120.000004577637,10|0,0:2|0:0,0:0:0:0:
309,15,158481,1,8,0:2:0:0:
176,155,158727,1,8,0:2:0:0:
169,133,158850,1,0,0:0:0:0:
231,248,159096,1,10,0:2:0:0:
260,210,159219,1,2,0:2:0:0:
305,195,159342,1,2,0:2:0:0:
350,208,159465,1,2,0:2:0:0:
372,250,159588,6,0,P|366:315|350:370,1,120.000004577637,2|0,1:0|0:0,0:0:0:0:
459,302,159957,1,0,0:0:0:0:
459,302,160080,2,0,P|464:236|480:181,1,120.000004577637,10|0,0:2|0:0,0:0:0:0:
494,176,160448,1,8,0:2:0:0:
400,85,160694,1,8,0:2:0:0:
416,81,160817,1,0,0:0:0:0:
274,27,161063,1,10,0:2:0:0:
197,10,161186,1,2,0:2:0:0:
124,40,161309,1,2,0:2:0:0:
110,116,161432,1,2,0:2:0:0:
163,172,161555,6,0,P|145:241|133:304,1,120.000004577637,4|0,1:0|0:0,0:0:0:0:
13,272,161924,1,0,0:0:0:0:
38,179,162047,2,0,P|20:110|8:47,1,120.000004577637,10|0,0:2|0:0,0:0:0:0:
14,55,162416,1,8,0:2:0:0:
245,112,162662,1,8,0:2:0:0:
242,131,162784,1,0,0:0:0:0:
141,259,163030,1,10,0:2:0:0:
104,299,163153,1,2,0:2:0:0:
112,352,163276,1,2,0:2:0:0:
159,377,163399,1,2,0:2:0:0:
207,353,163522,6,0,P|265:338|324:330,1,120.000004577637,2|0,1:0|0:0,0:0:0:0:
270,221,163891,1,0,0:0:0:0:
270,221,164014,2,0,P|334:230|404:249,1,120.000004577637,10|0,0:2|0:0,0:0:0:0:
376,8,164383,6,0,L|402:143,1,120.000004577637,8|0,0:3|0:0,0:0:0:0:
411,137,164752,1,8,0:3:0:0:
211,55,164998,1,4,0:3:0:0:
76,237,165244,1,0,0:0:0:0:
109,280,165366,1,0,0:0:0:0:
169,279,165489,5,4,1:0:0:0:
169,279,165612,1,0,0:0:0:0:
169,279,165735,2,0,L|175:193,1,60.0000022888184
288,83,165981,2,0,P|279:154|278:217,1,120.000004577637,10|0,0:2|0:0,0:0:0:0:
286,213,166350,1,8,0:2:0:0:
371,152,166596,1,8,0:2:0:0:
389,147,166719,1,0,0:0:0:0:
238,317,166965,1,10,0:2:0:0:
255,361,167088,1,2,0:2:0:0:
296,384,167211,1,2,0:2:0:0:
343,380,167334,1,2,0:2:0:0:
384,355,167457,6,0,P|402:291|411:213,1,120.000004577637,2|0,1:0|0:0,0:0:0:0:
487,138,167825,1,0,0:0:0:0:
487,138,167948,2,0,P|505:202|514:280,1,120.000004577637,10|0,0:2|0:0,0:0:0:0:
511,269,168317,1,8,0:2:0:0:
326,225,168563,1,8,0:2:0:0:
321,240,168686,1,0,0:0:0:0:
375,101,168932,1,10,0:2:0:0:
369,83,169055,1,2,0:2:0:0:
356,70,169178,1,2,0:2:0:0:
340,61,169301,1,2,0:2:0:0:
330,64,169424,5,6,0:0:0:0:
330,63,169547,1,0,0:0:0:0:
330,63,169670,2,0,L|259:69,1,60.0000022888184
91,34,169916,2,0,P|155:73|201:110,1,120.000004577637,10|0,0:2|0:0,0:0:0:0:
199,113,170284,1,8,0:2:0:0:
80,212,170530,1,8,0:2:0:0:
105,200,170653,1,0,0:0:0:0:
217,288,170899,1,8,0:2:0:0:
244,299,171022,1,0,0:0:0:0:
271,310,171145,1,0,0:0:0:0:
298,322,171268,1,0,0:0:0:0:
325,334,171391,5,4,1:0:0:0:
429,127,171637,2,0,P|458:191|467:244,1,120.000004577637,8|0,0:0|0:0,0:0:0:0:
311,70,172129,2,8,L|315:30,2,30.0000011444092,8|8|8,0:3|0:3|0:3,0:3:0:0:
379,149,172375,1,8,0:3:0:0:
318,198,172498,1,8,0:3:0:0:
240,189,172621,1,8,0:3:0:0:
195,124,172744,1,8,0:3:0:0:
175,49,172866,1,8,0:3:0:0:
109,5,172989,1,8,0:3:0:0:
33,25,173112,1,8,0:3:0:0:
0,93,173235,1,8,0:3:0:0:
40,172,173358,5,4,1:0:0:0:
40,172,173481,1,0,0:0:0:0:
40,172,173604,2,0,L|114:164,1,60.0000022888184
255,308,173850,2,0,P|204:290|116:266,1,120.000004577637,10|0,0:2|0:0,0:0:0:0:
132,260,174219,1,8,0:2:0:0:
259,157,174465,1,8,0:2:0:0:
266,184,174588,1,0,0:0:0:0:
420,214,174834,1,10,0:2:0:0:
449,251,174957,1,2,0:2:0:0:
459,297,175080,1,2,0:2:0:0:
440,341,175203,1,2,0:2:0:0:
395,358,175325,6,0,P|354:307|331:243,1,120.000004577637,2|0,1:0|0:0,0:0:0:0:
237,298,175694,1,0,0:0:0:0:
237,298,175817,2,0,P|244:232|273:171,1,120.000004577637,10|0,0:2|0:0,0:0:0:0:
276,177,176186,1,8,0:2:0:0:
352,37,176432,1,8,0:2:0:0:
354,66,176555,1,0,0:0:0:0:
102,12,176801,1,10,0:2:0:0:
173,44,176924,1,2,0:2:0:0:
210,112,177047,1,2,0:2:0:0:
190,187,177170,1,2,0:2:0:0:
128,235,177293,6,0,P|71:240|-4:243,1,120.000004577637,4|0,1:0|0:0,0:0:0:0:
106,373,177662,1,0,0:0:0:0:
191,320,177784,2,0,P|248:315|323:312,1,120.000004577637,10|0,0:2|0:0,0:0:0:0:
328,318,178153,1,8,0:2:0:0:
417,85,178399,1,8,0:2:0:0:
410,104,178522,1,0,0:0:0:0:
268,111,178768,1,10,0:2:0:0:
262,89,178891,1,2,0:0:0:0:
257,69,179014,1,2,0:0:0:0:
90,251,179260,6,0,P|125:309|151:373,1,120.000004577637,2|0,1:0|0:0,0:0:0:0:
267,311,179629,1,0,0:0:0:0:
212,216,179752,2,0,P|236:161|267:110,1,120.000004577637,10|0,0:2|0:0,0:0:0:0:
512,20,180121,6,0,L|374:9,1,120.000004577637,8|0,0:3|0:0,0:0:0:0:
371,0,180489,1,8,0:3:0:0:
457,223,180735,1,4,0:3:0:0:
282,373,180981,1,0,0:0:0:0:
227,384,181104,1,0,0:0:0:0:
197,352,181227,5,4,1:0:0:0:
197,352,181350,1,0,0:0:0:0:
197,352,181473,2,0,L|212:274,1,60.0000022888184
55,192,181719,2,0,P|89:256|110:309,1,120.000004577637,10|0,0:2|0:0,0:0:0:0:
105,312,182088,1,8,0:2:0:0:
342,272,182334,1,8,0:2:0:0:
347,254,182457,1,0,0:0:0:0:
206,171,182703,1,10,0:2:0:0:
161,152,182825,1,2,0:2:0:0:
138,109,182948,1,2,0:2:0:0:
144,61,183071,1,2,0:2:0:0:
180,30,183194,6,0,P|250:17|312:9,1,120.000004577637,2|0,1:0|0:0,0:0:0:0:
448,159,183563,1,0,0:0:0:0:
448,159,183686,2,0,P|389:147|329:139,1,120.000004577637,10|0,0:2|0:0,0:0:0:0:
314,125,184055,1,8,0:2:0:0:
224,249,184301,1,8,0:2:0:0:
206,253,184424,1,0,0:0:0:0:
32,210,184670,1,10,0:2:0:0:
38,193,184793,1,2,0:2:0:0:
50,180,184916,1,2,0:2:0:0:
66,172,185039,1,2,0:2:0:0:
92,180,185162,5,6,0:0:0:0:
92,180,185284,1,0,0:0:0:0:
92,180,185407,2,0,L|85:250,1,60.0000022888184
172,108,185653,2,0,P|130:64|87:2,1,120.000004577637,10|0,0:2|0:0,0:0:0:0:
86,9,186022,1,8,0:2:0:0:
205,195,186268,1,8,0:2:0:0:
199,216,186391,1,0,0:0:0:0:
327,130,186637,1,8,0:2:0:0:
320,82,186760,1,0,0:2:0:0:
343,40,186883,1,0,0:2:0:0:
388,25,187006,1,0,0:2:0:0:
434,38,187129,5,4,1:0:0:0:
373,226,187375,2,0,L|511:204,1,120.000004577637,8|0,0:0|0:0,0:0:0:0:
295,298,187866,2,8,L|345:304,2,30.0000011444092,8|8|8,0:3|0:3|0:3,0:3:0:0:
254,214,188112,1,8,0:3:0:0:
177,200,188235,1,8,0:3:0:0:
105,232,188358,1,8,0:3:0:0:
58,294,188481,1,8,0:3:0:0:
52,371,188604,1,8,0:3:0:0:
26,45,189096,5,4,0:0:0:0:
102,97,189342,2,0,P|190:91|266:82,1,160
271,77,189957,1,0,0:0:0:0:
305,170,190203,1,0,0:0:0:0:
305,170,190325,1,0,0:0:0:0:
368,16,190571,6,0,L|370:117,1,80,2|0,0:1|0:0,0:0:0:0:
464,233,191063,2,2,P|462:177|467:96,2,120
375,372,192047,1,0,0:0:0:0:
296,327,192293,2,0,P|297:287|339:242,1,80
318,254,192784,1,0,0:0:0:0:
231,77,193030,5,8,0:0:0:0:
162,146,193276,2,0,P|184:236|195:318,1,160
190,309,193891,1,0,0:0:0:0:
226,220,194137,1,0,0:0:0:0:
226,220,194260,1,0,0:0:0:0:
13,214,194506,6,0,L|113:221,1,80,2|0,0:1|0:0,0:0:0:0:
231,77,194998,2,2,P|175:43|102:13,2,120
337,137,195981,1,8,0:3:0:0:
352,136,196104,1,8,0:3:0:0:
367,135,196227,1,8,0:3:0:0:
382,134,196350,1,8,0:3:0:0:
397,133,196473,1,8,0:3:0:0:
321,254,196719,1,8,0:3:0:0:
321,254,196842,1,8,0:3:0:0:
321,254,196965,5,4,0:0:0:0:
226,200,197211,2,0,P|202:299|195:370,1,160
184,367,197825,1,0,0:0:0:0:
105,286,198071,1,0,0:0:0:0:
105,286,198194,1,0,0:0:0:0:
266,108,198440,6,0,L|175:90,1,80,2|0,0:1|0:0,0:0:0:0:
389,206,198932,2,2,P|467:203|511:163,2,120
258,263,199916,1,0,0:0:0:0:
351,304,200162,2,0,L|374:390,1,80
372,382,200653,1,0,0:0:0:0:
320,181,200899,5,0,0:0:0:0:
295,89,201145,2,0,P|301:40|310:3,1,80,8|0,0:0|0:0,0:0:0:0:
411,84,201637,1,0,0:0:0:0:
207,128,201883,2,2,P|145:129|90:74,2,120
442,235,202866,6,0,P|368:248|269:272,1,160
74,219,203604,2,8,L|79:186,2,20,8|8|8,0:3|0:3|0:3,0:3:0:0:
30,304,203850,1,8,0:3:0:0:
72,346,203973,1,8,0:3:0:0:
131,349,204096,1,8,0:3:0:0:
181,317,204219,1,8,0:3:0:0:
205,262,204342,1,8,0:3:0:0:
230,75,204588,1,8,0:3:0:0:
230,75,204711,1,8,0:3:0:0:
230,75,204834,5,4,0:3:0:0:
319,101,205325,1,2,0:3:0:0:
319,101,205571,1,2,0:3:0:0:
405,81,205817,2,0,P|405:43|405:6,1,60.0000022888184,2|0,0:0|0:0,0:0:0:0:
492,59,206186,2,0,P|484:120|476:161,1,90.0000034332277,2|0,0:0|0:0,0:0:0:0:
478,353,206801,5,4,0:0:0:0:
396,317,207293,1,2,0:3:0:0:
396,317,207539,1,2,0:3:0:0:
370,224,207784,2,0,P|407:219|437:218,1,60.0000022888184,2|0,0:0|0:0,0:0:0:0:
505,158,208153,2,0,P|469:144|407:130,1,90.0000034332277,2|0,0:0|0:0,0:0:0:0:
167,147,208768,5,4,0:0:0:0:
248,98,209260,1,2,0:3:0:0:
248,98,209506,1,2,0:3:0:0:
321,159,209752,2,0,P|319:202|315:232,1,60.0000022888184,2|0,0:0|0:0,0:0:0:0:
228,204,210121,2,0,P|236:252|253:318,1,90.0000034332277,2|0,0:0|0:0,0:0:0:0:
381,279,210735,6,0,B|427:169|293:149|339:56,1,240.000009155274,2|0,0:0|0:0,0:0:0:0:
359,49,211842,1,8,0:3:0:0:
434,111,212211,1,8,0:3:0:0:
191,177,212457,1,8,0:3:0:0:
191,177,212580,1,8,0:3:0:0:
191,177,212703,6,0,P|200:142|213:108,1,60.0000022888184,0|8,0:0|0:0,0:0:0:0:
178,37,213194,1,2,0:3:0:0:
178,37,213440,1,2,0:3:0:0:
86,70,213686,2,0,P|82:38|80:-6,1,60.0000022888184,2|0,0:0|0:0,0:0:0:0:
0,71,214055,2,0,P|4:103|8:166,1,90.0000034332277,2|0,0:0|0:0,0:0:0:0:
152,346,214670,5,4,0:0:0:0:
63,327,215162,1,2,0:3:0:0:
63,327,215408,1,2,0:3:0:0:
106,232,215653,2,0,P|145:234|181:238,1,60.0000022888184,2|0,0:0|0:0,0:0:0:0:
189,156,216022,2,0,P|227:170|289:200,1,90.0000034332277,2|0,0:0|0:0,0:0:0:0:
496,52,216637,5,4,0:0:0:0:
489,140,217129,1,2,0:3:0:0:
489,140,217375,1,2,0:3:0:0:
399,89,217621,2,0,P|365:95|336:102,1,60.0000022888184,2|0,0:0|0:0,0:0:0:0:
269,159,217989,2,0,P|241:102|232:52,1,90.0000034332277,2|0,0:0|0:0,0:0:0:0:
308,18,218604,5,0,0:0:0:0:
349,205,218850,1,8,0:0:0:0:
349,205,219342,2,8,L|350:167,2,20,8|8|8,0:3|0:3|0:3,0:3:0:0:
392,287,219588,1,8,0:3:0:0:
340,317,219711,1,8,0:3:0:0:
280,309,219834,1,8,0:3:0:0:
246,259,219957,1,8,0:3:0:0:
194,228,220080,1,8,0:3:0:0:
40,368,220325,1,8,0:3:0:0:
78,333,220448,1,8,0:3:0:0:
128,322,220571,5,4,0:3:0:0:
181,57,232375,6,0,L|172:154,1,80,4|0,0:3|0:0,0:0:0:0:
280,40,232866,1,4,0:0:0:0:
272,119,233111,1,0,0:0:0:0:
371,345,233358,2,0,L|378:265,1,80
272,363,233850,1,0,0:0:0:0:
278,283,234095,1,0,0:0:0:0:
386,143,234342,5,0,0:0:0:0:
256,192,234588,12,0,235817,0:0:0:0:
87,211,236309,5,4,1:2:0:0:
51,133,236432,1,0,0:0:0:0:
121,78,236555,2,0,P|175:87|203:93,1,60.0000022888184
192,306,236801,2,0,P|187:239|176:163,1,120.000004577637,10|0,0:0|0:0,0:0:0:0:
326,127,237170,2,0,P|318:186|314:246,1,120.000004577637,2|0,0:0|0:0,0:0:0:0:
374,341,237539,1,2,0:0:0:0:
511,193,237784,1,8,0:0:0:0:
511,193,237907,1,0,0:0:0:0:
511,193,238030,2,0,L|425:187,1,60.0000022888184
259,72,238276,5,0,1:0:0:0:
346,23,238399,1,0,0:0:0:0:
406,93,238522,2,0,P|381:121|366:150,1,60.0000022888184
270,276,238768,2,0,P|243:215|232:144,1,120.000004577637,10|0,0:0|0:0,0:0:0:0:
384,384,239137,2,0,P|411:323|422:252,1,120.000004577637,2|0,0:0|0:0,0:0:0:0:
511,193,239506,1,2,0:0:0:0:
266,72,239752,1,8,0:0:0:0:
266,72,239875,1,0,0:0:0:0:
266,72,239998,2,0,P|301:59|334:53,1,60.0000022888184
167,218,240244,5,0,1:0:0:0:
87,161,240366,1,0,0:0:0:0:
158,99,240489,2,0,P|151:69|141:41,1,60.0000022888184
79,253,240735,2,0,P|67:323|55:380,1,120.000004577637,10|0,0:0|0:0,0:0:0:0:
293,302,241104,2,0,P|305:232|317:175,1,120.000004577637,2|0,0:0|0:0,0:0:0:0:
234,152,241473,1,2,0:0:0:0:
410,245,241719,1,8,0:0:0:0:
410,245,241842,1,0,0:0:0:0:
410,245,241965,2,0,L|477:245,1,60.0000022888184
355,16,242211,5,0,1:0:0:0:
298,88,242334,1,0,0:0:0:0:
210,53,242457,2,0,L|136:59,1,60.0000022888184
233,203,242703,2,0,P|304:177|379:163,1,120.000004577637,10|0,0:0|0:0,0:0:0:0:
80,285,243071,2,0,P|143:300|195:321,1,120.000004577637,2|0,0:3|0:0,0:0:0:0:
284,293,243440,1,2,0:0:0:0:
152,92,243686,1,8,0:0:0:0:
134,116,243809,1,0,0:0:0:0:
124,144,243932,1,0,0:0:0:0:
131,173,244055,1,0,0:0:0:0:
160,202,244178,5,4,1:2:0:0:
160,202,244301,1,0,0:0:0:0:
160,202,244424,2,0,L|233:197,1,60.0000022888184
373,350,244670,2,0,P|339:296|292:230,1,120.000004577637,10|0,0:0|0:0,0:0:0:0:
395,169,245039,2,0,P|429:115|476:49,1,120.000004577637,2|0,0:0|0:0,0:0:0:0:
509,162,245407,1,2,0:0:0:0:
292,91,245653,1,8,0:0:0:0:
292,91,245776,1,0,0:0:0:0:
292,91,245899,2,0,L|301:160,1,60.0000022888184
142,118,246145,5,0,1:0:0:0:
49,127,246268,1,0,0:0:0:0:
64,30,246391,2,0,L|135:33,1,60.0000022888184
203,191,246637,2,0,P|140:232|91:272,1,120.000004577637,10|0,0:0|0:0,0:0:0:0:
237,302,247006,2,0,P|300:343|349:383,1,120.000004577637,2|0,0:0|0:0,0:0:0:0:
431,354,247375,1,2,0:0:0:0:
353,218,247621,1,8,0:0:0:0:
369,224,247744,1,0,0:0:0:0:
386,226,247866,1,0,0:0:0:0:
403,224,247989,1,0,0:0:0:0:
427,224,248112,5,0,1:0:0:0:
427,224,248235,1,0,0:0:0:0:
427,224,248358,2,0,L|432:144,1,60.0000022888184
329,0,248604,2,0,P|333:70|337:131,1,120.000004577637,10|0,0:0|0:0,0:0:0:0:
266,174,248973,1,2,0:0:0:0:
193,61,249219,1,0,0:0:0:0:
171,54,249342,1,2,0:0:0:0:
67,229,249588,1,8,0:0:0:0:
40,207,249711,1,0,0:0:0:0:
35,179,249834,1,0,0:0:0:0:
51,148,249957,1,0,0:0:0:0:
81,129,250080,5,4,1:0:0:0:
214,273,250325,2,0,P|156:289|89:314,1,120.000004577637,8|0,0:0|0:0,0:0:0:0:
285,185,250817,2,8,L|230:175,2,30.0000011444092,8|8|8,0:3|0:3|0:3,0:3:0:0:
303,314,251063,1,8,0:3:0:0:
362,324,251186,1,8,0:3:0:0:
408,286,251309,1,8,0:3:0:0:
420,227,251432,1,8,0:3:0:0:
388,175,251555,1,8,0:3:0:0:
371,117,251678,1,8,0:3:0:0:
396,62,251801,1,8,0:3:0:0:
452,41,251924,1,8,0:3:0:0:
512,66,252047,5,4,1:2:0:0:
512,66,252170,1,0,0:0:0:0:
512,66,252293,2,0,L|421:80,1,60.0000022888184
278,135,252539,2,0,P|293:72|312:17,1,120.000004577637,10|0,0:0|0:0,0:0:0:0:
119,102,252907,2,0,P|134:165|153:220,1,120.000004577637,2|0,0:0|0:0,0:0:0:0:
209,43,253276,1,2,0:0:0:0:
444,226,253522,1,8,0:0:0:0:
444,226,253645,1,0,0:0:0:0:
444,226,253768,2,0,L|452:149,1,60.0000022888184
321,377,254014,5,4,1:0:0:0:
405,329,254137,1,0,0:0:0:0:
344,253,254260,2,0,L|256:244,1,60.0000022888184
191,136,254506,2,0,P|125:105|61:64,1,120.000004577637,10|0,0:0|0:0,0:0:0:0:
256,62,254875,2,0,P|307:31|362:6,1,120.000004577637,2|0,0:0|0:0,0:0:0:0:
440,58,255244,1,2,0:0:0:0:
275,220,255489,1,8,0:0:0:0:
275,220,255612,1,0,0:0:0:0:
275,220,255735,2,0,L|280:145,1,60.0000022888184
491,215,255981,5,0,1:0:0:0:
409,178,256104,1,0,0:0:0:0:
371,261,256227,2,0,P|378:296|387:332,1,60.0000022888184
131,368,256473,2,0,P|136:306|141:222,1,120.000004577637,10|0,0:0|0:0,0:0:0:0:
103,46,256842,2,0,P|98:108|93:192,1,120.000004577637,2|0,0:0|0:0,0:0:0:0:
45,246,257211,1,2,0:0:0:0:
255,151,257457,1,8,0:0:0:0:
255,151,257580,1,0,0:0:0:0:
255,151,257703,2,0,L|173:147,1,60.0000022888184
283,47,257948,5,0,1:0:0:0:
374,14,258071,1,0,0:0:0:0:
399,105,258194,2,0,P|382:142|374:172,1,60.0000022888184
198,240,258440,2,0,P|258:255|328:284,1,120.000004577637,10|0,0:0|0:0,0:0:0:0:
271,384,258809,2,0,P|331:369|401:340,1,120.000004577637,2|0,0:0|0:0,0:0:0:0:
444,265,259178,1,2,0:0:0:0:
270,165,259424,1,8,0:0:0:0:
270,165,259547,1,0,0:0:0:0:
270,165,259670,2,0,L|264:93,1,60.0000022888184
107,31,259916,5,0,1:0:0:0:
29,104,260039,1,0,0:0:0:0:
105,162,260162,2,0,L|175:149,1,60.0000022888184
393,60,260407,2,0,P|335:32|280:-2,1,120.000004577637,10|0,0:0|0:0,0:0:0:0:
379,170,260776,2,0,P|436:197|492:232,1,120.000004577637,2|0,0:0|0:0,0:0:0:0:
265,105,261145,1,2,0:0:0:0:
232,335,261391,1,8,0:0:0:0:
232,335,261514,1,0,0:0:0:0:
232,335,261637,2,0,L|152:344,1,60.0000022888184
285,191,261883,5,0,1:0:0:0:
314,278,262006,1,0,0:0:0:0:
403,259,262129,2,0,L|478:258,1,60.0000022888184
210,244,262375,2,0,P|146:232|78:214,1,120.000004577637,10|0,0:0|0:0,0:0:0:0:
140,22,262744,2,0,P|152:86|170:154,1,120.000004577637,2|0,0:0|0:0,0:0:0:0:
285,191,263112,1,2,0:0:0:0:
378,32,263358,1,8,0:0:0:0:
378,32,263481,1,0,0:0:0:0:
378,32,263604,2,0,L|371:111,1,60.0000022888184
464,240,263850,5,0,1:0:0:0:
464,240,263973,1,0,0:0:0:0:
464,240,264096,2,0,P|426:244|383:253,1,60.0000022888184
274,310,264342,2,0,P|276:248|288:177,1,120.000004577637,10|0,0:0|0:0,0:0:0:0:
174,251,264711,2,0,P|172:313|160:384,1,120.000004577637,2|0,0:0|0:0,0:0:0:0:
69,307,265080,1,2,0:0:0:0:
132,148,265325,1,8,0:0:0:0:
132,148,265448,1,0,0:0:0:0:
132,148,265571,2,0,L|210:156,1,60.0000022888184
247,44,265817,5,0,1:0:0:0:
331,8,265940,1,0,0:0:0:0:
396,69,266063,2,0,L|373:147,1,60.0000022888184,8|0,0:3|0:0,0:0:0:0:
500,254,266309,2,0,P|488:183|485:115,1,120.000004577637,10|0,0:0|0:0,0:0:0:0:
384,231,266678,2,0,P|324:235|265:245,1,120.000004577637,2|0,0:0|0:0,0:0:0:0:
170,188,267047,2,8,L|121:183,4,30.0000011444092,8|8|8|8|12,0:3|0:3|0:3|0:3|0:3,0:3:0:0:
389,355,267784,5,4,1:0:0:0:
389,355,267907,1,0,0:0:0:0:
389,355,268030,2,0,P|351:339|310:326,1,60.0000022888184
65,378,268276,2,0,P|132:370|190:367,1,120.000004577637,10|0,0:2|0:0,0:0:0:0:
199,356,268645,1,8,0:2:0:0:
104,230,268891,1,8,0:2:0:0:
98,246,269014,1,0,0:0:0:0:
227,220,269260,1,10,0:2:0:0:
196,175,269383,1,2,0:2:0:0:
192,121,269506,1,2,0:2:0:0:
217,73,269629,1,2,0:2:0:0:
263,46,269752,6,0,P|332:72|390:86,1,120.000004577637,2|0,1:0|0:0,0:0:0:0:
444,217,270121,1,0,0:0:0:0:
444,217,270244,2,0,P|375:191|317:177,1,120.000004577637,10|0,0:2|0:0,0:0:0:0:
305,181,270612,1,8,0:2:0:0:
465,11,270858,1,8,0:2:0:0:
469,29,270981,1,0,0:0:0:0:
259,351,271227,1,10,0:2:0:0:
254,273,271350,1,2,0:2:0:0:
287,202,271473,1,2,0:2:0:0:
348,153,271596,1,2,0:2:0:0:
424,135,271719,6,0,P|362:133|302:127,1,120.000004577637,4|0,1:0|0:0,0:0:0:0:
169,244,272088,1,0,0:0:0:0:
89,151,272211,2,0,P|151:153|211:159,1,120.000004577637,10|0,0:2|0:0,0:0:0:0:
215,173,272580,1,8,0:2:0:0:
176,22,272825,1,8,0:2:0:0:
183,40,272948,1,0,0:0:0:0:
385,198,273194,1,10,0:2:0:0:
431,185,273317,1,2,0:2:0:0:
458,145,273440,1,2,0:2:0:0:
469,98,273563,1,2,0:2:0:0:
452,53,273686,6,0,P|388:42|317:26,1,120.000004577637,2|0,1:0|0:0,0:0:0:0:
197,96,274055,1,0,0:0:0:0:
197,96,274178,2,0,P|260:106|332:123,1,120.000004577637,8|0,0:2|0:0,0:0:0:0:
179,356,274547,6,0,P|164:289|144:227,1,120.000004577637,8|0,0:3|0:0,0:0:0:0:
134,232,274916,1,8,0:3:0:0:
354,364,275162,1,4,0:3:0:0:
354,181,275407,1,0,0:0:0:0:
309,176,275530,1,0,0:0:0:0:
280,215,275653,5,4,1:0:0:0:
280,215,275776,1,0,0:0:0:0:
280,215,275899,2,0,L|273:282,1,60.0000022888184
183,146,276145,2,0,P|170:78|154:7,1,120.000004577637,10|0,0:2|0:0,0:0:0:0:
146,17,276514,1,8,0:2:0:0:
31,127,276760,1,8,0:2:0:0:
53,135,276883,1,0,0:0:0:0:
236,240,277129,1,10,0:2:0:0:
195,214,277252,1,2,0:2:0:0:
150,221,277375,1,2,0:2:0:0:
116,254,277498,1,2,0:2:0:0:
118,301,277621,6,0,P|183:334|248:380,1,120.000004577637,2|0,1:0|0:0,0:0:0:0:
337,290,277989,1,0,0:0:0:0:
368,384,278112,2,0,P|433:351|498:305,1,120.000004577637,10|0,0:2|0:0,0:0:0:0:
479,313,278481,1,8,0:2:0:0:
402,192,278727,1,8,0:2:0:0:
409,171,278850,1,0,0:0:0:0:
206,84,279096,1,10,0:2:0:0:
217,63,279219,1,2,0:2:0:0:
237,50,279342,1,2,0:2:0:0:
260,46,279465,1,2,0:2:0:0:
291,57,279588,5,6,0:0:0:0:
291,57,279711,1,0,0:0:0:0:
291,57,279834,2,0,L|280:119,1,60.0000022888184
156,229,280080,2,0,P|134:177|119:99,1,120.000004577637,10|0,0:2|0:0,0:0:0:0:
112,105,280448,1,8,0:2:0:0:
54,255,280694,1,8,0:2:0:0:
27,245,280817,1,0,0:0:0:0:
146,381,281063,1,8,0:2:0:0:
168,349,281186,1,0,0:2:0:0:
203,334,281309,1,0,0:2:0:0:
240,339,281432,1,0,0:2:0:0:
269,357,281555,5,4,1:0:0:0:
468,249,281801,2,0,P|404:256|340:268,1,120.000004577637,8|0,0:0|0:0,0:0:0:0:
136,112,282293,2,8,L|129:163,2,30.0000011444092,8|8|8,0:3|0:3|0:3,0:3:0:0:
188,39,282539,1,8,0:3:0:0:
264,21,282662,1,8,0:3:0:0:
338,40,282784,1,8,0:3:0:0:
388,99,282907,1,8,0:3:0:0:
405,174,283030,1,8,0:3:0:0:
137,271,283522,5,4,0:0:0:0:
214,347,283768,2,0,P|222:289|225:153,1,160
220,177,284383,1,0,0:0:0:0:
243,83,284629,1,0,0:0:0:0:
243,83,284752,1,0,0:0:0:0:
29,43,284998,6,0,L|121:33,1,80,2|0,0:1|0:0,0:0:0:0:
135,203,285489,2,2,P|71:187|-6:179,2,120
268,221,286473,1,0,0:0:0:0:
246,62,286719,2,0,P|276:103|296:143,1,80
289,128,287211,1,0,0:0:0:0:
479,92,287457,5,8,0:0:0:0:
511,235,287703,2,0,P|453:225|347:196,1,160
342,206,288317,1,0,0:0:0:0:
220,181,288563,1,0,0:0:0:0:
220,181,288686,1,0,0:0:0:0:
241,342,288932,6,0,L|246:246,1,80,2|0,0:1|0:0,0:0:0:0:
116,156,289424,2,2,P|126:224|129:280,2,120
241,15,290407,1,8,0:3:0:0:
256,14,290530,1,8,0:3:0:0:
271,16,290653,1,8,0:3:0:0:
285,22,290776,1,8,0:3:0:0:
297,31,290899,1,8,0:3:0:0:
394,141,291145,1,8,0:3:0:0:
394,141,291268,1,8,0:3:0:0:
394,141,291391,5,4,0:0:0:0:
299,188,291637,2,0,L|125:178,1,160
132,169,292252,1,0,0:0:0:0:
52,230,292498,1,0,0:0:0:0:
52,230,292621,1,0,0:0:0:0:
236,376,292866,6,0,L|226:274,1,80,2|0,0:1|0:0,0:0:0:0:
379,221,293358,2,2,P|366:296|352:347,2,120
368,80,294342,1,0,0:0:0:0:
459,124,294588,2,0,P|475:170|481:206,1,80
480,200,295080,1,0,0:0:0:0:
312,175,295325,5,0,0:0:0:0:
245,113,295571,2,0,P|207:116|158:126,1,80,8|0,0:0|0:0,0:0:0:0:
165,123,296063,1,0,0:0:0:0:
209,232,296309,2,2,P|178:304|163:370,2,120
256,51,297293,6,0,L|439:41,1,160
452,218,298030,2,8,L|456:185,2,20,8|8|8,0:3|0:3|0:3,0:3:0:0:
484,308,298276,1,8,0:3:0:0:
450,347,298399,1,8,0:3:0:0:
399,360,298522,1,8,0:3:0:0:
347,354,298645,1,8,0:3:0:0:
305,322,298768,1,8,0:3:0:0:
310,97,299014,1,8,0:3:0:0:
310,97,299137,1,8,0:3:0:0:
310,97,299260,1,0,0:0:0:0:
