osu file format v14

[General]
AudioFilename: halo_6.mp3
AudioLeadIn: 0
PreviewTime: 175291
Countdown: 0
SampleSet: Normal
StackLeniency: 0.7
Mode: 1
LetterboxInBreaks: 0
WidescreenStoryboard: 0

[Editor]
Bookmarks: 23140,53737,88160,125929,198598,241143,256441,279390
DistanceSpacing: 2
BeatDivisor: 12
GridSize: 8
TimelineZoom: 1.8

[Metadata]
Title:Halloween Night (Dangdut Version)
TitleUnicode:Halloween Night (Dangdut Version)
Artist:JKT48
ArtistUnicode:JKT48
Creator:Volta
Version:Oni
Source:
Tags:bahasa indonesia indonesian pop idol Rezky Wiranti Dhike Sendy Ariani Shinta Naomi Rina Chikano 近野 莉菜 Siti Rinayanti 近野莉菜 4 duren ver ハロウィン・ナイト 秋元 康 秋元康 井上ヨシマサ Akimoto Yasushi Inoue Yoshimasa
BeatmapID:3811572
BeatmapSetID:1854815

[Difficulty]
HPDrainRate:5
CircleSize:5
OverallDifficulty:5
ApproachRate:5
SliderMultiplier:1.4
SliderTickRate:1

[Events]
//Background and Video events
0,0,"haha.jpg",0,69
//Break Periods
2,241346,247595
//Storyboard Layer 0 (Background)
//Storyboard Layer 1 (Fail)
//Storyboard Layer 2 (Pass)
//Storyboard Layer 3 (Foreground)
//Storyboard Layer 4 (Overlay)
//Storyboard Sound Samples

[TimingPoints]
190,478.08764940239,4,1,0,70,1,0
88158,-100,4,1,0,80,0,1
126405,-100,4,1,0,70,0,0
160827,-100,4,1,0,80,0,1
199074,-100,4,1,0,70,0,0
256444,-100,4,1,0,80,0,1
279393,-100,4,1,0,70,0,0

[HitObjects]
259,159,190,5,0,0:0:0:0:
221,68,309,1,8,0:0:0:0:
297,230,548,1,8,0:0:0:0:
337,158,668,1,0,0:0:0:0:
37,158,787,1,8,0:0:0:0:
198,162,1026,1,0,0:0:0:0:
259,159,1146,1,8,0:0:0:0:
208,249,1624,1,12,0:0:0:0:
259,159,2102,1,0,0:0:0:0:
242,122,2221,1,8,0:0:0:0:
317,238,2460,1,8,0:0:0:0:
139,154,2580,1,0,0:0:0:0:
317,238,2699,1,8,0:0:0:0:
317,238,2939,1,0,0:0:0:0:
317,238,3058,1,8,0:0:0:0:
208,248,3297,1,8,0:0:0:0:
152,97,3417,1,8,0:0:0:0:
152,97,3536,1,8,0:0:0:0:
292,165,3775,1,8,0:0:0:0:
317,238,4014,1,8,0:0:0:0:
296,208,4134,1,0,0:0:0:0:
110,104,4373,1,8,0:0:0:0:
371,148,4492,1,0,0:0:0:0:
233,121,4612,1,8,0:0:0:0:
146,162,4851,1,8,0:0:0:0:
146,162,4970,1,0,0:0:0:0:
238,157,5448,1,12,0:0:0:0:
212,123,5927,1,8,0:0:0:0:
197,57,6046,1,0,0:0:0:0:
175,160,6285,1,8,0:0:0:0:
372,113,6405,1,0,0:0:0:0:
172,143,6524,1,8,0:0:0:0:
172,142,6763,1,8,0:0:0:0:
172,142,6883,1,0,0:0:0:0:
183,129,7122,1,8,0:0:0:0:
184,129,7241,1,8,0:0:0:0:
184,128,7361,1,8,0:0:0:0:
184,121,7839,1,0,0:0:0:0:
199,76,7958,1,8,0:0:0:0:
184,122,8197,1,8,0:0:0:0:
370,93,8317,1,0,0:0:0:0:
184,121,8437,1,8,0:0:0:0:
184,121,8676,1,0,0:0:0:0:
184,121,8795,1,8,0:0:0:0:
259,138,9273,1,12,0:0:0:0:
184,121,9751,1,0,0:0:0:0:
200,73,9871,1,8,0:0:0:0:
184,121,10110,1,8,0:0:0:0:
370,93,10229,1,0,0:0:0:0:
184,121,10349,1,8,0:0:0:0:
184,121,10588,1,0,0:0:0:0:
184,121,10707,1,8,0:0:0:0:
262,144,10946,1,8,0:0:0:0:
263,148,11066,1,8,0:0:0:0:
262,144,11186,1,8,0:0:0:0:
288,126,11425,1,8,0:0:0:0:
288,126,11664,1,8,0:0:0:0:
197,83,11783,1,0,0:0:0:0:
184,121,12022,1,8,0:0:0:0:
370,93,12142,1,0,0:0:0:0:
184,121,12261,1,8,0:0:0:0:
184,121,12500,1,8,0:0:0:0:
184,121,12620,1,0,0:0:0:0:
263,149,13098,1,12,0:0:0:0:
187,53,13576,1,0,0:0:0:0:
208,83,13695,1,8,0:0:0:0:
191,58,13935,1,8,0:0:0:0:
192,55,14174,1,8,0:0:0:0:
192,56,14413,1,0,0:0:0:0:
192,57,14532,1,8,0:0:0:0:
265,158,14771,1,8,0:0:0:0:
265,158,14891,1,8,0:0:0:0:
265,158,15010,1,8,0:0:0:0:
319,69,15249,1,8,0:0:0:0:
192,57,15488,1,4,0:0:0:0:
235,57,15847,1,0,0:0:0:0:
235,57,15966,1,8,0:0:0:0:
205,30,16205,1,0,0:0:0:0:
224,35,16325,5,8,0:0:0:0:
205,30,16444,1,0,0:0:0:0:
240,35,16684,1,0,0:0:0:0:
240,35,16923,1,8,0:0:0:0:
246,28,17042,1,8,0:0:0:0:
240,35,17162,1,0,0:0:0:0:
240,35,17281,1,8,0:0:0:0:
197,68,17401,1,0,0:0:0:0:
197,68,17879,1,12,0:0:0:0:
336,116,18357,1,0,0:0:0:0:
349,142,18715,1,0,0:0:0:0:
252,89,18835,5,8,0:0:0:0:
53,130,18954,1,0,0:0:0:0:
348,142,19074,1,8,0:0:0:0:
266,86,19313,5,4,0:0:0:0:
274,26,19672,1,0,0:0:0:0:
274,26,19791,1,8,0:0:0:0:
277,5,20030,1,0,0:0:0:0:
277,5,20269,1,0,0:0:0:0:
182,93,20508,1,0,0:0:0:0:
182,93,20628,1,0,0:0:0:0:
89,118,20747,1,8,0:0:0:0:
89,118,20986,1,0,0:0:0:0:
183,29,21106,1,8,0:0:0:0:
89,118,21225,1,0,0:0:0:0:
278,63,21464,1,8,0:0:0:0:
278,63,21703,1,0,0:0:0:0:
278,63,21823,1,8,0:0:0:0:
278,63,21942,1,8,0:0:0:0:
278,63,22062,1,0,0:0:0:0:
133,147,22182,5,12,0:0:0:0:
133,147,22421,1,12,0:0:0:0:
116,133,23138,1,4,0:0:0:0:
310,113,23496,1,0,0:0:0:0:
310,113,23616,1,8,0:0:0:0:
311,63,23855,1,0,0:0:0:0:
311,63,24094,1,0,0:0:0:0:
347,140,24572,1,8,0:0:0:0:
363,52,25050,1,0,0:0:0:0:
363,52,25409,1,0,0:0:0:0:
363,52,25528,1,8,0:0:0:0:
363,52,25767,1,0,0:0:0:0:
363,52,26006,1,0,0:0:0:0:
363,52,26245,1,0,0:0:0:0:
363,52,26365,1,0,0:0:0:0:
363,52,26484,1,8,0:0:0:0:
363,52,26723,1,0,0:0:0:0:
243,169,26843,1,8,0:0:0:0:
299,73,26962,1,0,0:0:0:0:
299,73,27321,1,0,0:0:0:0:
308,48,27440,1,8,0:0:0:0:
297,57,27680,1,0,0:0:0:0:
218,158,27919,1,8,0:0:0:0:
212,161,28038,1,8,0:0:0:0:
247,131,28158,1,0,0:0:0:0:
247,131,28397,1,8,0:0:0:0:
315,124,28636,1,8,0:0:0:0:
315,124,28755,1,8,0:0:0:0:
315,124,28875,1,8,0:0:0:0:
315,124,28994,1,8,0:0:0:0:
315,113,29114,1,4,0:0:0:0:
216,168,29353,1,8,0:0:0:0:
305,42,29472,1,4,0:0:0:0:
305,42,29831,1,4,0:0:0:0:
311,78,30189,1,0,0:0:0:0:
311,78,30309,1,8,0:0:0:0:
311,78,30548,1,0,0:0:0:0:
311,78,30668,1,8,0:0:0:0:
311,78,30787,1,0,0:0:0:0:
225,89,31146,1,0,0:0:0:0:
225,89,31265,1,8,0:0:0:0:
293,51,31504,1,0,0:0:0:0:
293,51,31743,1,0,0:0:0:0:
293,51,32221,1,8,0:0:0:0:
293,51,32699,1,0,0:0:0:0:
293,51,33058,1,0,0:0:0:0:
293,51,33178,1,8,0:0:0:0:
398,189,33417,1,0,0:0:0:0:
398,189,33656,1,0,0:0:0:0:
398,189,33895,1,0,0:0:0:0:
406,98,34014,1,0,0:0:0:0:
406,98,34134,1,8,0:0:0:0:
397,59,34373,1,0,0:0:0:0:
397,59,34492,1,8,0:0:0:0:
397,59,34612,1,0,0:0:0:0:
381,37,34970,1,0,0:0:0:0:
381,37,35090,1,8,0:0:0:0:
381,37,35329,1,0,0:0:0:0:
397,59,35568,5,8,0:0:0:0:
111,158,35807,1,0,0:0:0:0:
235,144,35927,1,0,0:0:0:0:
235,144,36046,1,8,0:0:0:0:
235,144,36285,1,8,0:0:0:0:
235,144,36405,1,0,0:0:0:0:
235,144,36524,1,8,0:0:0:0:
381,37,36763,5,4,0:0:0:0:
216,144,37002,1,8,0:0:0:0:
352,44,37122,1,4,0:0:0:0:
352,44,37480,1,4,0:0:0:0:
481,135,37719,1,8,0:0:0:0:
481,135,37839,1,0,0:0:0:0:
481,135,37958,1,8,0:0:0:0:
481,135,38197,1,0,0:0:0:0:
481,135,38317,1,0,0:0:0:0:
330,92,38437,5,12,0:0:0:0:
303,95,38915,1,8,0:0:0:0:
303,95,39154,1,0,0:0:0:0:
303,95,39393,1,0,0:0:0:0:
336,74,39751,1,0,0:0:0:0:
336,74,39871,1,8,0:0:0:0:
437,269,40110,1,8,0:0:0:0:
124,131,40229,1,0,0:0:0:0:
437,269,40349,1,0,0:0:0:0:
124,131,40468,1,8,0:0:0:0:
276,103,40588,1,4,0:0:0:0:
241,148,40827,1,8,0:0:0:0:
276,103,40946,1,4,0:0:0:0:
276,103,41305,1,4,0:0:0:0:
410,142,41544,1,8,0:0:0:0:
410,142,41664,1,0,0:0:0:0:
410,142,41783,1,8,0:0:0:0:
291,65,42022,1,8,0:0:0:0:
47,136,42142,1,8,0:0:0:0:
306,107,42261,1,0,0:0:0:0:
321,104,42620,1,0,0:0:0:0:
321,104,42739,1,8,0:0:0:0:
321,104,42978,1,0,0:0:0:0:
321,104,43217,1,0,0:0:0:0:
282,139,43576,1,0,0:0:0:0:
282,139,43695,1,8,0:0:0:0:
366,177,43935,1,0,0:0:0:0:
366,177,44054,1,8,0:0:0:0:
366,177,44174,1,0,0:0:0:0:
366,177,44293,1,0,0:0:0:0:
278,102,44413,1,12,0:0:0:0:
152,134,44652,1,0,0:0:0:0:
278,102,44771,1,12,0:0:0:0:
278,102,45130,1,12,0:0:0:0:
314,86,45369,1,0,0:0:0:0:
314,86,45488,1,0,0:0:0:0:
314,86,45608,1,8,0:0:0:0:
314,86,45847,1,0,0:0:0:0:
314,86,45966,1,8,0:0:0:0:
278,102,46086,1,4,0:0:0:0:
366,76,46325,1,8,0:0:0:0:
366,76,46444,1,0,0:0:0:0:
366,76,46684,1,0,0:0:0:0:
366,76,46803,1,8,0:0:0:0:
327,117,47042,1,0,0:0:0:0:
378,52,47281,1,8,0:0:0:0:
363,82,47401,1,0,0:0:0:0:
378,52,47640,1,0,0:0:0:0:
378,52,47759,1,8,0:0:0:0:
278,102,47998,1,4,0:0:0:0:
376,92,48237,1,8,0:0:0:0:
376,94,48357,1,0,0:0:0:0:
376,92,48596,1,0,0:0:0:0:
372,95,48715,1,8,0:0:0:0:
372,95,48954,1,0,0:0:0:0:
394,56,49193,1,8,0:0:0:0:
376,92,49313,1,0,0:0:0:0:
376,92,49552,1,0,0:0:0:0:
96,143,49672,1,8,0:0:0:0:
283,93,49911,1,12,0:0:0:0:
245,37,50150,1,8,0:0:0:0:
259,37,50269,1,0,0:0:0:0:
273,58,50508,1,0,0:0:0:0:
245,37,50628,1,8,0:0:0:0:
273,58,50867,1,0,0:0:0:0:
177,17,51106,1,8,0:0:0:0:
177,17,51225,1,0,0:0:0:0:
306,31,51464,1,0,0:0:0:0:
177,17,51584,1,8,0:0:0:0:
283,93,51823,1,12,0:0:0:0:
283,93,52062,1,12,0:0:0:0:
283,93,52301,1,12,0:0:0:0:
283,93,52540,1,12,0:0:0:0:
283,93,52779,1,12,0:0:0:0:
366,168,53018,1,8,0:0:0:0:
366,168,53138,1,0,0:0:0:0:
366,168,53257,1,8,0:0:0:0:
366,168,53377,1,0,0:0:0:0:
116,133,53735,1,4,0:0:0:0:
310,113,54094,1,0,0:0:0:0:
310,113,54213,1,8,0:0:0:0:
311,63,54452,1,0,0:0:0:0:
311,63,54691,1,0,0:0:0:0:
347,140,55170,1,8,0:0:0:0:
363,52,55648,1,0,0:0:0:0:
363,52,56006,1,0,0:0:0:0:
363,52,56126,1,8,0:0:0:0:
363,52,56365,1,0,0:0:0:0:
363,52,56604,1,0,0:0:0:0:
363,52,56843,1,0,0:0:0:0:
363,52,56962,1,0,0:0:0:0:
363,52,57082,1,8,0:0:0:0:
363,52,57321,1,8,0:0:0:0:
243,169,57440,1,8,0:0:0:0:
299,73,57560,1,0,0:0:0:0:
299,73,57919,1,0,0:0:0:0:
308,48,58038,1,8,0:0:0:0:
297,57,58277,1,0,0:0:0:0:
218,158,58516,1,0,0:0:0:0:
212,161,58636,1,8,0:0:0:0:
247,131,58755,1,0,0:0:0:0:
247,131,58994,1,8,0:0:0:0:
315,124,59233,1,8,0:0:0:0:
315,124,59353,1,8,0:0:0:0:
315,124,59472,1,8,0:0:0:0:
315,124,59592,1,8,0:0:0:0:
315,113,59711,1,4,0:0:0:0:
311,72,59950,1,8,0:0:0:0:
305,42,60070,1,4,0:0:0:0:
305,42,60429,1,4,0:0:0:0:
311,78,60787,1,0,0:0:0:0:
311,78,60907,1,8,0:0:0:0:
311,78,61146,1,0,0:0:0:0:
311,78,61265,1,8,0:0:0:0:
311,78,61385,1,0,0:0:0:0:
225,89,61743,1,0,0:0:0:0:
225,89,61863,1,8,0:0:0:0:
293,51,62102,1,0,0:0:0:0:
293,51,62341,1,0,0:0:0:0:
293,51,62819,1,8,0:0:0:0:
293,51,63297,1,0,0:0:0:0:
293,51,63656,1,0,0:0:0:0:
293,51,63775,1,8,0:0:0:0:
398,189,64014,1,0,0:0:0:0:
398,189,64253,1,8,0:0:0:0:
398,189,64492,1,8,0:0:0:0:
406,98,64612,1,0,0:0:0:0:
406,98,64731,1,8,0:0:0:0:
397,59,64970,1,8,0:0:0:0:
397,59,65090,1,8,0:0:0:0:
397,59,65209,1,0,0:0:0:0:
381,37,65568,1,0,0:0:0:0:
381,37,65688,1,8,0:0:0:0:
381,37,65927,1,0,0:0:0:0:
397,59,66166,5,8,0:0:0:0:
111,158,66405,1,0,0:0:0:0:
235,144,66524,1,0,0:0:0:0:
235,144,66644,1,8,0:0:0:0:
235,144,66883,1,8,0:0:0:0:
235,144,67002,1,0,0:0:0:0:
235,144,67122,1,8,0:0:0:0:
381,37,67361,5,4,0:0:0:0:
90,135,67600,1,8,0:0:0:0:
352,44,67719,1,4,0:0:0:0:
352,44,68078,1,4,0:0:0:0:
481,135,68317,1,8,0:0:0:0:
481,135,68437,1,0,0:0:0:0:
481,135,68556,1,8,0:0:0:0:
481,135,68795,1,0,0:0:0:0:
481,135,68915,1,0,0:0:0:0:
330,92,69034,5,12,0:0:0:0:
303,95,69512,1,8,0:0:0:0:
303,95,69751,1,0,0:0:0:0:
303,95,69990,1,0,0:0:0:0:
336,74,70349,1,0,0:0:0:0:
336,74,70468,1,8,0:0:0:0:
437,269,70707,1,8,0:0:0:0:
124,131,70827,1,8,0:0:0:0:
437,269,70946,1,0,0:0:0:0:
124,131,71066,1,8,0:0:0:0:
276,103,71186,1,4,0:0:0:0:
221,152,71425,1,8,0:0:0:0:
276,103,71544,1,4,0:0:0:0:
276,103,71903,1,4,0:0:0:0:
410,142,72142,1,8,0:0:0:0:
410,142,72261,1,0,0:0:0:0:
410,142,72381,1,8,0:0:0:0:
291,65,72620,1,8,0:0:0:0:
47,136,72739,1,8,0:0:0:0:
306,107,72859,1,0,0:0:0:0:
321,104,73217,1,0,0:0:0:0:
321,104,73337,1,8,0:0:0:0:
321,104,73576,1,0,0:0:0:0:
321,104,73815,1,0,0:0:0:0:
282,139,74174,1,0,0:0:0:0:
282,139,74293,1,8,0:0:0:0:
366,177,74532,1,0,0:0:0:0:
366,177,74652,1,8,0:0:0:0:
366,177,74771,1,0,0:0:0:0:
366,177,74891,1,0,0:0:0:0:
278,102,75010,1,12,0:0:0:0:
276,178,75249,1,0,0:0:0:0:
278,102,75369,1,12,0:0:0:0:
278,102,75727,1,12,0:0:0:0:
314,86,75966,1,0,0:0:0:0:
314,86,76086,1,0,0:0:0:0:
314,86,76205,1,8,0:0:0:0:
314,86,76444,1,0,0:0:0:0:
314,86,76564,1,8,0:0:0:0:
278,102,76684,1,4,0:0:0:0:
304,47,76923,1,8,0:0:0:0:
304,47,77042,1,0,0:0:0:0:
304,47,77281,1,0,0:0:0:0:
304,47,77401,1,8,0:0:0:0:
321,18,77640,1,0,0:0:0:0:
321,18,77879,1,8,0:0:0:0:
321,18,77998,1,0,0:0:0:0:
321,18,78237,1,0,0:0:0:0:
321,18,78357,1,8,0:0:0:0:
471,189,78596,1,4,0:0:0:0:
304,47,78835,1,8,0:0:0:0:
304,47,78954,1,0,0:0:0:0:
304,47,79193,1,0,0:0:0:0:
304,47,79313,1,8,0:0:0:0:
321,18,79552,1,0,0:0:0:0:
321,18,79791,1,8,0:0:0:0:
321,18,79911,1,0,0:0:0:0:
321,18,80150,1,0,0:0:0:0:
321,18,80269,1,8,0:0:0:0:
471,189,80508,1,12,0:0:0:0:
304,47,80747,1,8,0:0:0:0:
304,47,80867,1,0,0:0:0:0:
304,47,81106,1,0,0:0:0:0:
304,47,81225,1,8,0:0:0:0:
321,18,81464,1,0,0:0:0:0:
321,18,81703,1,8,0:0:0:0:
321,18,81823,1,0,0:0:0:0:
321,18,82062,1,0,0:0:0:0:
321,18,82182,1,8,0:0:0:0:
190,155,82421,1,0,0:0:0:0:
304,47,82660,1,8,0:0:0:0:
304,47,82779,1,0,0:0:0:0:
304,47,83018,1,0,0:0:0:0:
304,47,83138,1,8,0:0:0:0:
321,18,83377,1,0,0:0:0:0:
321,18,83616,1,8,0:0:0:0:
321,18,83735,1,0,0:0:0:0:
321,18,83974,1,0,0:0:0:0:
321,18,84094,1,8,0:0:0:0:
471,189,84333,1,12,0:0:0:0:
471,189,84572,1,12,0:0:0:0:
471,189,84811,1,4,0:0:0:0:
471,189,85050,1,4,0:0:0:0:
471,189,85289,1,12,0:0:0:0:
471,189,85528,1,12,0:0:0:0:
471,189,85767,1,0,0:0:0:0:
471,189,85887,1,8,0:0:0:0:
350,43,86006,1,0,0:0:0:0:
350,43,86126,1,8,0:0:0:0:
320,86,86245,1,0,0:0:0:0:
350,43,86723,1,12,0:0:0:0:
291,87,87440,1,8,0:0:0:0:
291,87,87680,1,0,0:0:0:0:
291,87,87919,1,8,0:0:0:0:
347,46,88158,1,4,0:0:0:0:
56,143,88397,1,0,0:0:0:0:
271,160,88516,1,0,0:0:0:0:
271,160,88636,1,8,0:0:0:0:
271,160,88875,1,0,0:0:0:0:
71,138,89114,1,0,0:0:0:0:
40,101,89472,1,0,0:0:0:0:
40,101,89592,1,8,0:0:0:0:
13,138,89831,1,0,0:0:0:0:
13,138,89950,1,8,0:0:0:0:
13,138,90070,1,0,0:0:0:0:
310,127,90309,1,8,0:0:0:0:
310,127,90429,1,0,0:0:0:0:
310,127,90548,1,8,0:0:0:0:
310,127,90668,1,8,0:0:0:0:
310,127,90787,1,0,0:0:0:0:
310,127,91026,1,0,0:0:0:0:
310,127,91265,1,8,0:0:0:0:
310,127,91385,1,0,0:0:0:0:
236,115,91504,1,8,0:0:0:0:
236,115,91743,1,8,0:0:0:0:
406,165,91982,1,0,0:0:0:0:
362,114,92221,1,0,0:0:0:0:
138,69,92341,1,0,0:0:0:0:
190,38,92460,1,8,0:0:0:0:
190,38,92699,1,0,0:0:0:0:
190,38,92939,1,0,0:0:0:0:
299,106,93297,1,0,0:0:0:0:
303,99,93417,1,8,0:0:0:0:
203,82,93656,1,0,0:0:0:0:
64,125,93775,1,8,0:0:0:0:
64,125,93895,1,0,0:0:0:0:
358,226,94134,1,0,0:0:0:0:
358,226,94253,1,0,0:0:0:0:
358,226,94373,1,8,0:0:0:0:
358,226,94492,1,8,0:0:0:0:
284,95,94612,1,0,0:0:0:0:
341,107,94851,5,8,0:0:0:0:
306,114,95090,5,8,0:0:0:0:
161,51,95209,1,0,0:0:0:0:
335,79,95329,1,8,0:0:0:0:
335,79,95568,1,8,0:0:0:0:
271,51,95688,1,8,0:0:0:0:
346,67,95807,1,0,0:0:0:0:
196,50,96046,1,0,0:0:0:0:
237,77,96166,1,0,0:0:0:0:
232,115,96285,1,8,0:0:0:0:
232,115,96524,1,0,0:0:0:0:
254,94,96763,1,0,0:0:0:0:
205,128,97002,5,12,0:0:0:0:
205,128,97241,1,12,0:0:0:0:
305,52,97480,1,0,0:0:0:0:
146,125,97600,1,8,0:0:0:0:
305,52,97719,1,0,0:0:0:0:
416,129,97958,1,0,0:0:0:0:
262,54,98078,1,0,0:0:0:0:
262,54,98197,1,8,0:0:0:0:
314,34,98437,1,0,0:0:0:0:
314,34,98676,1,0,0:0:0:0:
205,128,98915,1,12,0:0:0:0:
205,128,99154,1,12,0:0:0:0:
322,42,99393,1,0,0:0:0:0:
322,42,99512,1,8,0:0:0:0:
322,42,99632,1,0,0:0:0:0:
240,128,99871,1,0,0:0:0:0:
335,37,99990,1,0,0:0:0:0:
335,37,100110,1,8,0:0:0:0:
328,8,100349,1,0,0:0:0:0:
328,8,100588,1,0,0:0:0:0:
326,22,100827,1,8,0:0:0:0:
324,22,100946,1,0,0:0:0:0:
298,35,101066,1,8,0:0:0:0:
298,35,101305,1,0,0:0:0:0:
205,128,101544,1,12,0:0:0:0:
205,128,101783,1,12,0:0:0:0:
205,128,102022,1,12,0:0:0:0:
205,128,102261,1,12,0:0:0:0:
396,162,102739,1,8,0:0:0:0:
396,162,102978,1,8,0:0:0:0:
396,162,103098,1,0,0:0:0:0:
396,162,103217,1,0,0:0:0:0:
205,128,103456,1,4,0:0:0:0:
56,143,103695,1,0,0:0:0:0:
271,160,103815,1,0,0:0:0:0:
271,160,103935,1,8,0:0:0:0:
271,160,104174,1,0,0:0:0:0:
71,138,104413,1,0,0:0:0:0:
40,101,104771,1,0,0:0:0:0:
40,101,104891,1,8,0:0:0:0:
13,138,105130,1,0,0:0:0:0:
13,138,105249,1,8,0:0:0:0:
13,138,105369,1,0,0:0:0:0:
310,127,105608,1,0,0:0:0:0:
310,127,105727,1,0,0:0:0:0:
310,127,105847,1,8,0:0:0:0:
310,127,105966,1,8,0:0:0:0:
310,127,106086,1,0,0:0:0:0:
310,127,106325,1,8,0:0:0:0:
310,127,106564,1,8,0:0:0:0:
310,127,106684,1,0,0:0:0:0:
236,115,106803,1,8,0:0:0:0:
236,115,107042,1,8,0:0:0:0:
406,165,107281,1,0,0:0:0:0:
362,114,107520,1,0,0:0:0:0:
138,69,107640,1,0,0:0:0:0:
190,38,107759,1,8,0:0:0:0:
190,38,107998,1,0,0:0:0:0:
190,38,108237,1,0,0:0:0:0:
299,106,108596,1,0,0:0:0:0:
303,99,108715,1,8,0:0:0:0:
203,82,108954,1,0,0:0:0:0:
64,125,109074,1,8,0:0:0:0:
64,125,109193,1,0,0:0:0:0:
358,226,109433,1,8,0:0:0:0:
358,226,109552,1,0,0:0:0:0:
358,226,109672,1,8,0:0:0:0:
358,226,109791,1,8,0:0:0:0:
284,95,109911,1,0,0:0:0:0:
341,107,110150,5,0,0:0:0:0:
306,114,110389,5,8,0:0:0:0:
161,51,110508,1,0,0:0:0:0:
335,79,110628,1,8,0:0:0:0:
335,79,110867,1,8,0:0:0:0:
271,51,110986,1,8,0:0:0:0:
346,67,111106,5,0,0:0:0:0:
196,50,111345,1,0,0:0:0:0:
237,77,111464,1,0,0:0:0:0:
232,115,111584,1,8,0:0:0:0:
232,115,111823,1,0,0:0:0:0:
254,94,112062,1,0,0:0:0:0:
205,128,112301,5,12,0:0:0:0:
205,128,112540,1,12,0:0:0:0:
305,52,112779,1,0,0:0:0:0:
146,125,112899,1,8,0:0:0:0:
305,52,113018,1,0,0:0:0:0:
416,129,113257,1,0,0:0:0:0:
262,54,113377,1,0,0:0:0:0:
262,54,113496,1,8,0:0:0:0:
314,34,113735,1,0,0:0:0:0:
314,34,113974,1,0,0:0:0:0:
205,128,114213,1,12,0:0:0:0:
205,128,114452,1,12,0:0:0:0:
322,42,114691,1,0,0:0:0:0:
322,42,114811,1,8,0:0:0:0:
322,42,114931,1,0,0:0:0:0:
240,128,115170,1,0,0:0:0:0:
335,37,115289,1,0,0:0:0:0:
335,37,115409,1,8,0:0:0:0:
328,8,115648,1,0,0:0:0:0:
328,8,115887,1,0,0:0:0:0:
326,22,116126,1,8,0:0:0:0:
324,22,116245,1,0,0:0:0:0:
298,35,116365,1,8,0:0:0:0:
174,73,116484,1,8,0:0:0:0:
298,35,116604,1,0,0:0:0:0:
478,313,116843,1,0,0:0:0:0:
196,136,117082,1,8,0:0:0:0:
489,269,117201,1,0,0:0:0:0:
489,269,117321,1,8,0:0:0:0:
196,136,117560,1,0,0:0:0:0:
46,137,117799,1,0,0:0:0:0:
46,137,118158,1,0,0:0:0:0:
86,123,118277,1,8,0:0:0:0:
86,123,118516,1,8,0:0:0:0:
298,96,118636,1,8,0:0:0:0:
275,123,118755,1,0,0:0:0:0:
298,96,118994,1,8,0:0:0:0:
298,96,119114,1,0,0:0:0:0:
298,96,119233,1,8,0:0:0:0:
363,101,119472,5,0,0:0:0:0:
75,132,119711,1,0,0:0:0:0:
251,114,119831,1,8,0:0:0:0:
427,83,119950,5,0,0:0:0:0:
427,83,120070,5,0,0:0:0:0:
427,83,120189,1,8,0:0:0:0:
418,126,120429,5,0,0:0:0:0:
209,89,120668,5,12,0:0:0:0:
209,89,120907,1,12,0:0:0:0:
209,89,121146,1,12,0:0:0:0:
209,89,121385,1,12,0:0:0:0:
209,89,121624,1,12,0:0:0:0:
87,148,122102,1,8,0:0:0:0:
209,89,122580,1,4,0:0:0:0:
257,104,122819,1,8,0:0:0:0:
22,150,122939,1,0,0:0:0:0:
463,308,123058,1,8,0:0:0:0:
257,104,123178,1,0,0:0:0:0:
198,108,123297,1,0,0:0:0:0:
197,107,123536,1,0,0:0:0:0:
198,108,123775,1,8,0:0:0:0:
193,122,123895,1,0,0:0:0:0:
193,122,124014,1,8,0:0:0:0:
193,122,124253,1,0,0:0:0:0:
272,42,124492,1,0,0:0:0:0:
272,42,124612,1,8,0:0:0:0:
272,42,124851,1,8,0:0:0:0:
272,42,125090,1,8,0:0:0:0:
272,42,125329,1,0,0:0:0:0:
265,22,125448,1,8,0:0:0:0:
209,88,126405,1,4,0:0:0:0:
276,68,126763,1,0,0:0:0:0:
276,68,127122,1,8,0:0:0:0:
276,68,127361,1,0,0:0:0:0:
293,57,127839,1,8,0:0:0:0:
293,57,128317,1,0,0:0:0:0:
51,130,128676,1,0,0:0:0:0:
51,130,129034,1,8,0:0:0:0:
51,130,129273,1,0,0:0:0:0:
90,122,129512,1,8,0:0:0:0:
90,122,129751,1,8,0:0:0:0:
151,87,130229,1,0,0:0:0:0:
149,127,130588,1,0,0:0:0:0:
149,127,130707,1,8,0:0:0:0:
149,127,130946,1,0,0:0:0:0:
149,127,131186,1,0,0:0:0:0:
188,121,131425,1,0,0:0:0:0:
188,121,131544,1,0,0:0:0:0:
366,201,131664,1,8,0:0:0:0:
366,201,131903,1,0,0:0:0:0:
366,201,132022,1,8,0:0:0:0:
366,201,132142,1,8,0:0:0:0:
366,201,132261,1,8,0:0:0:0:
180,77,132381,1,4,0:0:0:0:
366,201,132620,1,8,0:0:0:0:
180,77,132739,1,4,0:0:0:0:
180,77,133098,1,4,0:0:0:0:
474,255,133337,1,8,0:0:0:0:
474,255,133456,1,0,0:0:0:0:
474,255,133576,1,8,0:0:0:0:
474,255,133815,1,8,0:0:0:0:
245,116,133935,1,8,0:0:0:0:
474,255,134054,1,0,0:0:0:0:
194,157,134413,1,0,0:0:0:0:
194,157,134532,1,8,0:0:0:0:
194,157,134771,1,0,0:0:0:0:
194,157,135010,1,8,0:0:0:0:
285,73,135488,1,8,0:0:0:0:
139,95,135727,1,0,0:0:0:0:
291,35,135966,1,0,0:0:0:0:
291,35,136325,1,0,0:0:0:0:
291,35,136444,1,8,0:0:0:0:
291,35,136684,1,0,0:0:0:0:
305,27,136923,1,8,0:0:0:0:
163,87,137162,1,8,0:0:0:0:
163,87,137281,1,0,0:0:0:0:
219,64,137401,1,8,0:0:0:0:
271,87,137640,5,8,0:0:0:0:
271,87,137759,1,8,0:0:0:0:
272,49,137879,1,0,0:0:0:0:
272,49,138237,1,0,0:0:0:0:
302,65,138357,1,8,0:0:0:0:
84,144,138596,5,0,0:0:0:0:
84,144,138835,1,0,0:0:0:0:
174,109,139074,1,0,0:0:0:0:
174,109,139193,1,0,0:0:0:0:
174,109,139313,1,8,0:0:0:0:
174,109,139552,1,8,0:0:0:0:
47,145,139672,1,0,0:0:0:0:
171,116,139791,1,8,0:0:0:0:
229,110,140030,5,4,0:0:0:0:
47,145,140269,1,8,0:0:0:0:
229,110,140389,1,4,0:0:0:0:
229,110,140747,1,4,0:0:0:0:
85,120,140986,1,8,0:0:0:0:
201,155,141106,1,0,0:0:0:0:
212,123,141225,1,8,0:0:0:0:
212,123,141464,1,0,0:0:0:0:
212,123,141584,1,0,0:0:0:0:
229,110,141703,1,12,0:0:0:0:
301,71,142062,1,0,0:0:0:0:
303,95,142182,1,8,0:0:0:0:
303,95,142421,1,0,0:0:0:0:
303,95,142660,1,0,0:0:0:0:
336,74,143018,1,0,0:0:0:0:
336,74,143138,1,8,0:0:0:0:
437,269,143377,1,8,0:0:0:0:
124,131,143496,1,8,0:0:0:0:
437,269,143616,1,0,0:0:0:0:
124,131,143735,1,8,0:0:0:0:
276,103,143855,1,4,0:0:0:0:
221,152,144094,1,8,0:0:0:0:
276,103,144213,1,4,0:0:0:0:
276,103,144572,1,4,0:0:0:0:
410,142,144811,1,8,0:0:0:0:
410,142,144931,1,0,0:0:0:0:
410,142,145050,1,8,0:0:0:0:
291,65,145289,1,8,0:0:0:0:
47,136,145409,1,8,0:0:0:0:
306,107,145528,1,0,0:0:0:0:
321,104,145887,1,0,0:0:0:0:
321,104,146006,1,8,0:0:0:0:
321,104,146245,1,0,0:0:0:0:
321,104,146484,1,0,0:0:0:0:
282,139,146843,1,0,0:0:0:0:
282,139,146962,1,8,0:0:0:0:
366,177,147201,1,0,0:0:0:0:
366,177,147321,1,8,0:0:0:0:
366,177,147440,1,0,0:0:0:0:
366,177,147560,1,0,0:0:0:0:
278,102,147680,1,12,0:0:0:0:
276,178,147919,1,0,0:0:0:0:
278,102,148038,1,12,0:0:0:0:
278,102,148397,1,12,0:0:0:0:
314,86,148636,1,0,0:0:0:0:
314,86,148755,1,0,0:0:0:0:
314,86,148875,1,8,0:0:0:0:
314,86,149114,1,0,0:0:0:0:
314,86,149233,1,8,0:0:0:0:
278,102,149353,1,4,0:0:0:0:
304,47,149592,1,8,0:0:0:0:
304,47,149711,1,0,0:0:0:0:
304,47,149950,1,0,0:0:0:0:
304,47,150070,1,8,0:0:0:0:
321,18,150309,1,0,0:0:0:0:
321,18,150548,1,8,0:0:0:0:
321,18,150668,1,0,0:0:0:0:
321,18,150907,1,0,0:0:0:0:
321,18,151026,1,8,0:0:0:0:
471,189,151265,1,4,0:0:0:0:
304,47,151504,1,8,0:0:0:0:
304,47,151624,1,0,0:0:0:0:
304,47,151863,1,0,0:0:0:0:
304,47,151982,1,8,0:0:0:0:
321,18,152221,1,0,0:0:0:0:
321,18,152460,1,8,0:0:0:0:
321,18,152580,1,0,0:0:0:0:
321,18,152819,1,0,0:0:0:0:
321,18,152939,1,8,0:0:0:0:
471,189,153178,1,12,0:0:0:0:
304,47,153417,1,8,0:0:0:0:
304,47,153536,1,0,0:0:0:0:
304,47,153775,1,0,0:0:0:0:
304,47,153895,1,8,0:0:0:0:
321,18,154134,1,0,0:0:0:0:
321,18,154373,1,8,0:0:0:0:
321,18,154492,1,0,0:0:0:0:
321,18,154731,1,0,0:0:0:0:
321,18,154851,1,8,0:0:0:0:
190,155,155090,1,0,0:0:0:0:
304,47,155329,1,8,0:0:0:0:
304,47,155448,1,0,0:0:0:0:
455,266,155688,1,0,0:0:0:0:
304,47,155807,1,8,0:0:0:0:
321,18,156046,1,0,0:0:0:0:
321,18,156285,1,8,0:0:0:0:
321,18,156405,1,0,0:0:0:0:
128,127,156524,1,8,0:0:0:0:
321,18,156644,1,8,0:0:0:0:
321,18,156763,1,0,0:0:0:0:
471,189,157002,1,12,0:0:0:0:
471,189,157241,1,12,0:0:0:0:
471,189,157480,1,4,0:0:0:0:
471,189,157719,1,4,0:0:0:0:
471,189,157958,1,12,0:0:0:0:
471,189,158197,1,12,0:0:0:0:
471,189,158437,1,0,0:0:0:0:
471,189,158556,1,8,0:0:0:0:
350,43,158676,1,0,0:0:0:0:
350,43,158795,1,8,0:0:0:0:
320,86,158915,1,0,0:0:0:0:
350,43,159393,1,12,0:0:0:0:
291,87,160110,1,8,0:0:0:0:
291,87,160349,1,0,0:0:0:0:
291,87,160588,1,8,0:0:0:0:
347,46,160827,1,4,0:0:0:0:
56,143,161066,1,0,0:0:0:0:
271,160,161186,1,0,0:0:0:0:
271,160,161305,1,8,0:0:0:0:
271,160,161544,1,0,0:0:0:0:
71,138,161783,1,0,0:0:0:0:
40,101,162142,1,0,0:0:0:0:
40,101,162261,1,8,0:0:0:0:
13,138,162500,1,0,0:0:0:0:
13,138,162620,1,8,0:0:0:0:
13,138,162739,1,0,0:0:0:0:
310,127,162978,1,8,0:0:0:0:
310,127,163098,1,0,0:0:0:0:
310,127,163217,1,8,0:0:0:0:
310,127,163337,1,8,0:0:0:0:
310,127,163456,1,0,0:0:0:0:
310,127,163695,1,0,0:0:0:0:
310,127,163935,1,8,0:0:0:0:
310,127,164054,1,0,0:0:0:0:
236,115,164174,1,8,0:0:0:0:
236,115,164413,1,8,0:0:0:0:
406,165,164652,1,0,0:0:0:0:
362,114,164891,1,0,0:0:0:0:
138,69,165010,1,0,0:0:0:0:
190,38,165130,1,8,0:0:0:0:
190,38,165369,1,0,0:0:0:0:
190,38,165608,1,0,0:0:0:0:
299,106,165966,1,0,0:0:0:0:
303,99,166086,1,8,0:0:0:0:
203,82,166325,1,0,0:0:0:0:
64,125,166444,1,8,0:0:0:0:
64,125,166564,1,0,0:0:0:0:
358,226,166803,1,0,0:0:0:0:
358,226,166923,1,0,0:0:0:0:
358,226,167042,1,8,0:0:0:0:
358,226,167162,1,8,0:0:0:0:
284,95,167281,1,0,0:0:0:0:
341,107,167520,5,8,0:0:0:0:
306,114,167759,5,8,0:0:0:0:
161,51,167879,1,0,0:0:0:0:
335,79,167998,1,8,0:0:0:0:
335,79,168237,1,8,0:0:0:0:
271,51,168357,1,8,0:0:0:0:
346,67,168476,1,0,0:0:0:0:
196,50,168715,1,0,0:0:0:0:
237,77,168835,1,0,0:0:0:0:
232,115,168954,1,8,0:0:0:0:
232,115,169193,1,0,0:0:0:0:
254,94,169433,1,0,0:0:0:0:
205,128,169672,5,12,0:0:0:0:
205,128,169911,1,12,0:0:0:0:
305,52,170150,1,0,0:0:0:0:
146,125,170269,1,8,0:0:0:0:
305,52,170389,1,0,0:0:0:0:
416,129,170628,1,0,0:0:0:0:
262,54,170747,1,0,0:0:0:0:
262,54,170867,1,8,0:0:0:0:
314,34,171106,1,0,0:0:0:0:
314,34,171345,1,0,0:0:0:0:
205,128,171584,1,12,0:0:0:0:
205,128,171823,1,12,0:0:0:0:
322,42,172062,1,0,0:0:0:0:
322,42,172182,1,8,0:0:0:0:
322,42,172301,1,0,0:0:0:0:
240,128,172540,1,0,0:0:0:0:
335,37,172660,1,0,0:0:0:0:
335,37,172779,1,8,0:0:0:0:
328,8,173018,1,0,0:0:0:0:
328,8,173257,1,0,0:0:0:0:
326,22,173496,1,8,0:0:0:0:
324,22,173616,1,0,0:0:0:0:
298,35,173735,1,8,0:0:0:0:
298,35,173974,1,0,0:0:0:0:
205,128,174213,1,12,0:0:0:0:
205,128,174452,1,12,0:0:0:0:
205,128,174691,1,12,0:0:0:0:
205,128,174931,1,12,0:0:0:0:
396,162,175409,1,8,0:0:0:0:
396,162,175648,1,8,0:0:0:0:
396,162,175767,1,0,0:0:0:0:
396,162,175887,1,0,0:0:0:0:
205,128,176126,1,4,0:0:0:0:
56,143,176365,1,0,0:0:0:0:
271,160,176484,1,0,0:0:0:0:
271,160,176604,1,8,0:0:0:0:
271,160,176843,1,0,0:0:0:0:
71,138,177082,1,0,0:0:0:0:
40,101,177440,1,0,0:0:0:0:
40,101,177560,1,8,0:0:0:0:
13,138,177799,1,0,0:0:0:0:
13,138,177919,1,8,0:0:0:0:
13,138,178038,1,0,0:0:0:0:
310,127,178277,1,0,0:0:0:0:
310,127,178397,1,0,0:0:0:0:
310,127,178516,1,8,0:0:0:0:
310,127,178636,1,8,0:0:0:0:
310,127,178755,1,0,0:0:0:0:
310,127,178994,1,8,0:0:0:0:
310,127,179233,1,8,0:0:0:0:
310,127,179353,1,0,0:0:0:0:
236,115,179472,1,8,0:0:0:0:
236,115,179711,1,8,0:0:0:0:
406,165,179950,1,0,0:0:0:0:
362,114,180189,1,0,0:0:0:0:
138,69,180309,1,0,0:0:0:0:
190,38,180429,1,8,0:0:0:0:
190,38,180668,1,0,0:0:0:0:
190,38,180907,1,0,0:0:0:0:
299,106,181265,1,0,0:0:0:0:
303,99,181385,1,8,0:0:0:0:
203,82,181624,1,0,0:0:0:0:
64,125,181743,1,8,0:0:0:0:
64,125,181863,1,0,0:0:0:0:
358,226,182102,1,8,0:0:0:0:
358,226,182221,1,0,0:0:0:0:
358,226,182341,1,8,0:0:0:0:
358,226,182460,1,8,0:0:0:0:
284,95,182580,1,0,0:0:0:0:
341,107,182819,5,0,0:0:0:0:
306,114,183058,5,8,0:0:0:0:
161,51,183178,1,0,0:0:0:0:
335,79,183297,1,8,0:0:0:0:
335,79,183536,1,8,0:0:0:0:
271,51,183656,1,8,0:0:0:0:
346,67,183775,5,0,0:0:0:0:
196,50,184014,1,0,0:0:0:0:
237,77,184134,1,0,0:0:0:0:
232,115,184253,1,8,0:0:0:0:
232,115,184492,1,0,0:0:0:0:
254,94,184731,1,0,0:0:0:0:
205,128,184970,5,12,0:0:0:0:
205,128,185209,1,12,0:0:0:0:
305,52,185448,1,0,0:0:0:0:
146,125,185568,1,8,0:0:0:0:
305,52,185688,1,0,0:0:0:0:
416,129,185927,1,0,0:0:0:0:
262,54,186046,1,0,0:0:0:0:
262,54,186166,1,8,0:0:0:0:
314,34,186405,1,0,0:0:0:0:
314,34,186644,1,0,0:0:0:0:
205,128,186883,1,12,0:0:0:0:
205,128,187122,1,12,0:0:0:0:
322,42,187361,1,0,0:0:0:0:
322,42,187480,1,8,0:0:0:0:
322,42,187600,1,0,0:0:0:0:
240,128,187839,1,0,0:0:0:0:
335,37,187958,1,0,0:0:0:0:
335,37,188078,1,8,0:0:0:0:
328,8,188317,1,0,0:0:0:0:
328,8,188556,1,0,0:0:0:0:
326,22,188795,1,8,0:0:0:0:
324,22,188915,1,0,0:0:0:0:
298,35,189034,1,8,0:0:0:0:
174,73,189154,1,8,0:0:0:0:
298,35,189273,1,0,0:0:0:0:
478,313,189512,1,0,0:0:0:0:
196,136,189751,1,8,0:0:0:0:
489,269,189871,1,0,0:0:0:0:
489,269,189990,1,8,0:0:0:0:
196,136,190229,1,0,0:0:0:0:
46,137,190468,1,0,0:0:0:0:
46,137,190827,1,0,0:0:0:0:
86,123,190946,1,8,0:0:0:0:
86,123,191186,1,8,0:0:0:0:
298,96,191305,1,8,0:0:0:0:
275,123,191425,1,0,0:0:0:0:
298,96,191664,1,0,0:0:0:0:
298,96,191783,1,0,0:0:0:0:
298,96,191903,1,8,0:0:0:0:
363,101,192142,5,0,0:0:0:0:
75,132,192381,1,0,0:0:0:0:
251,114,192500,1,8,0:0:0:0:
427,83,192620,5,0,0:0:0:0:
427,83,192739,5,0,0:0:0:0:
427,83,192859,1,8,0:0:0:0:
418,126,193098,5,0,0:0:0:0:
209,89,193337,5,12,0:0:0:0:
209,89,193576,1,12,0:0:0:0:
209,89,193815,1,12,0:0:0:0:
209,89,194054,1,12,0:0:0:0:
209,89,194293,1,12,0:0:0:0:
87,148,194771,1,8,0:0:0:0:
209,89,195249,1,4,0:0:0:0:
420,275,195488,1,8,0:0:0:0:
420,275,195608,1,0,0:0:0:0:
420,275,195727,1,8,0:0:0:0:
420,275,195847,1,0,0:0:0:0:
420,275,195966,1,0,0:0:0:0:
418,242,196205,1,0,0:0:0:0:
171,133,196444,1,8,0:0:0:0:
171,133,196564,1,0,0:0:0:0:
171,133,196684,1,8,0:0:0:0:
171,133,196923,1,0,0:0:0:0:
280,122,197162,1,0,0:0:0:0:
306,108,197281,1,8,0:0:0:0:
306,108,197520,1,8,0:0:0:0:
306,108,197759,1,8,0:0:0:0:
285,108,197998,1,0,0:0:0:0:
287,71,198118,1,8,0:0:0:0:
287,71,199074,1,4,0:0:0:0:
210,90,199433,1,0,0:0:0:0:
210,90,199552,1,8,0:0:0:0:
210,90,199791,1,0,0:0:0:0:
210,90,200030,1,0,0:0:0:0:
259,67,200389,1,0,0:0:0:0:
259,67,200508,1,8,0:0:0:0:
259,67,200747,1,0,0:0:0:0:
130,136,200867,1,8,0:0:0:0:
130,136,200986,1,0,0:0:0:0:
130,136,201225,1,0,0:0:0:0:
107,141,201345,1,0,0:0:0:0:
130,136,201464,1,8,0:0:0:0:
130,136,201703,1,0,0:0:0:0:
283,56,201942,1,8,0:0:0:0:
287,71,202062,1,8,0:0:0:0:
283,56,202182,1,0,0:0:0:0:
283,56,202421,1,8,0:0:0:0:
283,56,202540,1,8,0:0:0:0:
283,56,202660,1,0,0:0:0:0:
411,273,202899,1,0,0:0:0:0:
250,80,203257,1,0,0:0:0:0:
262,76,203377,1,8,0:0:0:0:
262,76,203616,1,0,0:0:0:0:
262,76,203855,1,0,0:0:0:0:
262,76,204213,1,0,0:0:0:0:
262,76,204333,1,8,0:0:0:0:
262,76,204572,5,0,0:0:0:0:
210,128,204691,1,8,0:0:0:0:
210,128,204811,1,0,0:0:0:0:
210,128,205050,1,0,0:0:0:0:
210,128,205170,1,0,0:0:0:0:
210,128,205289,1,8,0:0:0:0:
210,128,205528,1,0,0:0:0:0:
307,102,205767,5,8,0:0:0:0:
307,102,205887,1,8,0:0:0:0:
307,102,206006,1,0,0:0:0:0:
307,102,206245,1,8,0:0:0:0:
307,102,206365,1,8,0:0:0:0:
307,102,206484,1,0,0:0:0:0:
250,90,206723,5,0,0:0:0:0:
270,80,207082,1,0,0:0:0:0:
270,80,207201,1,8,0:0:0:0:
270,80,207440,1,0,0:0:0:0:
270,80,207680,1,0,0:0:0:0:
197,112,208038,1,0,0:0:0:0:
197,112,208158,1,8,0:0:0:0:
197,112,208397,1,0,0:0:0:0:
211,112,208516,1,8,0:0:0:0:
211,112,208636,5,0,0:0:0:0:
211,112,208875,1,0,0:0:0:0:
211,112,208994,1,0,0:0:0:0:
211,112,209114,1,8,0:0:0:0:
211,112,209353,1,0,0:0:0:0:
245,65,209592,5,8,0:0:0:0:
245,65,209711,1,8,0:0:0:0:
245,65,209831,1,0,0:0:0:0:
245,65,210070,1,8,0:0:0:0:
245,65,210189,1,8,0:0:0:0:
245,65,210309,1,0,0:0:0:0:
321,38,210548,5,0,0:0:0:0:
321,38,210787,1,8,0:0:0:0:
179,118,210907,1,0,0:0:0:0:
51,152,211026,1,8,0:0:0:0:
321,38,211265,1,0,0:0:0:0:
357,100,211504,5,8,0:0:0:0:
357,100,211664,5,0,0:0:0:0:
357,100,211823,1,8,0:0:0:0:
357,100,211982,1,8,0:0:0:0:
357,100,212142,1,0,0:0:0:0:
357,100,212301,1,8,0:0:0:0:
357,100,212460,1,4,0:0:0:0:
317,27,212699,1,8,0:0:0:0:
317,27,212819,1,8,0:0:0:0:
277,26,212939,1,8,0:0:0:0:
277,26,213058,1,8,0:0:0:0:
277,26,213417,1,8,0:0:0:0:
277,26,213536,1,8,0:0:0:0:
277,26,213656,1,8,0:0:0:0:
277,26,213775,1,8,0:0:0:0:
277,26,214373,1,4,0:0:0:0:
441,313,214731,1,0,0:0:0:0:
441,313,214851,1,8,0:0:0:0:
441,313,215090,1,0,0:0:0:0:
441,313,215329,1,0,0:0:0:0:
317,169,215688,1,0,0:0:0:0:
317,169,215807,1,8,0:0:0:0:
139,141,216046,1,8,0:0:0:0:
139,141,216166,1,8,0:0:0:0:
71,145,216285,1,0,0:0:0:0:
149,143,216524,1,8,0:0:0:0:
131,45,216644,5,0,0:0:0:0:
149,143,216763,1,8,0:0:0:0:
149,143,217002,1,0,0:0:0:0:
149,143,217241,1,0,0:0:0:0:
179,139,217600,1,0,0:0:0:0:
54,129,217719,1,8,0:0:0:0:
54,129,217958,1,0,0:0:0:0:
54,129,218078,1,8,0:0:0:0:
282,111,218197,5,0,0:0:0:0:
142,53,218437,5,0,0:0:0:0:
86,143,218556,1,0,0:0:0:0:
282,111,218676,1,8,0:0:0:0:
263,112,218915,5,0,0:0:0:0:
321,126,219154,5,0,0:0:0:0:
207,117,219632,5,12,0:0:0:0:
207,117,220110,1,4,0:0:0:0:
207,117,220349,1,12,0:0:0:0:
207,117,220588,1,4,0:0:0:0:
207,117,220827,1,12,0:0:0:0:
231,146,221066,1,0,0:0:0:0:
307,114,221305,1,8,0:0:0:0:
307,114,221425,1,0,0:0:0:0:
207,117,221544,1,8,0:0:0:0:
260,68,221783,1,8,0:0:0:0:
363,97,221903,1,8,0:0:0:0:
363,97,222022,1,0,0:0:0:0:
174,84,222381,1,0,0:0:0:0:
237,40,222500,1,8,0:0:0:0:
237,40,222739,1,0,0:0:0:0:
237,40,222978,1,0,0:0:0:0:
204,102,223217,1,8,0:0:0:0:
186,36,223337,5,0,0:0:0:0:
237,40,223456,1,8,0:0:0:0:
77,120,223576,1,0,0:0:0:0:
129,125,223695,1,8,0:0:0:0:
143,97,223935,1,0,0:0:0:0:
205,122,224293,1,0,0:0:0:0:
205,122,224413,1,8,0:0:0:0:
288,72,224652,1,0,0:0:0:0:
288,72,224771,1,8,0:0:0:0:
143,97,224891,5,0,0:0:0:0:
116,143,225130,1,0,0:0:0:0:
143,97,225249,1,0,0:0:0:0:
275,57,225369,5,8,0:0:0:0:
138,146,225488,1,0,0:0:0:0:
275,57,225608,1,8,0:0:0:0:
299,179,225847,5,4,0:0:0:0:
299,179,226325,1,12,0:0:0:0:
299,179,226803,1,4,0:0:0:0:
299,179,227042,1,4,0:0:0:0:
299,179,227281,1,12,0:0:0:0:
299,179,227520,1,4,0:0:0:0:
299,179,227759,1,12,0:0:0:0:
299,179,227998,1,12,0:0:0:0:
299,179,228476,1,12,0:0:0:0:
357,130,228715,1,0,0:0:0:0:
320,171,228954,1,8,0:0:0:0:
357,130,229193,1,8,0:0:0:0:
357,130,229433,1,8,0:0:0:0:
357,130,229672,1,4,0:0:0:0:
357,130,230150,1,12,0:0:0:0:
357,130,230628,1,4,0:0:0:0:
357,130,230867,1,4,0:0:0:0:
357,130,231106,1,12,0:0:0:0:
357,130,231345,1,4,0:0:0:0:
357,130,231584,1,12,0:0:0:0:
357,130,231823,1,12,0:0:0:0:
357,130,232301,1,12,0:0:0:0:
357,130,232540,1,8,0:0:0:0:
357,130,232779,1,0,0:0:0:0:
357,130,233018,1,8,0:0:0:0:
357,130,233257,1,8,0:0:0:0:
277,87,233496,1,4,0:0:0:0:
277,87,233974,1,12,0:0:0:0:
277,87,234452,1,4,0:0:0:0:
277,87,234691,1,4,0:0:0:0:
277,87,234931,1,12,0:0:0:0:
277,87,235170,1,4,0:0:0:0:
277,87,235409,1,12,0:0:0:0:
277,87,235648,1,12,0:0:0:0:
277,87,236126,1,12,0:0:0:0:
248,114,236365,1,0,0:0:0:0:
248,114,236604,1,0,0:0:0:0:
248,114,236723,1,0,0:0:0:0:
248,114,236843,1,8,0:0:0:0:
277,87,237082,1,4,0:0:0:0:
280,103,237560,1,0,0:0:0:0:
280,103,237799,1,8,0:0:0:0:
277,87,238038,1,12,0:0:0:0:
258,112,238516,1,0,0:0:0:0:
258,112,238755,1,8,0:0:0:0:
277,87,238994,1,4,0:0:0:0:
301,164,239472,1,0,0:0:0:0:
301,164,239711,1,0,0:0:0:0:
301,164,239950,1,0,0:0:0:0:
301,164,240189,1,0,0:0:0:0:
157,48,240309,1,0,0:0:0:0:
301,164,240429,1,8,0:0:0:0:
301,164,240548,1,8,0:0:0:0:
146,143,240668,1,0,0:0:0:0:
301,164,240787,1,0,0:0:0:0:
301,164,240907,1,8,0:0:0:0:
277,87,241146,1,4,0:0:0:0:
234,80,248795,5,0,0:0:0:0:
234,80,249273,1,8,0:0:0:0:
290,119,249512,1,0,0:0:0:0:
234,80,249751,1,8,0:0:0:0:
234,80,250229,1,8,0:0:0:0:
290,119,250468,1,0,0:0:0:0:
234,80,250707,1,0,0:0:0:0:
234,80,251186,1,8,0:0:0:0:
290,119,251425,1,0,0:0:0:0:
234,80,251664,1,8,0:0:0:0:
234,80,252142,1,8,0:0:0:0:
290,119,252381,1,0,0:0:0:0:
234,80,252620,1,0,0:0:0:0:
230,153,253098,1,0,0:0:0:0:
230,153,253576,1,0,0:0:0:0:
230,153,254054,1,0,0:0:0:0:
279,153,254293,1,0,0:0:0:0:
295,128,254413,1,0,0:0:0:0:
317,78,254532,1,8,0:0:0:0:
316,67,254652,1,8,0:0:0:0:
316,67,254771,1,8,0:0:0:0:
316,67,254891,1,8,0:0:0:0:
316,67,255249,1,8,0:0:0:0:
316,67,255369,1,8,0:0:0:0:
316,67,255488,1,8,0:0:0:0:
316,67,255608,1,8,0:0:0:0:
151,120,255727,1,0,0:0:0:0:
151,120,255966,1,8,0:0:0:0:
151,120,256205,1,0,0:0:0:0:
298,166,256444,1,4,0:0:0:0:
56,143,256684,1,0,0:0:0:0:
271,160,256803,1,0,0:0:0:0:
271,160,256923,1,8,0:0:0:0:
271,160,257162,1,0,0:0:0:0:
71,138,257401,1,0,0:0:0:0:
40,101,257759,1,0,0:0:0:0:
40,101,257879,1,8,0:0:0:0:
13,138,258118,1,0,0:0:0:0:
13,138,258237,1,8,0:0:0:0:
13,138,258357,1,0,0:0:0:0:
310,127,258596,1,0,0:0:0:0:
310,127,258715,1,0,0:0:0:0:
310,127,258835,1,8,0:0:0:0:
310,127,258954,1,8,0:0:0:0:
310,127,259074,1,0,0:0:0:0:
310,127,259313,1,8,0:0:0:0:
310,127,259552,1,8,0:0:0:0:
310,127,259672,1,0,0:0:0:0:
236,115,259791,1,8,0:0:0:0:
236,115,260030,1,8,0:0:0:0:
406,165,260269,1,0,0:0:0:0:
362,114,260508,1,0,0:0:0:0:
138,69,260628,1,0,0:0:0:0:
190,38,260747,1,8,0:0:0:0:
190,38,260986,1,0,0:0:0:0:
190,38,261225,1,0,0:0:0:0:
299,106,261584,1,0,0:0:0:0:
303,99,261703,1,8,0:0:0:0:
203,82,261942,1,0,0:0:0:0:
64,125,262062,1,8,0:0:0:0:
64,125,262182,1,0,0:0:0:0:
358,226,262421,1,8,0:0:0:0:
358,226,262540,1,0,0:0:0:0:
358,226,262660,1,8,0:0:0:0:
358,226,262779,1,8,0:0:0:0:
284,95,262899,1,0,0:0:0:0:
341,107,263138,5,0,0:0:0:0:
306,114,263377,5,8,0:0:0:0:
161,51,263496,1,0,0:0:0:0:
335,79,263616,1,8,0:0:0:0:
335,79,263855,1,8,0:0:0:0:
271,51,263974,1,8,0:0:0:0:
346,67,264094,5,0,0:0:0:0:
196,50,264333,1,0,0:0:0:0:
237,77,264452,1,0,0:0:0:0:
232,115,264572,1,8,0:0:0:0:
232,115,264811,1,0,0:0:0:0:
254,94,265050,1,0,0:0:0:0:
205,128,265289,5,12,0:0:0:0:
205,128,265528,1,12,0:0:0:0:
305,52,265767,1,0,0:0:0:0:
146,125,265887,1,8,0:0:0:0:
305,52,266006,1,0,0:0:0:0:
416,129,266245,1,0,0:0:0:0:
262,54,266365,1,0,0:0:0:0:
262,54,266484,1,8,0:0:0:0:
314,34,266723,1,0,0:0:0:0:
314,34,266962,1,0,0:0:0:0:
205,128,267201,1,12,0:0:0:0:
205,128,267440,1,12,0:0:0:0:
322,42,267680,1,0,0:0:0:0:
322,42,267799,1,8,0:0:0:0:
322,42,267919,1,0,0:0:0:0:
240,128,268158,1,0,0:0:0:0:
335,37,268277,1,0,0:0:0:0:
335,37,268397,1,8,0:0:0:0:
328,8,268636,1,0,0:0:0:0:
328,8,268875,1,0,0:0:0:0:
326,22,269114,1,8,0:0:0:0:
324,22,269233,1,0,0:0:0:0:
298,35,269353,1,8,0:0:0:0:
174,73,269472,1,8,0:0:0:0:
298,35,269592,1,0,0:0:0:0:
478,313,269831,1,0,0:0:0:0:
196,136,270070,1,8,0:0:0:0:
489,269,270189,1,0,0:0:0:0:
489,269,270309,1,8,0:0:0:0:
196,136,270548,1,0,0:0:0:0:
46,137,270787,1,0,0:0:0:0:
46,137,271146,1,0,0:0:0:0:
86,123,271265,1,8,0:0:0:0:
86,123,271504,1,8,0:0:0:0:
298,96,271624,1,8,0:0:0:0:
275,123,271743,1,0,0:0:0:0:
298,96,271982,1,8,0:0:0:0:
298,96,272102,1,0,0:0:0:0:
298,96,272221,1,8,0:0:0:0:
363,101,272460,5,0,0:0:0:0:
75,132,272699,1,0,0:0:0:0:
251,114,272819,1,8,0:0:0:0:
427,83,272939,5,0,0:0:0:0:
427,83,273058,5,0,0:0:0:0:
427,83,273178,1,8,0:0:0:0:
418,126,273417,5,0,0:0:0:0:
209,89,273656,5,12,0:0:0:0:
209,89,273895,1,12,0:0:0:0:
209,89,274134,1,12,0:0:0:0:
209,89,274373,1,12,0:0:0:0:
209,89,274612,1,12,0:0:0:0:
87,148,275090,1,8,0:0:0:0:
209,89,275568,1,4,0:0:0:0:
420,275,275807,1,8,0:0:0:0:
420,275,275927,1,0,0:0:0:0:
420,275,276046,1,8,0:0:0:0:
420,275,276166,1,0,0:0:0:0:
420,275,276285,1,0,0:0:0:0:
418,242,276524,1,0,0:0:0:0:
171,133,276763,1,8,0:0:0:0:
171,133,276883,1,0,0:0:0:0:
171,133,277002,1,8,0:0:0:0:
171,133,277241,1,0,0:0:0:0:
280,122,277480,1,0,0:0:0:0:
306,108,277600,1,8,0:0:0:0:
306,108,277839,1,8,0:0:0:0:
306,108,278078,1,8,0:0:0:0:
285,108,278317,1,0,0:0:0:0:
287,71,278437,1,8,0:0:0:0:
159,121,278915,1,8,0:0:0:0:
210,114,279393,1,4,0:0:0:0:
128,145,279751,1,0,0:0:0:0:
213,118,279871,1,8,0:0:0:0:
108,145,280110,1,0,0:0:0:0:
144,122,280229,1,8,0:0:0:0:
108,145,280349,1,0,0:0:0:0:
298,107,280588,1,0,0:0:0:0:
311,107,280827,1,12,0:0:0:0:
196,120,281066,1,8,0:0:0:0:
86,144,281186,1,8,0:0:0:0:
297,126,281305,1,0,0:0:0:0:
202,22,281664,1,0,0:0:0:0:
202,22,281783,1,8,0:0:0:0:
88,109,282022,1,0,0:0:0:0:
312,64,282261,1,0,0:0:0:0:
317,86,282500,1,8,0:0:0:0:
317,86,282620,1,8,0:0:0:0:
317,86,282739,1,8,0:0:0:0:
317,86,282978,1,8,0:0:0:0:
285,85,283217,1,0,0:0:0:0:
141,130,283576,1,0,0:0:0:0:
124,32,283695,1,8,0:0:0:0:
231,55,283935,1,0,0:0:0:0:
245,89,284054,1,8,0:0:0:0:
283,32,284174,1,0,0:0:0:0:
245,89,284413,1,0,0:0:0:0:
317,86,284652,1,12,0:0:0:0:
218,49,284891,1,8,0:0:0:0:
185,62,285010,1,8,0:0:0:0:
254,135,285130,1,0,0:0:0:0:
196,88,285488,1,0,0:0:0:0:
196,49,285608,1,8,0:0:0:0:
291,52,285847,1,0,0:0:0:0:
291,52,285966,1,8,0:0:0:0:
283,31,286086,1,0,0:0:0:0:
317,86,286325,1,8,0:0:0:0:
317,86,286444,1,8,0:0:0:0:
317,86,286564,1,8,0:0:0:0:
130,71,286803,1,8,0:0:0:0:
112,189,286923,1,8,0:0:0:0:
330,81,287042,1,0,0:0:0:0:
163,119,287401,1,0,0:0:0:0:
160,44,287520,1,8,0:0:0:0:
160,44,287759,1,0,0:0:0:0:
101,151,287998,1,0,0:0:0:0:
255,107,288237,1,0,0:0:0:0:
255,102,288357,1,0,0:0:0:0:
279,125,288476,1,8,0:0:0:0:
279,125,288596,1,8,0:0:0:0:
87,107,288715,1,8,0:0:0:0:
393,183,288835,1,8,0:0:0:0:
155,140,288954,5,0,0:0:0:0:
155,140,289433,1,4,0:0:0:0:
17,138,289911,1,8,0:0:0:0:
17,138,290269,1,8,0:0:0:0:
17,138,290628,1,8,0:0:0:0:
181,76,290867,5,0,0:0:0:0:
353,186,290986,1,8,0:0:0:0:
296,129,291225,1,8,0:0:0:0:
296,129,291345,1,0,0:0:0:0:
296,129,291464,1,8,0:0:0:0:
245,137,291703,1,0,0:0:0:0:
165,204,291823,1,8,0:0:0:0:
121,129,292062,1,8,0:0:0:0:
141,112,292182,1,0,0:0:0:0:
201,80,292301,1,8,0:0:0:0:
212,60,292421,1,0,0:0:0:0:
89,138,292540,5,0,0:0:0:0:
206,62,292779,1,0,0:0:0:0:
206,62,292899,1,8,0:0:0:0:
206,62,293138,1,8,0:0:0:0:
206,62,293257,1,0,0:0:0:0:
136,135,293377,1,8,0:0:0:0:
140,124,293616,1,0,0:0:0:0:
181,76,293735,5,8,0:0:0:0:
299,138,293974,5,4,0:0:0:0:
299,138,294333,1,4,0:0:0:0:
299,138,294691,1,12,0:0:0:0:
