osu file format v14

[General]
AudioFilename: audio.mp3
AudioLeadIn: 0
PreviewTime: 73729
Countdown: 0
SampleSet: Soft
StackLeniency: 0.7
Mode: 3
LetterboxInBreaks: 0
SpecialStyle: 0
WidescreenStoryboard: 0

[Editor]
DistanceSpacing: 0.6
BeatDivisor: 4
GridSize: 32
TimelineZoom: 1.6

[Metadata]
Title:Futari Nori no Jitensha (Cut Ver.)
TitleUnicode:2人乗りの自転車 (Cut Ver.)
Artist:JKT48
ArtistUnicode:JKT48
Creator:Nathalia-
Version:Nostalgia
Source:
Tags:Raisky757 Pajama Drive Senshuraku Stage Setlist Bersepeda Berdua female vocal idol group bahasa Indonesia Indonesian pop jpop j-pop japanese Jakarta48 cover AKB48 Akihabara48 Team B チームB 3rd 「パジャマドライブ」 ~studio recordings コレクション~ KICS-1871 秋元康 Yasushi Akimoto Funta B3 Bicycle for two King HITS Records You Be Cool!
BeatmapID:3349978
BeatmapSetID:1641355

[Difficulty]
HPDrainRate:8
CircleSize:4
OverallDifficulty:8
ApproachRate:5
SliderMultiplier:1.4
SliderTickRate:1

[Events]
//Background and Video events
0,0,"mau maling ya.jpg",0,0
//Break Periods
//Storyboard Layer 0 (Background)
//Storyboard Layer 1 (Fail)
//Storyboard Layer 2 (Pass)
//Storyboard Layer 3 (Foreground)
//Storyboard Layer 4 (Overlay)
//Storyboard Sound Samples

[TimingPoints]
406,352.941176470588,4,2,1,60,1,0
73817,-100,4,2,1,60,0,1
93582,-100,4,2,1,60,0,0
96405,-100,4,2,1,60,0,1
118994,-100,4,2,1,60,0,0

[HitObjects]
320,192,582,5,0,0:0:0:0:
192,192,758,1,0,0:0:0:0:
448,192,935,1,0,0:0:0:0:
64,192,1111,128,0,1464:0:0:0:0:
320,192,1464,1,0,0:0:0:0:
448,192,1641,128,0,3053:0:0:0:0:
192,192,1994,1,0,0:0:0:0:
320,192,2170,1,0,0:0:0:0:
64,192,2347,1,0,0:0:0:0:
192,192,2523,1,0,0:0:0:0:
64,192,2700,1,0,0:0:0:0:
320,192,2876,1,0,0:0:0:0:
192,192,3053,128,0,3758:0:0:0:0:
320,192,3405,1,0,0:0:0:0:
64,192,3582,1,0,0:0:0:0:
448,192,3758,1,0,0:0:0:0:
320,192,3935,128,0,4288:0:0:0:0:
192,192,4288,1,0,0:0:0:0:
64,192,4464,128,0,5876:0:0:0:0:
320,192,4817,1,0,0:0:0:0:
192,192,4994,1,0,0:0:0:0:
448,192,5170,1,0,0:0:0:0:
320,192,5347,1,0,0:0:0:0:
448,192,5523,1,0,0:0:0:0:
192,192,5700,1,0,0:0:0:0:
320,192,5876,1,0,0:0:0:0:
64,192,6053,1,2,0:0:0:0:
192,192,6053,1,0,0:0:0:50:Crash short.wav
448,192,6053,1,0,0:0:0:0:
64,192,6229,1,2,0:0:0:0:
192,192,6229,1,0,0:0:0:50:Crash short.wav
448,192,6229,1,0,0:0:0:0:
320,192,6405,128,0,6582:0:0:0:0:
448,192,6582,128,0,6935:0:0:0:0:
192,192,6935,128,0,7023:0:0:0:0:
192,192,7111,128,0,7288:0:0:0:0:
64,192,7288,128,0,7641:0:0:0:0:
448,192,7641,128,0,7729:0:0:0:0:
448,192,7817,128,0,7994:0:0:0:0:
192,192,7994,128,0,8170:0:0:0:0:
64,192,8170,128,0,8700:0:0:0:0:
448,192,8347,128,0,8523:0:0:0:0:
320,192,8523,128,0,8700:0:0:0:0:
192,192,8700,128,0,8876:0:0:0:0:
64,192,8876,1,2,0:0:0:0:
320,192,8876,1,4,0:0:0:0:
448,192,8876,128,0,11523:0:0:0:0:
192,192,9053,128,0,9229:0:0:0:0:
64,192,9229,128,0,9405:0:0:0:0:
320,192,9405,128,0,9758:0:0:0:0:
64,192,9758,128,0,9847:0:0:0:0:
64,192,9935,128,0,10111:0:0:0:0:
320,192,10111,128,0,10464:0:0:0:0:
192,192,10464,128,0,10553:0:0:0:0:
192,192,10641,128,0,10817:0:0:0:0:
320,192,10817,128,0,11170:0:0:0:0:
64,192,11170,128,0,11347:0:0:0:0:
192,192,11347,128,0,11523:0:0:0:0:
320,192,11523,128,0,11700:0:0:0:0:
64,192,11700,1,8,0:0:0:0:
192,192,11700,1,0,0:0:0:0:
448,192,11700,1,0,0:0:0:0:
64,192,11876,1,8,0:0:0:0:
192,192,11876,1,0,0:0:0:0:
448,192,11876,1,0,0:0:0:0:
320,192,12053,128,0,12229:0:0:0:0:
64,192,12229,128,0,12582:0:0:0:0:
320,192,12582,128,0,12670:0:0:0:0:
320,192,12758,128,0,12935:0:0:0:0:
448,192,12935,128,0,13288:0:0:0:0:
64,192,13288,128,0,13376:0:0:0:0:
64,192,13464,128,0,13641:0:0:0:0:
320,192,13641,128,0,13817:0:0:0:0:
448,192,13817,128,0,14347:0:0:0:0:
64,192,13994,128,0,14170:0:0:0:0:
192,192,14170,128,0,14347:0:0:0:0:
320,192,14347,128,0,14523:0:0:0:0:
64,192,14523,1,8,0:0:0:0:
192,192,14523,1,0,0:0:0:0:
448,192,14523,1,0,0:0:0:0:
320,192,14700,128,2,15053:0:0:0:0:
448,192,14700,1,0,0:0:0:0:
64,192,15053,1,2,0:0:0:0:
192,192,15053,128,0,15405:0:0:0:0:
320,192,15405,1,2,0:0:0:0:
448,192,15405,128,0,15758:0:0:0:0:
64,192,15758,1,2,0:0:0:0:
192,192,15758,1,0,0:0:0:0:
192,192,15935,1,8,0:0:0:0:
320,192,15935,1,0,0:0:0:0:
448,192,15935,1,0,0:0:0:0:
64,192,16111,128,2,16464:0:0:0:0:
448,192,16111,1,0,0:0:0:0:
320,192,16464,1,2,0:0:0:0:
448,192,16464,1,0,0:0:0:0:
64,192,16641,1,2,0:0:0:0:
192,192,16641,128,0,17347:0:0:0:80:Loud Bass.wav
320,192,16641,1,0,0:0:0:0:
448,192,16641,1,0,0:0:0:0:
64,192,17347,1,4,0:0:0:0:
320,192,17347,1,2,0:0:0:0:
448,192,17347,1,0,0:0:0:0:
192,192,17523,1,0,0:0:0:0:
64,192,17700,1,8,0:0:0:0:
320,192,17700,1,0,0:0:0:0:
448,192,17700,1,0,0:0:0:0:
192,192,17876,1,0,0:0:0:0:
320,192,18053,1,2,0:0:0:0:
448,192,18053,1,0,0:0:0:0:
64,192,18229,1,2,0:0:0:0:
192,192,18229,1,0,0:0:0:0:
64,192,18405,1,8,0:0:0:0:
320,192,18405,1,0,0:0:0:0:
448,192,18405,1,0,0:0:0:0:
192,192,18582,1,0,0:0:0:0:
64,192,18758,1,2,0:0:0:0:
448,192,18758,1,0,0:0:0:0:
192,192,18935,1,2,0:0:0:0:
320,192,18935,1,0,0:0:0:0:
64,192,19111,1,8,0:0:0:0:
192,192,19111,1,0,0:0:0:0:
448,192,19111,1,0,0:0:0:0:
320,192,19288,1,2,0:0:0:0:
448,192,19288,1,0,0:0:0:0:
192,192,19464,1,0,0:0:0:0:
64,192,19641,1,2,0:0:0:0:
320,192,19641,1,0,0:0:0:0:
64,192,19817,1,8,0:0:0:0:
192,192,19817,1,0,0:0:0:0:
448,192,19817,1,0,0:0:0:0:
320,192,19994,1,0,0:0:0:0:
64,192,20170,1,2,0:0:0:0:
448,192,20170,1,0,0:0:0:0:
192,192,20347,1,0,0:0:0:0:
64,192,20523,1,8,0:0:0:0:
320,192,20523,1,0,0:0:0:0:
448,192,20523,1,0,0:0:0:0:
192,192,20700,1,0,0:0:0:0:
320,192,20876,1,2,0:0:0:0:
448,192,20876,1,0,0:0:0:0:
64,192,21053,1,2,0:0:0:0:
192,192,21053,1,0,0:0:0:0:
64,192,21229,1,8,0:0:0:0:
320,192,21229,1,0,0:0:0:0:
448,192,21229,1,0,0:0:0:0:
192,192,21405,1,0,0:0:0:0:
64,192,21582,1,2,0:0:0:0:
448,192,21582,1,0,0:0:0:60:Hat open.wav
192,192,21758,1,2,0:0:0:0:
320,192,21758,1,0,0:0:0:0:
64,192,21935,1,8,0:0:0:0:
192,192,21935,1,0,0:0:0:60:Hat open.wav
448,192,21935,1,0,0:0:0:0:
320,192,22111,1,0,0:0:0:0:
64,192,22288,1,2,0:0:0:0:
192,192,22288,1,0,0:0:0:60:Hat open.wav
320,192,22464,1,2,0:0:0:0:
448,192,22464,1,0,0:0:0:0:
64,192,22641,1,8,0:0:0:0:
192,192,22641,1,0,0:0:0:60:Hat open.wav
448,192,22641,1,0,0:0:0:0:
320,192,22817,1,0,0:0:0:0:
64,192,22994,1,2,0:0:0:0:
192,192,22994,1,4,0:0:0:0:
448,192,22994,1,0,0:0:0:0:
192,192,23170,1,0,0:0:0:0:
64,192,23347,1,8,0:0:0:0:
320,192,23347,1,0,0:0:0:0:
448,192,23347,1,0,0:0:0:0:
64,192,23523,1,2,0:0:0:0:
192,192,23523,1,0,0:0:0:0:
320,192,23700,1,0,0:0:0:0:
192,192,23876,1,2,0:0:0:0:
448,192,23876,1,0,0:0:0:0:
64,192,24053,1,8,0:0:0:0:
320,192,24053,1,0,0:0:0:0:
448,192,24053,1,0,0:0:0:0:
192,192,24229,1,0,0:0:0:0:
64,192,24405,1,2,0:0:0:0:
448,192,24405,1,0,0:0:0:0:
192,192,24582,1,2,0:0:0:0:
320,192,24582,1,0,0:0:0:0:
64,192,24758,1,8,0:0:0:0:
192,192,24758,1,0,0:0:0:0:
448,192,24758,1,0,0:0:0:0:
320,192,24935,1,2,0:0:0:0:
448,192,24935,1,0,0:0:0:0:
192,192,25111,1,0,0:0:0:0:
64,192,25288,1,2,0:0:0:0:
320,192,25288,1,0,0:0:0:0:
64,192,25464,1,8,0:0:0:0:
192,192,25464,1,0,0:0:0:0:
448,192,25464,1,0,0:0:0:0:
320,192,25641,1,0,0:0:0:0:
64,192,25817,1,2,0:0:0:0:
448,192,25817,1,0,0:0:0:0:
192,192,25994,1,0,0:0:0:0:
64,192,26170,1,8,0:0:0:0:
320,192,26170,1,0,0:0:0:0:
448,192,26170,1,0,0:0:0:0:
192,192,26347,1,0,0:0:0:0:
64,192,26523,1,2,0:0:0:0:
448,192,26523,1,0,0:0:0:0:
192,192,26700,1,2,0:0:0:0:
320,192,26700,1,0,0:0:0:0:
64,192,26876,1,8,0:0:0:0:
192,192,26876,1,4,0:0:0:0:
448,192,26876,1,0,0:0:0:0:
320,192,27053,1,8,0:0:0:0:
448,192,27053,1,0,0:0:0:0:
64,192,27141,1,8,0:0:0:0:
192,192,27141,1,0,0:0:0:0:
320,192,27229,1,2,0:0:0:0:
448,192,27229,1,0,0:0:0:0:
192,192,27317,1,0,0:0:0:60:Tom1.wav
64,192,27405,1,0,0:0:0:60:Tom2.wav
448,192,27405,1,0,0:0:0:0:
320,192,27494,1,0,0:0:0:0:
64,192,27582,1,2,0:0:0:0:
192,192,27582,1,0,0:0:0:0:
64,192,27758,1,0,0:0:0:60:Tom3.wav
448,192,27758,1,0,0:0:0:0:
192,192,27847,1,0,0:0:0:0:
320,192,27935,1,2,0:0:0:0:
448,192,27935,1,0,0:0:0:0:
192,192,28023,1,0,0:0:0:0:
64,192,28111,1,8,0:0:0:0:
448,192,28111,1,0,0:0:0:0:
320,192,28200,1,0,0:0:0:0:
64,192,28288,1,2,0:0:0:0:
192,192,28288,1,0,0:0:0:0:
320,192,28376,1,0,0:0:0:0:
64,192,28464,1,0,0:0:0:60:Tom3.wav
448,192,28464,1,0,0:0:0:0:
192,192,28553,1,0,0:0:0:0:
64,192,28641,1,2,0:0:0:0:
320,192,28641,1,4,0:0:0:0:
448,192,28641,1,0,0:0:0:0:
192,192,28817,1,2,0:0:0:0:
320,192,28817,1,0,0:0:0:0:
64,192,28994,1,8,0:0:0:0:
192,192,28994,1,0,0:0:0:0:
448,192,28994,1,0,0:0:0:0:
320,192,29170,1,0,0:0:0:0:
448,192,29347,1,0,0:0:0:0:
64,192,29523,1,2,0:0:0:0:
192,192,29523,1,0,0:0:0:0:
64,192,29700,1,8,0:0:0:0:
320,192,29700,1,0,0:0:0:0:
448,192,29700,1,0,0:0:0:0:
192,192,29876,1,0,0:0:0:0:
64,192,30053,1,2,0:0:0:0:
448,192,30053,1,0,0:0:0:0:
320,192,30229,1,0,0:0:0:0:
64,192,30405,1,8,0:0:0:0:
192,192,30405,1,0,0:0:0:0:
448,192,30405,1,0,0:0:0:0:
192,192,30582,1,2,0:0:0:0:
320,192,30582,128,0,30935:0:0:0:0:
448,192,30758,1,0,0:0:0:0:
64,192,30935,1,2,0:0:0:0:
192,192,30935,1,0,0:0:0:0:
64,192,31111,1,8,0:0:0:0:
320,192,31111,1,0,0:0:0:0:
448,192,31111,1,0,0:0:0:0:
192,192,31288,1,0,0:0:0:0:
64,192,31464,1,2,0:0:0:0:
320,192,31464,1,0,0:0:0:0:
448,192,31464,1,0,0:0:0:0:
192,192,31641,1,2,0:0:0:0:
320,192,31641,1,0,0:0:0:0:
64,192,31817,1,8,0:0:0:0:
192,192,31817,1,0,0:0:0:0:
448,192,31817,1,0,0:0:0:0:
320,192,31994,1,0,0:0:0:0:
192,192,32170,1,0,0:0:0:0:
320,192,32347,1,2,0:0:0:0:
448,192,32347,1,0,0:0:0:0:
64,192,32523,1,8,0:0:0:0:
192,192,32523,1,0,0:0:0:0:
448,192,32523,1,0,0:0:0:0:
320,192,32700,1,0,0:0:0:0:
64,192,32876,1,2,0:0:0:0:
448,192,32876,1,0,0:0:0:0:
192,192,33053,1,2,0:0:0:0:
320,192,33053,1,0,0:0:0:0:
64,192,33229,1,8,0:0:0:0:
320,192,33229,1,0,0:0:0:0:
448,192,33229,1,0,0:0:0:0:
64,192,33405,1,2,0:0:0:0:
192,192,33405,128,0,33758:0:0:0:0:
448,192,33582,1,0,0:0:0:0:
64,192,33758,1,2,0:0:0:0:
320,192,33758,1,0,0:0:0:0:
64,192,33935,1,8,0:0:0:0:
320,192,33935,1,0,0:0:0:0:
448,192,33935,1,0,0:0:0:0:
192,192,34111,1,0,0:0:0:0:
320,192,34288,1,2,0:0:0:0:
448,192,34288,1,0,0:0:0:0:
64,192,34464,1,2,0:0:0:0:
192,192,34464,1,0,0:0:0:0:
64,192,34641,1,8,0:0:0:0:
320,192,34641,1,0,0:0:0:0:
448,192,34641,1,0,0:0:0:0:
192,192,34817,1,0,0:0:0:0:
320,192,34994,1,0,0:0:0:0:
64,192,35170,1,2,0:0:0:0:
192,192,35170,1,0,0:0:0:0:
64,192,35347,1,8,0:0:0:0:
320,192,35347,1,0,0:0:0:0:
448,192,35347,1,0,0:0:0:0:
192,192,35523,1,0,0:0:0:0:
64,192,35700,1,2,0:0:0:0:
448,192,35700,1,0,0:0:0:0:
192,192,35876,1,2,0:0:0:0:
320,192,35876,1,0,0:0:0:0:
64,192,36053,1,8,0:0:0:0:
192,192,36053,1,0,0:0:0:0:
448,192,36053,1,0,0:0:0:0:
320,192,36229,128,2,36582:0:0:0:0:
448,192,36229,1,0,0:0:0:0:
64,192,36405,1,0,0:0:0:0:
192,192,36582,1,2,0:0:0:0:
448,192,36582,1,0,0:0:0:0:
64,192,36758,1,8,0:0:0:0:
192,192,36758,1,0,0:0:0:0:
448,192,36758,1,0,0:0:0:0:
320,192,36935,1,0,0:0:0:0:
64,192,37111,1,2,0:0:0:0:
192,192,37111,1,4,0:0:0:0:
448,192,37111,1,0,0:0:0:0:
192,192,37288,1,2,0:0:0:0:
320,192,37288,1,0,0:0:0:0:
64,192,37464,1,8,0:0:0:0:
320,192,37464,1,0,0:0:0:60:Hat open.wav
448,192,37464,1,0,0:0:0:0:
64,192,37641,1,2,0:0:0:0:
192,192,37641,1,0,0:0:0:0:
320,192,37817,1,0,0:0:0:60:Hat open.wav
192,192,37994,1,2,0:0:0:0:
448,192,37994,1,0,0:0:0:0:
64,192,38170,1,8,0:0:0:0:
320,192,38170,1,0,0:0:0:60:Hat open.wav
448,192,38170,1,0,0:0:0:0:
192,192,38347,1,0,0:0:0:0:
64,192,38523,1,2,0:0:0:0:
320,192,38523,1,4,0:0:0:0:
448,192,38523,1,0,0:0:0:0:
192,192,38700,1,2,0:0:0:0:
320,192,38700,1,0,0:0:0:0:
64,192,38876,1,8,0:0:0:0:
192,192,38876,1,0,0:0:0:60:Hat open.wav
448,192,38876,1,0,0:0:0:0:
320,192,39053,1,2,0:0:0:0:
448,192,39053,1,0,0:0:0:0:
192,192,39229,1,0,0:0:0:60:Hat open.wav
64,192,39405,1,2,0:0:0:0:
320,192,39405,1,0,0:0:0:0:
64,192,39582,1,8,0:0:0:0:
192,192,39582,1,0,0:0:0:60:Hat open.wav
448,192,39582,1,0,0:0:0:0:
320,192,39758,1,0,0:0:0:60:Tom2.wav
448,192,39758,1,0,0:0:0:0:
192,192,39847,1,0,0:0:0:0:
64,192,39935,1,2,0:0:0:0:
320,192,39935,1,4,0:0:0:0:
448,192,39935,1,0,0:0:0:0:
192,192,40111,1,2,0:0:0:0:
320,192,40111,1,0,0:0:0:0:
64,192,40288,1,8,0:0:0:0:
192,192,40288,1,0,0:0:0:0:
448,192,40288,1,0,0:0:0:0:
320,192,40464,1,0,0:0:0:0:
192,192,40641,1,0,0:0:0:0:
320,192,40817,1,2,0:0:0:0:
448,192,40817,1,0,0:0:0:0:
64,192,40994,1,8,0:0:0:0:
192,192,40994,1,0,0:0:0:0:
448,192,40994,1,0,0:0:0:0:
320,192,41170,1,0,0:0:0:0:
64,192,41347,1,2,0:0:0:0:
448,192,41347,1,0,0:0:0:0:
192,192,41523,1,0,0:0:0:0:
64,192,41700,1,8,0:0:0:0:
320,192,41700,1,0,0:0:0:0:
448,192,41700,1,0,0:0:0:0:
192,192,41876,128,2,42229:0:0:0:0:
320,192,41876,1,0,0:0:0:0:
64,192,42053,1,0,0:0:0:0:
320,192,42229,1,2,0:0:0:0:
448,192,42229,1,0,0:0:0:0:
64,192,42405,1,8,0:0:0:0:
192,192,42405,1,0,0:0:0:0:
448,192,42405,1,0,0:0:0:0:
320,192,42582,1,0,0:0:0:0:
64,192,42758,1,2,0:0:0:0:
448,192,42758,1,0,0:0:0:0:
192,192,42935,1,2,0:0:0:0:
320,192,42935,1,0,0:0:0:0:
64,192,43111,1,8,0:0:0:0:
320,192,43111,1,0,0:0:0:0:
448,192,43111,1,0,0:0:0:0:
192,192,43288,1,0,0:0:0:0:
320,192,43464,1,0,0:0:0:0:
64,192,43641,1,2,0:0:0:0:
192,192,43641,1,0,0:0:0:0:
64,192,43817,1,8,0:0:0:0:
320,192,43817,1,0,0:0:0:0:
448,192,43817,1,0,0:0:0:0:
192,192,43994,1,0,0:0:0:0:
64,192,44170,1,2,0:0:0:0:
448,192,44170,1,0,0:0:0:0:
192,192,44347,1,2,0:0:0:0:
320,192,44347,1,0,0:0:0:0:
64,192,44523,1,8,0:0:0:0:
192,192,44523,1,0,0:0:0:0:
448,192,44523,1,0,0:0:0:0:
320,192,44700,1,2,0:0:0:0:
448,192,44700,128,0,45053:0:0:0:0:
192,192,44876,1,0,0:0:0:0:
64,192,45053,1,2,0:0:0:0:
320,192,45053,1,0,0:0:0:0:
64,192,45229,1,8,0:0:0:0:
192,192,45229,1,0,0:0:0:0:
448,192,45229,1,0,0:0:0:0:
320,192,45405,1,0,0:0:0:0:
64,192,45582,1,2,0:0:0:0:
192,192,45582,1,0,0:0:0:0:
320,192,45758,1,2,0:0:0:0:
448,192,45758,1,0,0:0:0:0:
64,192,45935,1,8,0:0:0:0:
192,192,45935,1,0,0:0:0:0:
448,192,45935,1,0,0:0:0:0:
320,192,46111,1,0,0:0:0:0:
192,192,46288,1,0,0:0:0:0:
320,192,46464,1,2,0:0:0:0:
448,192,46464,1,0,0:0:0:0:
64,192,46641,1,8,0:0:0:0:
192,192,46641,1,0,0:0:0:0:
448,192,46641,1,0,0:0:0:0:
320,192,46817,1,0,0:0:0:0:
64,192,46994,1,2,0:0:0:0:
448,192,46994,1,0,0:0:0:0:
192,192,47170,1,0,0:0:0:0:
64,192,47347,1,8,0:0:0:0:
320,192,47347,1,0,0:0:0:0:
448,192,47347,1,0,0:0:0:0:
64,192,47523,128,2,47876:0:0:0:0:
192,192,47523,1,0,0:0:0:0:
320,192,47700,1,0,0:0:0:0:
192,192,47876,1,2,0:0:0:0:
448,192,47876,1,0,0:0:0:0:
64,192,48053,1,8,0:0:0:0:
320,192,48053,1,0,0:0:0:0:
448,192,48053,1,0,0:0:0:0:
192,192,48229,1,0,0:0:0:0:
64,192,48405,1,2,0:0:0:0:
320,192,48405,1,4,0:0:0:0:
448,192,48405,1,0,0:0:0:0:
192,192,48582,1,2,0:0:0:0:
320,192,48582,1,0,0:0:0:0:
64,192,48758,1,8,0:0:0:0:
192,192,48758,1,0,0:0:0:60:Hat open.wav
448,192,48758,1,0,0:0:0:0:
320,192,48935,1,2,0:0:0:0:
448,192,48935,1,0,0:0:0:0:
192,192,49111,1,0,0:0:0:60:Hat open.wav
64,192,49288,1,2,0:0:0:0:
320,192,49288,1,0,0:0:0:0:
64,192,49464,1,8,0:0:0:0:
192,192,49464,1,0,0:0:0:60:Hat open.wav
448,192,49464,1,0,0:0:0:0:
320,192,49641,1,0,0:0:0:0:
64,192,49817,1,2,0:0:0:0:
192,192,49817,1,4,0:0:0:0:
448,192,49817,1,0,0:0:0:0:
192,192,49994,1,8,0:0:0:0:
320,192,49994,1,0,0:0:0:0:
448,192,49994,1,0,0:0:0:0:
64,192,50170,1,8,0:0:0:0:
192,192,50170,1,0,0:0:0:0:
320,192,50170,1,0,0:0:0:0:
64,192,50347,1,2,0:0:0:0:
448,192,50347,1,0,0:0:0:0:
320,192,50523,1,8,0:0:0:0:
448,192,50523,1,0,0:0:0:0:
64,192,50611,1,8,0:0:0:0:
192,192,50611,1,0,0:0:0:0:
320,192,50700,1,0,0:0:0:60:Tom1.wav
448,192,50700,1,0,0:0:0:0:
64,192,50876,1,0,0:0:0:60:Tom2.wav
192,192,50876,1,0,0:0:0:0:
192,192,51053,1,0,0:0:0:60:Tom3.wav
320,192,51053,1,0,0:0:0:0:
64,192,51229,1,2,0:0:0:0:
320,192,51229,1,4,0:0:0:0:
448,192,51229,1,0,0:0:0:0:
192,192,51405,1,0,0:0:0:0:
64,192,51582,1,8,0:0:0:0:
320,192,51582,1,0,0:0:0:0:
448,192,51582,1,0,0:0:0:0:
192,192,51758,1,2,0:0:0:0:
320,192,51758,1,0,0:0:0:0:
64,192,51935,1,0,0:0:0:0:
320,192,52111,1,2,0:0:0:0:
448,192,52111,1,0,0:0:0:0:
64,192,52288,1,8,0:0:0:0:
192,192,52288,1,0,0:0:0:0:
448,192,52288,1,0,0:0:0:0:
320,192,52464,1,0,0:0:0:0:
64,192,52641,1,2,0:0:0:0:
448,192,52641,1,0,0:0:0:0:
192,192,52817,1,0,0:0:0:0:
64,192,52994,1,8,0:0:0:0:
320,192,52994,1,0,0:0:0:0:
448,192,52994,1,0,0:0:0:0:
192,192,53170,1,2,0:0:0:0:
320,192,53170,128,0,53523:0:0:0:0:
448,192,53347,1,0,0:0:0:0:
64,192,53523,1,2,0:0:0:0:
192,192,53523,1,0,0:0:0:0:
64,192,53700,1,8,0:0:0:0:
320,192,53700,1,0,0:0:0:0:
448,192,53700,1,0,0:0:0:0:
192,192,53876,1,0,0:0:0:0:
64,192,54053,1,2,0:0:0:0:
448,192,54053,1,0,0:0:0:0:
320,192,54229,1,0,0:0:0:0:
64,192,54405,1,8,0:0:0:0:
192,192,54405,1,0,0:0:0:0:
448,192,54405,1,0,0:0:0:0:
320,192,54582,1,2,0:0:0:0:
448,192,54582,1,0,0:0:0:0:
192,192,54758,1,0,0:0:0:0:
64,192,54935,1,2,0:0:0:0:
320,192,54935,1,0,0:0:0:0:
64,192,55111,1,8,0:0:0:0:
192,192,55111,1,0,0:0:0:0:
448,192,55111,1,0,0:0:0:0:
320,192,55288,1,0,0:0:0:0:
64,192,55464,1,2,0:0:0:0:
448,192,55464,1,0,0:0:0:0:
192,192,55641,1,0,0:0:0:0:
64,192,55817,1,8,0:0:0:0:
320,192,55817,1,0,0:0:0:0:
448,192,55817,1,0,0:0:0:0:
64,192,55994,128,2,56347:0:0:0:0:
192,192,55994,1,0,0:0:0:0:
320,192,56170,1,0,0:0:0:0:
192,192,56347,1,2,0:0:0:0:
448,192,56347,1,0,0:0:0:0:
64,192,56523,1,8,0:0:0:0:
320,192,56523,1,0,0:0:0:0:
448,192,56523,1,0,0:0:0:0:
192,192,56700,1,0,0:0:0:60:Hat open.wav
64,192,56876,1,2,0:0:0:0:
448,192,56876,1,0,0:0:0:0:
320,192,57053,1,0,0:0:0:0:
64,192,57229,1,8,0:0:0:0:
192,192,57229,1,0,0:0:0:0:
448,192,57229,1,0,0:0:0:0:
192,192,57405,1,2,0:0:0:0:
320,192,57405,1,0,0:0:0:0:
448,192,57582,1,0,0:0:0:0:
64,192,57758,1,2,0:0:0:0:
192,192,57758,1,0,0:0:0:0:
64,192,57935,1,8,0:0:0:0:
320,192,57935,1,0,0:0:0:0:
448,192,57935,1,0,0:0:0:0:
192,192,58111,1,0,0:0:0:0:
64,192,58288,1,2,0:0:0:0:
448,192,58288,1,0,0:0:0:0:
320,192,58464,1,0,0:0:0:0:
64,192,58641,1,8,0:0:0:0:
192,192,58641,1,0,0:0:0:0:
448,192,58641,1,0,0:0:0:0:
192,192,58817,1,2,0:0:0:0:
320,192,58817,128,0,59170:0:0:0:0:
64,192,58994,1,0,0:0:0:0:
192,192,59170,1,2,0:0:0:0:
448,192,59170,1,0,0:0:0:0:
64,192,59347,1,8,0:0:0:0:
192,192,59347,1,0,0:0:0:0:
448,192,59347,1,0,0:0:0:0:
320,192,59523,1,8,0:0:0:0:
448,192,59523,1,0,0:0:0:0:
192,192,59611,1,8,0:0:0:0:
64,192,59700,1,4,0:0:0:0:
320,192,59700,1,2,0:0:0:0:
448,192,59700,1,0,0:0:0:0:
64,192,59876,1,2,0:0:0:0:
192,192,59876,1,0,0:0:0:0:
192,192,60053,1,8,0:0:0:0:
320,192,60053,1,0,0:0:0:60:Hat open.wav
448,192,60053,1,0,0:0:0:0:
64,192,60229,1,2,0:0:0:0:
448,192,60229,1,0,0:0:0:0:
64,192,60405,1,8,0:0:0:0:
192,192,60405,1,0,0:0:0:60:Hat open.wav
320,192,60405,1,0,0:0:0:0:
320,192,60582,1,2,0:0:0:0:
448,192,60582,1,0,0:0:0:0:
192,192,60758,1,0,0:0:0:60:Hat open.wav
64,192,60935,1,8,0:0:0:0:
320,192,60935,1,0,0:0:0:0:
448,192,60935,1,0,0:0:0:0:
192,192,61111,1,2,0:0:0:0:
320,192,61111,1,0,0:0:0:60:Hat open.wav
64,192,61288,1,8,0:0:0:0:
192,192,61288,1,0,0:0:0:0:
448,192,61288,1,0,0:0:0:0:
320,192,61464,1,2,0:0:0:0:
448,192,61464,1,0,0:0:0:60:Hat open.wav
64,192,61553,1,8,0:0:0:0:
192,192,61553,1,0,0:0:0:0:
320,192,61641,1,8,0:0:0:0:
448,192,61641,1,0,0:0:0:0:
64,192,61729,1,8,0:0:0:0:
192,192,61729,1,0,0:0:0:0:
320,192,61817,1,8,0:0:0:0:
448,192,61817,1,0,0:0:0:60:Hat open.wav
192,192,62170,128,0,62523:0:0:0:0:
64,192,62523,1,2,0:0:0:0:
320,192,62523,128,4,62876:0:0:0:0:
448,192,62523,1,0,0:0:0:0:
64,192,62876,1,8,0:0:0:0:
192,192,62876,1,0,0:0:0:0:
448,192,62876,1,0,0:0:0:0:
320,192,63053,1,0,0:0:0:0:
64,192,63229,1,2,0:0:0:0:
448,192,63229,1,0,0:0:0:0:
192,192,63405,1,2,0:0:0:0:
320,192,63405,1,0,0:0:0:0:
64,192,63582,1,8,0:0:0:0:
320,192,63582,1,0,0:0:0:0:
448,192,63582,1,0,0:0:0:0:
192,192,63758,1,0,0:0:0:0:
64,192,63935,1,2,0:0:0:0:
448,192,63935,1,0,0:0:0:0:
320,192,64111,1,0,0:0:0:0:
64,192,64288,1,8,0:0:0:0:
192,192,64288,1,0,0:0:0:0:
448,192,64288,1,0,0:0:0:0:
192,192,64464,1,2,0:0:0:0:
320,192,64464,128,0,64817:0:0:0:0:
448,192,64641,1,0,0:0:0:0:
64,192,64817,1,2,0:0:0:0:
192,192,64817,1,0,0:0:0:0:
64,192,64994,1,8,0:0:0:0:
320,192,64994,1,0,0:0:0:0:
448,192,64994,1,0,0:0:0:0:
192,192,65170,1,0,0:0:0:0:
64,192,65347,1,2,0:0:0:0:
448,192,65347,1,0,0:0:0:0:
320,192,65523,1,0,0:0:0:0:
64,192,65700,1,8,0:0:0:0:
192,192,65700,1,0,0:0:0:0:
448,192,65700,1,0,0:0:0:0:
320,192,65876,1,0,0:0:0:0:
64,192,66053,1,2,0:0:0:0:
192,192,66053,1,0,0:0:0:0:
320,192,66229,1,2,0:0:0:0:
448,192,66229,1,0,0:0:0:0:
64,192,66405,1,8,0:0:0:0:
192,192,66405,1,0,0:0:0:0:
448,192,66405,1,0,0:0:0:0:
320,192,66582,1,0,0:0:0:0:
64,192,66758,1,2,0:0:0:0:
448,192,66758,1,0,0:0:0:0:
192,192,66935,1,2,0:0:0:0:
320,192,66935,1,0,0:0:0:0:
64,192,67111,1,8,0:0:0:0:
320,192,67111,1,0,0:0:0:0:
448,192,67111,1,0,0:0:0:0:
64,192,67288,128,2,67464:0:0:0:0:
192,192,67288,1,0,0:0:0:0:
448,192,67464,1,0,0:0:0:0:
192,192,67641,1,2,0:0:0:0:
320,192,67641,1,0,0:0:0:0:
64,192,67817,1,8,0:0:0:0:
192,192,67817,128,0,68170:0:0:0:0:
448,192,67817,1,0,0:0:0:0:
64,192,68170,1,2,0:0:0:0:
320,192,68170,1,4,0:0:0:0:
448,192,68170,1,0,0:0:0:0:
192,192,68347,1,0,0:0:0:0:
64,192,68523,1,8,0:0:0:0:
320,192,68523,1,0,0:0:0:0:
448,192,68523,1,0,0:0:0:0:
192,192,68700,1,0,0:0:0:0:
320,192,68876,1,2,0:0:0:0:
448,192,68876,1,0,0:0:0:0:
64,192,69053,1,2,0:0:0:0:
192,192,69053,1,0,0:0:0:0:
64,192,69229,1,8,0:0:0:0:
320,192,69229,1,0,0:0:0:0:
448,192,69229,1,0,0:0:0:0:
192,192,69405,1,0,0:0:0:0:
64,192,69582,1,2,0:0:0:0:
448,192,69582,1,0,0:0:0:0:
192,192,69758,1,2,0:0:0:0:
320,192,69758,1,0,0:0:0:0:
64,192,69935,1,8,0:0:0:0:
192,192,69935,1,0,0:0:0:0:
448,192,69935,1,0,0:0:0:0:
320,192,70111,1,2,0:0:0:0:
448,192,70111,1,0,0:0:0:0:
192,192,70288,1,0,0:0:0:0:
64,192,70464,1,2,0:0:0:0:
320,192,70464,1,0,0:0:0:0:
64,192,70641,1,8,0:0:0:0:
192,192,70641,1,0,0:0:0:0:
448,192,70641,1,0,0:0:0:0:
320,192,70817,1,0,0:0:0:0:
64,192,70994,1,2,0:0:0:0:
192,192,70994,1,4,0:0:0:0:
448,192,70994,1,0,0:0:0:0:
320,192,71170,1,8,0:0:0:0:
448,192,71170,1,0,0:0:0:0:
64,192,71258,1,8,0:0:0:0:
192,192,71258,1,0,0:0:0:0:
320,192,71347,1,2,0:0:0:0:
448,192,71347,1,0,0:0:0:60:Tom1.wav
192,192,71435,1,0,0:0:0:60:Tom1.wav
64,192,71523,1,0,0:0:0:60:Tom1.wav
448,192,71523,1,0,0:0:0:0:
320,192,71611,1,0,0:0:0:60:Tom2.wav
64,192,71700,1,2,0:0:0:0:
192,192,71700,1,0,0:0:0:60:Tom2.wav
320,192,71788,1,0,0:0:0:60:Tom2.wav
64,192,71876,1,0,0:0:0:60:Tom2.wav
448,192,71876,1,0,0:0:0:0:
192,192,71964,1,0,0:0:0:60:Tom2.wav
320,192,72053,1,2,0:0:0:0:
448,192,72053,1,0,0:0:0:60:Tom3.wav
192,192,72141,1,0,0:0:0:60:Tom3.wav
64,192,72229,1,0,0:0:0:60:Tom3.wav
448,192,72229,1,0,0:0:0:0:
320,192,72317,1,0,0:0:0:60:Tom3.wav
64,192,72405,1,8,0:0:0:0:
192,192,72405,1,0,0:0:0:0:
448,192,72405,1,0,0:0:0:0:
64,192,73111,1,2,0:0:0:0:
192,192,73111,1,0,0:0:0:80:Loud Bass.wav
320,192,73111,128,0,73817:0:0:0:0:
448,192,73111,1,0,0:0:0:0:
64,192,73817,1,2,0:0:0:0:
192,192,73817,1,4,0:0:0:0:
448,192,73817,1,0,0:0:0:0:
320,192,73994,1,0,0:0:0:0:
64,192,74170,1,8,0:0:0:0:
192,192,74170,1,0,0:0:0:0:
448,192,74170,1,0,0:0:0:0:
192,192,74347,1,2,0:0:0:0:
320,192,74347,1,0,0:0:0:0:
448,192,74523,1,0,0:0:0:0:
64,192,74700,1,2,0:0:0:0:
192,192,74700,1,0,0:0:0:0:
64,192,74876,1,8,0:0:0:0:
320,192,74876,1,0,0:0:0:0:
448,192,74876,1,0,0:0:0:0:
192,192,75053,1,0,0:0:0:0:
64,192,75229,1,2,0:0:0:0:
448,192,75229,1,0,0:0:0:0:
192,192,75405,1,2,0:0:0:0:
320,192,75405,1,0,0:0:0:0:
64,192,75582,1,8,0:0:0:0:
192,192,75582,1,0,0:0:0:0:
448,192,75582,1,0,0:0:0:0:
320,192,75758,1,2,0:0:0:0:
448,192,75758,1,0,0:0:0:0:
192,192,75935,1,0,0:0:0:0:
64,192,76111,1,2,0:0:0:0:
320,192,76111,1,0,0:0:0:0:
64,192,76288,1,8,0:0:0:0:
192,192,76288,1,0,0:0:0:0:
448,192,76288,1,0,0:0:0:0:
320,192,76464,1,0,0:0:0:0:
64,192,76553,1,8,0:0:0:0:
192,192,76553,1,0,0:0:0:0:
320,192,76641,1,2,0:0:0:0:
448,192,76641,1,0,0:0:0:0:
192,192,76817,1,0,0:0:0:0:
64,192,76994,1,8,0:0:0:0:
320,192,76994,1,0,0:0:0:0:
448,192,76994,1,0,0:0:0:0:
192,192,77170,1,2,0:0:0:0:
320,192,77170,1,0,0:0:0:0:
64,192,77347,1,0,0:0:0:0:
320,192,77523,1,2,0:0:0:0:
448,192,77523,1,0,0:0:0:0:
64,192,77700,1,8,0:0:0:0:
192,192,77700,1,0,0:0:0:0:
448,192,77700,1,0,0:0:0:0:
320,192,77876,1,0,0:0:0:0:
64,192,78053,1,2,0:0:0:0:
448,192,78053,1,0,0:0:0:0:
192,192,78229,1,2,0:0:0:0:
320,192,78229,1,0,0:0:0:0:
64,192,78405,1,8,0:0:0:0:
320,192,78405,1,0,0:0:0:0:
448,192,78405,1,0,0:0:0:0:
64,192,78582,1,2,0:0:0:0:
192,192,78582,1,0,0:0:0:0:
320,192,78758,1,0,0:0:0:0:
192,192,78935,1,2,0:0:0:0:
448,192,78935,1,0,0:0:0:0:
64,192,79111,1,8,0:0:0:0:
320,192,79111,1,0,0:0:0:60:Hat open.wav
448,192,79111,1,0,0:0:0:0:
64,192,79288,1,8,0:0:0:0:
192,192,79288,1,0,0:0:0:0:
320,192,79376,1,8,0:0:0:0:
64,192,79464,1,2,0:0:0:0:
192,192,79464,1,4,0:0:0:0:
448,192,79464,1,0,0:0:0:0:
320,192,79641,1,0,0:0:0:0:
64,192,79817,1,8,0:0:0:0:
192,192,79817,1,0,0:0:0:0:
448,192,79817,1,0,0:0:0:0:
192,192,79994,1,2,0:0:0:0:
320,192,79994,1,0,0:0:0:0:
448,192,80170,1,0,0:0:0:0:
64,192,80347,1,2,0:0:0:0:
192,192,80347,1,0,0:0:0:0:
64,192,80523,1,8,0:0:0:0:
320,192,80523,1,0,0:0:0:0:
448,192,80523,1,0,0:0:0:0:
192,192,80700,1,0,0:0:0:0:
64,192,80876,1,2,0:0:0:0:
448,192,80876,1,0,0:0:0:0:
192,192,81053,1,2,0:0:0:0:
320,192,81053,1,0,0:0:0:0:
64,192,81229,1,8,0:0:0:0:
192,192,81229,1,0,0:0:0:0:
448,192,81229,1,0,0:0:0:0:
320,192,81405,1,2,0:0:0:0:
448,192,81405,1,0,0:0:0:0:
192,192,81582,1,0,0:0:0:0:
64,192,81758,1,2,0:0:0:0:
320,192,81758,1,0,0:0:0:0:
64,192,81935,1,8,0:0:0:0:
192,192,81935,1,0,0:0:0:0:
448,192,81935,1,0,0:0:0:0:
320,192,82111,1,0,0:0:0:0:
64,192,82200,1,8,0:0:0:0:
192,192,82200,1,0,0:0:0:0:
320,192,82288,1,2,0:0:0:0:
448,192,82288,1,0,0:0:0:0:
192,192,82464,1,0,0:0:0:0:
64,192,82641,1,8,0:0:0:0:
320,192,82641,1,0,0:0:0:0:
448,192,82641,1,0,0:0:0:0:
64,192,82817,1,2,0:0:0:0:
192,192,82817,1,0,0:0:0:0:
320,192,82994,1,0,0:0:0:0:
192,192,83170,1,2,0:0:0:0:
448,192,83170,1,0,0:0:0:0:
64,192,83347,1,8,0:0:0:0:
320,192,83347,1,0,0:0:0:0:
448,192,83347,1,0,0:0:0:0:
192,192,83523,1,0,0:0:0:0:
64,192,83700,1,2,0:0:0:0:
448,192,83700,1,0,0:0:0:60:Hat open.wav
192,192,83876,1,8,0:0:0:0:
320,192,83876,1,0,0:0:0:0:
448,192,83876,1,0,0:0:0:0:
64,192,84053,1,2,0:0:0:0:
192,192,84053,1,0,0:0:0:60:Hat open.wav
320,192,84229,1,2,0:0:0:0:
448,192,84229,1,0,0:0:0:0:
64,192,84405,1,8,0:0:0:0:
192,192,84405,1,0,0:0:0:60:Hat open.wav
448,192,84405,1,0,0:0:0:0:
192,192,84582,1,0,0:0:0:60:Tom1.wav
320,192,84582,1,0,0:0:0:0:
64,192,84758,1,0,0:0:0:60:Tom2.wav
192,192,84758,1,0,0:0:0:0:
320,192,84935,1,0,0:0:0:60:Tom3.wav
448,192,84935,1,0,0:0:0:0:
64,192,85111,1,4,0:0:0:0:
192,192,85111,1,2,0:0:0:0:
448,192,85111,1,0,0:0:0:0:
320,192,85288,1,0,0:0:0:0:
64,192,85464,1,8,0:0:0:0:
192,192,85464,1,0,0:0:0:0:
448,192,85464,1,0,0:0:0:0:
192,192,85641,1,2,0:0:0:0:
320,192,85641,1,0,0:0:0:0:
448,192,85817,1,0,0:0:0:0:
64,192,85994,1,2,0:0:0:0:
192,192,85994,1,0,0:0:0:0:
64,192,86170,1,8,0:0:0:0:
320,192,86170,1,0,0:0:0:0:
448,192,86170,1,0,0:0:0:0:
192,192,86347,1,0,0:0:0:0:
64,192,86523,1,2,0:0:0:0:
320,192,86523,1,4,0:0:0:0:
448,192,86523,1,0,0:0:0:0:
192,192,86700,1,2,0:0:0:0:
320,192,86700,1,0,0:0:0:0:
64,192,86876,1,8,0:0:0:0:
192,192,86876,1,0,0:0:0:0:
448,192,86876,1,0,0:0:0:0:
320,192,87053,1,2,0:0:0:0:
448,192,87053,1,0,0:0:0:0:
192,192,87229,1,0,0:0:0:0:
64,192,87405,1,2,0:0:0:0:
320,192,87405,1,0,0:0:0:0:
64,192,87582,1,8,0:0:0:0:
192,192,87582,1,0,0:0:0:0:
448,192,87582,1,0,0:0:0:0:
320,192,87758,1,0,0:0:0:0:
192,192,87847,1,8,0:0:0:0:
64,192,87935,1,2,0:0:0:0:
320,192,87935,1,4,0:0:0:0:
448,192,87935,1,0,0:0:0:0:
192,192,88111,1,0,0:0:0:0:
64,192,88288,1,8,0:0:0:0:
320,192,88288,1,0,0:0:0:0:
448,192,88288,1,0,0:0:0:0:
64,192,88464,1,2,0:0:0:0:
192,192,88464,1,0,0:0:0:0:
320,192,88641,1,0,0:0:0:0:
192,192,88817,1,2,0:0:0:0:
448,192,88817,1,0,0:0:0:0:
64,192,88994,1,8,0:0:0:0:
320,192,88994,1,0,0:0:0:0:
448,192,88994,1,0,0:0:0:0:
192,192,89170,1,0,0:0:0:0:
64,192,89347,1,2,0:0:0:0:
320,192,89347,1,4,0:0:0:0:
448,192,89347,1,0,0:0:0:0:
192,192,89523,1,2,0:0:0:0:
320,192,89523,1,0,0:0:0:0:
64,192,89700,1,8,0:0:0:0:
192,192,89700,1,0,0:0:0:0:
448,192,89700,1,0,0:0:0:0:
320,192,89876,1,2,0:0:0:0:
448,192,89876,1,0,0:0:0:0:
192,192,90053,1,0,0:0:0:0:
64,192,90229,1,2,0:0:0:0:
320,192,90229,1,0,0:0:0:0:
64,192,90405,1,8,0:0:0:0:
192,192,90405,1,0,0:0:0:0:
448,192,90405,1,0,0:0:0:0:
320,192,90582,1,8,0:0:0:0:
448,192,90582,1,0,0:0:0:0:
192,192,90670,1,8,0:0:0:0:
64,192,90758,1,2,0:0:0:0:
320,192,90758,1,4,0:0:0:0:
448,192,90758,1,0,0:0:0:0:
192,192,90935,1,0,0:0:0:0:
64,192,91111,1,8,0:0:0:0:
320,192,91111,1,0,0:0:0:0:
448,192,91111,1,0,0:0:0:0:
192,192,91288,1,2,0:0:0:0:
320,192,91288,1,0,0:0:0:0:
64,192,91464,1,0,0:0:0:0:
320,192,91641,1,2,0:0:0:0:
448,192,91641,1,0,0:0:0:0:
64,192,91817,1,8,0:0:0:0:
192,192,91817,1,0,0:0:0:0:
448,192,91817,1,0,0:0:0:0:
320,192,91994,1,0,0:0:0:0:
64,192,92170,1,2,0:0:0:0:
192,192,92170,1,0,0:0:0:0:
320,192,92347,1,2,0:0:0:0:
448,192,92347,1,0,0:0:0:0:
64,192,92523,1,8,0:0:0:0:
192,192,92523,1,0,0:0:0:0:
448,192,92523,1,0,0:0:0:0:
320,192,92700,1,0,0:0:0:0:
64,192,92876,1,2,0:0:0:0:
448,192,92876,1,0,0:0:0:0:
192,192,93053,1,2,0:0:0:0:
320,192,93053,1,0,0:0:0:0:
64,192,93229,1,8,0:0:0:0:
320,192,93229,1,0,0:0:0:0:
448,192,93229,1,0,0:0:0:0:
192,192,93405,1,0,0:0:0:0:
64,192,93582,1,8,0:0:0:0:
320,192,93582,1,0,0:0:0:60:Hat open.wav
448,192,93582,1,0,0:0:0:0:
64,192,93758,1,2,0:0:0:0:
192,192,93758,1,0,0:0:0:0:
320,192,93935,1,0,0:0:0:60:Hat open.wav
64,192,94111,1,2,0:0:0:0:
448,192,94111,1,0,0:0:0:0:
64,192,94288,1,8,0:0:0:0:
192,192,94288,1,0,0:0:0:60:Hat open.wav
320,192,94288,1,0,0:0:0:0:
64,192,94464,1,2,0:0:0:0:
448,192,94464,1,0,0:0:0:0:
192,192,94641,1,0,0:0:0:60:Hat open.wav
320,192,94817,1,2,0:0:0:0:
448,192,94817,1,0,0:0:0:0:
64,192,94994,128,2,95347:0:0:0:0:
192,192,94994,1,8,0:0:0:0:
320,192,94994,1,0,0:0:0:60:Hat open.wav
448,192,95347,1,0,0:0:0:0:
192,192,95523,1,0,0:0:0:0:
448,192,95700,1,0,0:0:0:0:
320,192,95758,1,0,0:0:0:0:
192,192,95817,1,0,0:0:0:0:
64,192,95876,1,0,0:0:0:0:
448,192,95876,1,0,0:0:0:0:
192,192,96053,1,8,0:0:0:0:
320,192,96053,128,4,96405:0:0:0:0:
448,192,96053,1,0,0:0:0:0:
64,192,96405,1,2,0:0:0:0:
192,192,96405,1,4,0:0:0:0:
448,192,96405,1,0,0:0:0:0:
320,192,96582,1,0,0:0:0:0:
64,192,96758,1,8,0:0:0:0:
192,192,96758,1,0,0:0:0:0:
448,192,96758,1,0,0:0:0:0:
192,192,96935,1,2,0:0:0:0:
320,192,96935,1,0,0:0:0:0:
64,192,97111,1,0,0:0:0:0:
320,192,97288,1,2,0:0:0:0:
448,192,97288,1,0,0:0:0:0:
64,192,97464,1,8,0:0:0:0:
192,192,97464,1,0,0:0:0:0:
448,192,97464,1,0,0:0:0:0:
320,192,97641,1,0,0:0:0:0:
64,192,97817,1,2,0:0:0:0:
448,192,97817,1,0,0:0:0:0:
192,192,97994,1,2,0:0:0:0:
320,192,97994,1,0,0:0:0:0:
64,192,98170,1,8,0:0:0:0:
320,192,98170,1,0,0:0:0:0:
448,192,98170,1,0,0:0:0:0:
64,192,98347,1,2,0:0:0:0:
192,192,98347,1,0,0:0:0:0:
320,192,98523,1,0,0:0:0:0:
192,192,98700,1,2,0:0:0:0:
448,192,98700,1,0,0:0:0:0:
64,192,98876,1,8,0:0:0:0:
320,192,98876,1,0,0:0:0:0:
448,192,98876,1,0,0:0:0:0:
192,192,99053,1,0,0:0:0:0:
320,192,99141,1,8,0:0:0:0:
448,192,99141,1,0,0:0:0:0:
64,192,99229,1,2,0:0:0:0:
192,192,99229,1,0,0:0:0:0:
320,192,99405,1,0,0:0:0:0:
64,192,99582,1,8,0:0:0:0:
192,192,99582,1,0,0:0:0:0:
448,192,99582,1,0,0:0:0:0:
192,192,99758,1,2,0:0:0:0:
320,192,99758,1,0,0:0:0:0:
448,192,99935,1,0,0:0:0:0:
64,192,100111,1,2,0:0:0:0:
192,192,100111,1,0,0:0:0:0:
64,192,100288,1,8,0:0:0:0:
320,192,100288,1,0,0:0:0:0:
448,192,100288,1,0,0:0:0:0:
192,192,100464,1,0,0:0:0:0:
64,192,100641,1,2,0:0:0:0:
448,192,100641,1,0,0:0:0:0:
192,192,100817,1,2,0:0:0:0:
320,192,100817,1,0,0:0:0:0:
64,192,100994,1,8,0:0:0:0:
192,192,100994,1,0,0:0:0:0:
448,192,100994,1,0,0:0:0:0:
320,192,101170,1,2,0:0:0:0:
448,192,101170,1,0,0:0:0:0:
192,192,101347,1,0,0:0:0:0:
64,192,101523,1,2,0:0:0:0:
448,192,101523,1,0,0:0:0:0:
320,192,101700,1,8,0:0:0:0:
448,192,101700,1,0,0:0:0:0:
64,192,101788,1,8,0:0:0:0:
192,192,101788,1,0,0:0:0:0:
320,192,101876,1,0,0:0:0:60:Tom2.wav
448,192,101876,1,0,0:0:0:0:
192,192,101964,1,8,0:0:0:0:
64,192,102053,1,2,0:0:0:0:
320,192,102053,1,4,0:0:0:0:
448,192,102053,1,0,0:0:0:0:
192,192,102229,1,0,0:0:0:0:
64,192,102405,1,8,0:0:0:0:
320,192,102405,1,0,0:0:0:0:
448,192,102405,1,0,0:0:0:0:
192,192,102582,1,2,0:0:0:0:
320,192,102582,1,0,0:0:0:0:
448,192,102758,1,0,0:0:0:0:
64,192,102935,1,2,0:0:0:0:
192,192,102935,1,0,0:0:0:0:
64,192,103111,1,8,0:0:0:0:
320,192,103111,1,0,0:0:0:0:
448,192,103111,1,0,0:0:0:0:
192,192,103288,1,0,0:0:0:0:
64,192,103464,1,2,0:0:0:0:
448,192,103464,1,0,0:0:0:0:
192,192,103641,1,2,0:0:0:0:
320,192,103641,1,0,0:0:0:0:
64,192,103817,1,8,0:0:0:0:
192,192,103817,1,0,0:0:0:0:
448,192,103817,1,0,0:0:0:0:
320,192,103994,1,2,0:0:0:0:
448,192,103994,1,0,0:0:0:0:
192,192,104170,1,0,0:0:0:0:
64,192,104347,1,2,0:0:0:0:
320,192,104347,1,0,0:0:0:0:
64,192,104523,1,8,0:0:0:0:
192,192,104523,1,0,0:0:0:0:
448,192,104523,1,0,0:0:0:0:
320,192,104700,1,0,0:0:0:0:
64,192,104788,1,8,0:0:0:0:
192,192,104788,1,0,0:0:0:0:
320,192,104876,1,2,0:0:0:0:
448,192,104876,1,0,0:0:0:0:
192,192,105053,1,0,0:0:0:0:
64,192,105229,1,8,0:0:0:0:
320,192,105229,1,0,0:0:0:0:
448,192,105229,1,0,0:0:0:0:
192,192,105405,1,2,0:0:0:0:
320,192,105405,1,0,0:0:0:0:
64,192,105582,1,0,0:0:0:0:
320,192,105758,1,2,0:0:0:0:
448,192,105758,1,0,0:0:0:0:
64,192,105935,1,8,0:0:0:0:
192,192,105935,1,0,0:0:0:0:
448,192,105935,1,0,0:0:0:0:
320,192,106111,1,0,0:0:0:0:
64,192,106288,1,8,0:0:0:0:
192,192,106288,1,0,0:0:0:60:Hat open.wav
448,192,106288,1,0,0:0:0:0:
320,192,106464,1,2,0:0:0:0:
448,192,106464,1,0,0:0:0:0:
64,192,106641,1,2,0:0:0:0:
192,192,106641,1,0,0:0:0:0:
320,192,106817,1,8,0:0:0:0:
448,192,106817,1,0,0:0:0:0:
64,192,106905,1,8,0:0:0:0:
192,192,106905,1,0,0:0:0:0:
320,192,106994,1,0,0:0:0:60:Tom1.wav
448,192,106994,1,0,0:0:0:0:
192,192,107082,1,0,0:0:0:60:Tom1.wav
64,192,107170,1,0,0:0:0:60:Tom2.wav
448,192,107170,1,0,0:0:0:0:
320,192,107258,1,0,0:0:0:60:Tom2.wav
64,192,107347,1,0,0:0:0:60:Tom3.wav
192,192,107347,1,0,0:0:0:0:
320,192,107435,1,0,0:0:0:60:Tom3.wav
64,192,107523,1,0,0:0:0:60:Tom3.wav
448,192,107523,1,0,0:0:0:0:
192,192,107611,1,0,0:0:0:60:Tom3.wav
64,192,107700,1,2,0:0:0:0:
320,192,107700,1,4,0:0:0:0:
448,192,107700,1,0,0:0:0:0:
192,192,107876,1,0,0:0:0:0:
64,192,108053,1,8,0:0:0:0:
320,192,108053,1,0,0:0:0:0:
448,192,108053,1,0,0:0:0:0:
192,192,108229,1,2,0:0:0:0:
320,192,108229,1,0,0:0:0:0:
448,192,108405,1,0,0:0:0:0:
64,192,108582,1,2,0:0:0:0:
192,192,108582,1,0,0:0:0:0:
64,192,108758,1,8,0:0:0:0:
320,192,108758,1,0,0:0:0:0:
448,192,108758,1,0,0:0:0:0:
192,192,108935,1,0,0:0:0:0:
64,192,109111,1,2,0:0:0:0:
320,192,109111,1,4,0:0:0:0:
448,192,109111,1,0,0:0:0:0:
192,192,109288,1,2,0:0:0:0:
320,192,109288,1,0,0:0:0:0:
64,192,109464,1,8,0:0:0:0:
192,192,109464,1,0,0:0:0:0:
448,192,109464,1,0,0:0:0:0:
320,192,109641,1,2,0:0:0:0:
448,192,109641,1,0,0:0:0:0:
192,192,109817,1,0,0:0:0:0:
64,192,109994,1,2,0:0:0:0:
320,192,109994,1,0,0:0:0:0:
64,192,110170,1,8,0:0:0:0:
192,192,110170,1,0,0:0:0:0:
448,192,110170,1,0,0:0:0:0:
320,192,110347,1,0,0:0:0:0:
192,192,110435,1,8,0:0:0:0:
64,192,110523,1,2,0:0:0:0:
320,192,110523,1,4,0:0:0:0:
448,192,110523,1,0,0:0:0:0:
192,192,110700,1,0,0:0:0:0:
64,192,110876,1,8,0:0:0:0:
320,192,110876,1,0,0:0:0:0:
448,192,110876,1,0,0:0:0:0:
192,192,111053,1,2,0:0:0:0:
320,192,111053,1,0,0:0:0:0:
64,192,111229,1,0,0:0:0:0:
320,192,111405,1,2,0:0:0:0:
448,192,111405,1,0,0:0:0:0:
64,192,111582,1,8,0:0:0:0:
192,192,111582,1,0,0:0:0:0:
448,192,111582,1,0,0:0:0:0:
320,192,111758,1,0,0:0:0:0:
64,192,111935,1,2,0:0:0:0:
192,192,111935,1,4,0:0:0:0:
448,192,111935,1,0,0:0:0:0:
192,192,112111,1,2,0:0:0:0:
320,192,112111,1,0,0:0:0:0:
64,192,112288,1,8,0:0:0:0:
320,192,112288,1,0,0:0:0:0:
448,192,112288,1,0,0:0:0:0:
64,192,112464,1,2,0:0:0:0:
192,192,112464,1,0,0:0:0:0:
320,192,112641,1,0,0:0:0:0:
192,192,112817,1,2,0:0:0:0:
448,192,112817,1,0,0:0:0:0:
64,192,112994,1,8,0:0:0:0:
320,192,112994,1,0,0:0:0:0:
448,192,112994,1,0,0:0:0:0:
64,192,113170,1,8,0:0:0:0:
192,192,113170,1,0,0:0:0:0:
320,192,113258,1,8,0:0:0:0:
64,192,113347,1,2,0:0:0:0:
192,192,113347,1,4,0:0:0:0:
448,192,113347,1,0,0:0:0:0:
320,192,113523,1,0,0:0:0:0:
64,192,113700,1,8,0:0:0:0:
192,192,113700,1,0,0:0:0:0:
448,192,113700,1,0,0:0:0:0:
320,192,113876,1,2,0:0:0:0:
448,192,113876,1,0,0:0:0:0:
192,192,114053,1,0,0:0:0:0:
64,192,114229,1,2,0:0:0:0:
320,192,114229,1,0,0:0:0:0:
64,192,114405,1,8,0:0:0:0:
192,192,114405,1,0,0:0:0:0:
448,192,114405,1,0,0:0:0:0:
320,192,114582,1,0,0:0:0:0:
192,192,114670,1,0,0:0:0:0:
64,192,114758,1,8,0:0:0:0:
320,192,114758,1,0,0:0:0:60:Hat open.wav
448,192,114758,1,0,0:0:0:0:
64,192,114935,1,2,0:0:0:0:
192,192,114935,1,0,0:0:0:0:
192,192,115111,1,8,0:0:0:0:
320,192,115111,1,0,0:0:0:60:Hat open.wav
448,192,115111,1,0,0:0:0:0:
64,192,115288,1,2,0:0:0:0:
448,192,115288,1,0,0:0:0:0:
64,192,115464,1,8,0:0:0:0:
192,192,115464,1,0,0:0:0:60:Hat open.wav
320,192,115464,1,0,0:0:0:0:
320,192,115641,1,2,0:0:0:0:
448,192,115641,1,0,0:0:0:0:
64,192,115817,1,8,0:0:0:0:
192,192,115817,1,0,0:0:0:60:Hat open.wav
448,192,115817,1,0,0:0:0:0:
320,192,115994,1,8,0:0:0:0:
448,192,115994,1,0,0:0:0:0:
192,192,116082,1,8,0:0:0:0:
64,192,116170,1,2,0:0:0:0:
448,192,116170,1,4,0:0:0:0:
320,192,116258,1,0,0:0:0:60:Tom1.wav
64,192,116347,1,0,0:0:0:60:Tom1.wav
192,192,116347,1,0,0:0:0:0:
320,192,116435,1,0,0:0:0:60:Tom1.wav
64,192,116523,1,2,0:0:0:0:
448,192,116523,1,0,0:0:0:60:Tom1.wav
192,192,116611,1,0,0:0:0:60:Tom1.wav
320,192,116700,1,0,0:0:0:60:Tom1.wav
448,192,116700,1,0,0:0:0:0:
64,192,116788,1,0,0:0:0:60:Tom1.wav
192,192,116876,1,2,0:0:0:0:
320,192,116876,1,0,0:0:0:60:Tom2.wav
448,192,116964,1,0,0:0:0:60:Tom2.wav
64,192,117053,1,0,0:0:0:60:Tom2.wav
192,192,117053,1,0,0:0:0:0:
320,192,117141,1,0,0:0:0:60:Tom2.wav
192,192,117229,1,2,0:0:0:0:
448,192,117229,1,0,0:0:0:60:Tom3.wav
64,192,117317,1,0,0:0:0:60:Tom3.wav
320,192,117405,1,0,0:0:0:60:Tom3.wav
448,192,117405,1,0,0:0:0:0:
192,192,117494,1,0,0:0:0:60:Tom3.wav
64,192,117582,1,8,0:0:0:0:
320,192,117582,1,0,0:0:0:0:
448,192,117582,1,0,0:0:0:0:
192,192,117758,128,0,117847:0:0:0:0:
192,192,117935,128,0,118111:0:0:0:0:
448,192,118111,128,0,118288:0:0:0:0:
64,192,118288,1,0,0:0:0:0:
320,192,118464,128,0,118641:0:0:0:0:
64,192,118641,1,2,0:0:0:0:
192,192,118641,128,8,118994:0:0:0:0:
448,192,118641,1,0,0:0:0:0:
64,192,118994,1,2,0:0:0:0:
320,192,118994,1,4,0:0:0:0:
448,192,118994,1,0,0:0:0:0:
192,192,119170,1,0,0:0:0:0:
64,192,119347,1,8,0:0:0:0:
320,192,119347,1,0,0:0:0:0:
448,192,119347,1,0,0:0:0:0:
192,192,119523,1,0,0:0:0:0:
320,192,119700,1,2,0:0:0:0:
448,192,119700,1,0,0:0:0:0:
64,192,119876,1,2,0:0:0:0:
192,192,119876,1,0,0:0:0:0:
64,192,120053,1,8,0:0:0:0:
320,192,120053,1,0,0:0:0:0:
448,192,120053,1,0,0:0:0:0:
192,192,120229,1,0,0:0:0:0:
64,192,120405,1,2,0:0:0:0:
448,192,120405,1,0,0:0:0:0:
192,192,120582,1,2,0:0:0:0:
320,192,120582,1,0,0:0:0:0:
64,192,120758,1,8,0:0:0:0:
192,192,120758,1,0,0:0:0:0:
448,192,120758,1,0,0:0:0:0:
320,192,120935,1,2,0:0:0:0:
448,192,120935,1,0,0:0:0:0:
192,192,121111,1,0,0:0:0:0:
64,192,121288,1,2,0:0:0:0:
320,192,121288,1,0,0:0:0:0:
64,192,121464,1,8,0:0:0:0:
192,192,121464,1,0,0:0:0:0:
448,192,121464,1,0,0:0:0:0:
320,192,121641,1,0,0:0:0:0:
64,192,121817,1,2,0:0:0:0:
448,192,121817,1,0,0:0:0:0:
192,192,121994,1,0,0:0:0:0:
64,192,122170,1,8,0:0:0:0:
320,192,122170,1,0,0:0:0:0:
448,192,122170,1,0,0:0:0:0:
192,192,122347,1,0,0:0:0:0:
320,192,122523,1,2,0:0:0:0:
448,192,122523,1,0,0:0:0:0:
64,192,122700,1,2,0:0:0:0:
192,192,122700,1,0,0:0:0:0:
64,192,122876,1,8,0:0:0:0:
320,192,122876,1,0,0:0:0:0:
448,192,122876,1,0,0:0:0:0:
192,192,123053,1,0,0:0:0:0:
64,192,123229,1,2,0:0:0:0:
448,192,123229,1,0,0:0:0:60:Hat open.wav
192,192,123405,1,2,0:0:0:0:
320,192,123405,1,0,0:0:0:0:
64,192,123582,1,8,0:0:0:0:
192,192,123582,1,0,0:0:0:60:Hat open.wav
448,192,123582,1,0,0:0:0:0:
320,192,123758,1,0,0:0:0:0:
64,192,123935,1,2,0:0:0:0:
192,192,123935,1,0,0:0:0:60:Hat open.wav
320,192,124111,1,2,0:0:0:0:
448,192,124111,1,0,0:0:0:0:
64,192,124288,1,8,0:0:0:0:
192,192,124288,1,0,0:0:0:60:Hat open.wav
448,192,124288,1,0,0:0:0:0:
320,192,124464,1,0,0:0:0:0:
192,192,124553,1,0,0:0:0:0:
64,192,124641,1,4,0:0:0:0:
320,192,124641,1,2,0:0:0:0:
448,192,124641,1,0,0:0:0:0:
192,192,124817,1,0,0:0:0:0:
64,192,124994,1,8,0:0:0:0:
320,192,124994,1,0,0:0:0:0:
448,192,124994,1,0,0:0:0:0:
192,192,125170,1,2,0:0:0:0:
320,192,125170,1,0,0:0:0:0:
448,192,125347,1,0,0:0:0:0:
64,192,125523,1,2,0:0:0:0:
192,192,125523,1,0,0:0:0:0:
64,192,125700,1,8,0:0:0:0:
320,192,125700,1,0,0:0:0:0:
448,192,125700,1,0,0:0:0:0:
192,192,125876,1,0,0:0:0:0:
64,192,126053,1,2,0:0:0:0:
448,192,126053,1,0,0:0:0:0:
192,192,126229,1,2,0:0:0:0:
320,192,126229,1,0,0:0:0:0:
64,192,126405,1,8,0:0:0:0:
192,192,126405,1,0,0:0:0:0:
448,192,126405,1,0,0:0:0:0:
320,192,126582,1,2,0:0:0:0:
448,192,126582,1,0,0:0:0:0:
192,192,126758,1,0,0:0:0:0:
64,192,126935,1,2,0:0:0:0:
320,192,126935,1,0,0:0:0:0:
64,192,127111,1,8,0:0:0:0:
192,192,127111,1,0,0:0:0:0:
448,192,127111,1,0,0:0:0:0:
320,192,127288,1,0,0:0:0:0:
64,192,127464,1,8,0:0:0:0:
192,192,127464,1,0,0:0:0:0:
448,192,127464,1,0,0:0:0:0:
64,192,127641,128,2,127729:0:0:0:0:
320,192,127641,128,0,127729:0:0:0:60:Crash short.wav
448,192,127641,128,0,127729:0:0:0:0:
320,192,127817,128,0,127905:0:0:0:0:
64,192,127994,128,2,128082:0:0:0:0:
192,192,127994,128,0,128082:0:0:0:60:Crash short.wav
448,192,127994,128,0,128082:0:0:0:0:
192,192,128170,128,0,128258:0:0:0:0:
64,192,128347,128,2,128435:0:0:0:0:
320,192,128347,128,0,128435:0:0:0:60:Crash short.wav
448,192,128347,128,0,128435:0:0:0:0:
64,192,128523,1,8,0:0:0:0:
192,192,128523,1,0,0:0:0:0:
448,192,128523,1,0,0:0:0:0:
192,192,128700,128,0,128788:0:0:0:0:
64,192,128876,1,8,0:0:0:0:
320,192,128876,1,0,0:0:0:0:
448,192,128876,1,0,0:0:0:0:
64,192,129053,128,2,129141:0:0:0:0:
192,192,129053,128,0,129141:0:0:0:60:Crash short.wav
448,192,129053,128,0,129141:0:0:0:0:
192,192,129229,128,0,129317:0:0:0:0:
64,192,129405,128,2,129494:0:0:0:0:
320,192,129405,128,0,129494:0:0:0:60:Crash short.wav
448,192,129405,128,0,129494:0:0:0:0:
448,192,129582,128,0,129670:0:0:0:0:
64,192,129758,128,2,129847:0:0:0:0:
192,192,129758,128,0,129847:0:0:0:60:Crash short.wav
320,192,129758,128,0,129847:0:0:0:0:
192,192,129935,1,8,0:0:0:0:
320,192,129935,1,0,0:0:0:0:
448,192,129935,1,0,0:0:0:0:
320,192,130111,128,0,130200:0:0:0:0:
64,192,130288,1,8,0:0:0:0:
192,192,130288,1,0,0:0:0:0:
448,192,130288,1,0,0:0:0:0:
64,192,130464,128,2,130553:0:0:0:0:
320,192,130464,128,0,130553:0:0:0:60:Crash short.wav
448,192,130464,128,0,130553:0:0:0:0:
320,192,130641,128,0,130729:0:0:0:0:
64,192,130817,128,2,130905:0:0:0:0:
192,192,130817,128,0,130905:0:0:0:60:Crash short.wav
448,192,130817,128,0,130905:0:0:0:0:
192,192,130994,128,0,131082:0:0:0:0:
64,192,131170,128,2,131258:0:0:0:0:
320,192,131170,128,0,131258:0:0:0:60:Crash short.wav
448,192,131170,128,0,131258:0:0:0:0:
64,192,131347,1,8,0:0:0:0:
192,192,131347,1,0,0:0:0:0:
448,192,131347,1,0,0:0:0:0:
192,192,131523,128,0,131611:0:0:0:0:
64,192,131700,1,8,0:0:0:0:
320,192,131700,1,0,0:0:0:0:
448,192,131700,1,0,0:0:0:0:
64,192,131876,128,2,131964:0:0:0:0:
192,192,131876,128,0,131964:0:0:0:60:Crash short.wav
448,192,131876,128,0,131964:0:0:0:0:
320,192,132053,1,0,0:0:0:60:Tom1.wav
448,192,132053,1,0,0:0:0:0:
64,192,132229,1,0,0:0:0:60:Tom1.wav
192,192,132229,1,0,0:0:0:0:
320,192,132405,1,0,0:0:0:60:Tom2.wav
448,192,132405,1,0,0:0:0:0:
64,192,132582,1,0,0:0:0:60:Tom2.wav
448,192,132582,1,0,0:0:0:0:
192,192,132758,1,0,0:0:0:60:Tom3.wav
320,192,132758,1,0,0:0:0:0:
64,192,132935,1,2,0:0:0:0:
320,192,132935,1,4,0:0:0:0:
448,192,132935,128,0,134347:0:0:0:0:
64,192,134347,1,8,0:0:0:0:
192,192,134405,1,8,0:0:0:0:
320,192,134464,1,2,0:0:0:0:
448,192,134464,1,0,0:0:0:0:
