osu file format v14

[General]
AudioFilename: audio.mp3
AudioLeadIn: 0
PreviewTime: 99068
Countdown: 0
SampleSet: Soft
StackLeniency: 0.5
Mode: 0
LetterboxInBreaks: 0
WidescreenStoryboard: 1

[Editor]
DistanceSpacing: 0.8
BeatDivisor: 4
GridSize: 8
TimelineZoom: 1.400006

[Metadata]
Title:Lost Time Memory (TV Size)
TitleUnicode:ロスタイムメモリー (TV Size)
Artist:JIN ft. Matsuyama Kouta (BYEE the ROUND)
ArtistUnicode:じん ft. 松山晃太(BYEE the ROUND)
Creator:Nevo
Version:Shunao's Normal
Source:メカクシティアクターズ
Tags:vocaloid ia Mekakucity Actors project カゲロウプロジェク 中西亮輔 Ryosuke Nakanishi cover ia/vt colorful 自然の敵P Shizen no Teki P Teki-P TekiP じん Blindfold mekakucity actors daze カゲロウプロジェクト Shunao armin a_r_m_i_n Lasse shogunmoon Nao Tomori naotoshi Kalibe project
BeatmapID:1650078
BeatmapSetID:768638

[Difficulty]
HPDrainRate:4
CircleSize:3
OverallDifficulty:4
ApproachRate:5
SliderMultiplier:1
SliderTickRate:1

[Events]
//Background and Video events
0,0,"687474703a2f2f7075752e73682f38743443662e6a7067.jpg",0,0
Video,0,"losttime.avi"
//Break Periods
//Storyboard Layer 0 (Background)
//Storyboard Layer 1 (Fail)
//Storyboard Layer 2 (Pass)
//Storyboard Layer 3 (Foreground)
//Storyboard Sound Samples

[TimingPoints]
1331,300,4,2,1,40,1,0
36431,-100,4,2,1,50,0,0
37351,297.029702970297,4,2,1,60,1,0
40766,-100,4,2,1,5,0,0
40915,-100,4,2,1,60,0,0
41138,-100,4,2,1,5,0,0
41212,-100,4,2,1,60,0,0
42103,-100,4,2,1,70,0,0
61113,-100,4,2,1,62,0,0
70172,-100,4,2,1,58,0,0
70618,-100,4,2,1,64,0,0
79974,-100,4,2,1,62,0,0
89479,-100,4,2,1,66,0,0
97796,-100,4,2,1,70,0,0
97870,-100,4,2,1,30,0,0
98539,-100,4,2,1,20,0,0
98687,-100,4,2,1,60,0,0
99058,-100,4,2,1,5,0,0
99133,-100,4,2,1,80,0,1
108044,-100,4,2,1,70,0,1
108341,-100,4,2,1,75,0,1
108638,-100,4,2,1,80,0,1
117549,-100,4,2,1,70,0,1
117846,-100,4,2,1,75,0,1
118143,-100,4,2,1,80,0,1
122747,-100,4,2,1,70,0,0
132251,-100,4,2,1,60,0,0
132697,-100,4,2,1,74,0,0
140643,-100,4,2,1,40,0,0
143984,-100,4,2,1,30,0,0

[Colours]
Combo1 : 253,186,47
Combo2 : 255,0,0
Combo3 : 103,103,103
Combo4 : 0,118,174
Combo5 : 192,192,192

[HitObjects]
147,182,1331,6,0,B|250:143|239:240|349:197,1,200,2|2,0:2|2:2,0:2:0:0:
430,163,2231,1,2,0:2:0:0:
503,230,2531,2,0,P|496:273|491:340,1,100,2|2,0:2|0:2,0:2:0:0:
396,362,3131,1,2,0:2:0:0:
396,362,3281,2,0,P|344:354|279:363,1,100,2|0,0:2|0:2,0:2:0:0:
254,331,3731,6,0,P|154:344|41:329,1,200,2|2,0:2|0:2,0:2:0:0:
10,243,4631,1,2,0:2:0:0:
74,166,4931,1,2,0:2:0:0:
74,166,5081,2,0,P|64:114|60:51,1,100,2|2,0:2|0:2,0:2:0:0:
152,29,5681,2,0,P|194:20|253:52,1,100,2|0,0:2|0:2,0:2:0:0:
285,71,6131,6,0,B|252:109|252:109|270:271,1,200,2|2,0:2|0:2,0:2:0:0:
359,299,7031,1,2,0:2:0:0:
454,267,7331,1,2,0:2:0:0:
454,267,7481,2,0,L|468:150,1,100,2|2,0:2|0:2,0:2:0:0:
447,68,8081,2,0,P|395:73|344:46,1,100,2|0,0:2|0:2,0:2:0:0:
310,25,8531,6,0,P|320:125|326:237,1,200,2|2,0:2|0:2,0:2:0:0:
280,314,9431,1,0,0:2:0:0:
280,314,9581,2,0,P|235:299|175:312,1,100,2|2,0:2|0:2,0:2:0:0:
138,329,10031,2,0,L|129:212,1,100,2|2,0:2|0:2,0:2:0:0:
45,176,10631,1,0,0:2:0:0:
75,80,10931,6,0,P|154:21|250:47,1,200,2|2,0:2|0:2,0:2:0:0:
336,86,11831,1,2,0:2:0:0:
422,135,12131,2,0,P|416:187|412:253,1,100,2|2,0:2|0:2,0:2:0:0:
375,327,12731,1,2,0:2:0:0:
375,327,12881,2,0,P|326:313|262:321,1,100,2|0,0:2|0:2,0:2:0:0:
228,324,13331,6,0,L|215:111,1,200,2|2,0:2|0:2,0:2:0:0:
142,56,14231,1,2,0:2:0:0:
62,116,14531,1,2,0:2:0:0:
62,116,14681,2,0,L|55:236,1,100,2|2,0:2|0:2,0:2:0:0:
65,315,15281,2,0,P|112:308|161:339,1,100,2|2,0:2|0:2,0:2:0:0:
197,361,15731,6,0,L|414:348,1,200,2|2,0:2|0:2,0:2:0:0:
466,276,16631,1,2,0:2:0:0:
491,179,16931,1,2,0:2:0:0:
491,179,17081,2,0,P|493:133|479:77,1,100,0|2,0:2|0:2,0:2:0:0:
384,50,17681,2,0,P|336:54|282:28,1,100,2|2,0:2|0:2,0:2:0:0:
247,6,18131,6,0,P|253:56|257:116,1,100,2|0,0:2|0:2,0:2:0:0:
344,153,18731,2,0,P|338:203|334:263,1,100,2|0,0:2|0:2,0:2:0:0:
264,324,19331,2,0,P|218:311|160:330,1,100,2|0,0:2|0:2,0:2:0:0:
68,316,19931,2,0,P|74:266|78:206,1,100,2|0,0:2|0:2,0:2:0:0:
51,173,20381,1,2,0:2:0:0:
51,173,20531,6,0,P|45:123|41:63,1,100,2|2,0:2|0:2,0:2:0:0:
130,27,21131,2,0,P|183:22|230:52,1,100,2|2,0:2|0:2,0:2:0:0:
257,80,21581,2,0,L|246:233,1,150,2|2,0:2|0:2,0:2:0:0:
275,325,22331,2,0,P|323:310|390:307,1,100,2|0,0:2|0:2,0:2:0:0:
422,307,22781,1,0,0:2:0:0:
422,307,22931,6,0,L|432:192,1,100,2|2,0:2|0:2,0:2:0:0:
500,135,23531,2,0,L|490:20,1,100,2|2,0:2|0:2,0:2:0:0:
449,8,23981,1,2,0:2:0:0:
363,60,24281,2,0,P|297:86|214:64,1,150,2|2,0:2|0:2,0:2:0:0:
127,34,25031,1,2,0:2:0:0:
39,82,25331,6,0,L|47:194,1,100,2|0,0:2|0:2,0:2:0:0:
81,275,25931,2,0,P|130:285|191:262,1,100,2|2,0:2|0:2,0:2:0:0:
215,239,26381,1,2,0:2:0:0:
305,196,26681,1,2,0:2:0:0:
392,244,26981,1,2,0:2:0:0:
392,244,27131,2,0,P|406:291|390:344,1,100,2|0,0:2|0:2,0:2:0:0:
356,372,27581,6,0,L|246:361,1,100,2|2,0:2|0:2,0:2:0:0:
207,371,28031,1,2,0:2:0:0:
115,331,28331,2,0,P|105:285|126:229,1,100,2|2,0:2|0:2,0:2:0:0:
160,205,28781,1,2,0:2:0:0:
251,164,29081,2,0,L|245:52,1,100,2|0,0:2|0:2,0:2:0:0:
204,35,29531,1,2,0:2:0:0:
113,77,29831,1,2,0:2:0:0:
113,77,29981,6,0,P|65:91|13:74,1,100,2|2,0:2|0:2,0:2:0:0:
23,227,30731,2,0,L|32:340,1,100,2|2,0:2|0:2,0:2:0:0:
68,360,31181,2,0,P|114:345|170:354,1,100,2|2,0:2|0:2,0:2:0:0:
208,375,31631,2,0,L|314:367,1,100,2|2,0:2|0:2,0:2:0:0:
357,361,32081,1,2,0:2:0:0:
440,306,32381,6,0,P|444:258|454:200,1,100,2|2,0:2|0:2,0:2:0:0:
474,161,32831,1,2,0:2:0:0:
425,73,33131,1,2,0:2:0:0:
425,73,33281,2,0,P|377:56|324:67,1,100,0|2,0:2|0:2,0:2:0:0:
259,135,33881,2,0,L|103:121,1,150,2|2,0:2|0:2,0:2:0:0:
33,186,34631,1,2,0:2:0:0:
86,270,34931,6,0,L|186:261,1,100,2|0,0:2|0:2,0:2:0:0:
278,224,35531,1,2,0:2:0:0:
354,159,35831,1,2,0:2:0:0:
354,159,35981,2,0,P|383:88|454:61,1,150,2|2,0:2|0:2,0:2:0:0:
451,159,36731,2,0,L|439:281,1,100,2|2,0:2|0:2,0:2:0:0:
256,192,37351,12,2,39727,0:2:0:0:
78,77,40915,6,0,B|183:43|160:146|285:97,1,200,2|8,0:2|0:3,0:0:0:0:
358,63,41806,1,12,0:2:0:0:
432,129,42103,6,0,L|490:123,2,50,4|0|10,3:1|0:0|0:2,0:0:0:0:
402,169,42549,1,0,3:2:0:0:
402,169,42697,2,0,P|387:211|386:278,1,100,2|10,3:2|2:2,0:0:0:0:
308,331,43291,2,0,P|257:323|202:349,1,100,2|10,3:2|0:2,0:0:0:0:
114,358,43885,2,0,L|106:242,1,100,2|10,3:2|0:2,0:0:0:0:
50,192,44479,6,0,P|21:186|-9:189,2,50,2|0|10,3:2|0:0|0:2,0:0:0:0:
92,165,44925,1,0,3:2:0:0:
92,165,45073,2,0,B|102:53,1,100,2|10,3:2|0:2,0:0:0:0:
195,34,45667,2,0,P|243:20|296:38,1,100,2|8,3:2|0:2,0:0:0:0:
330,62,46113,2,0,L|449:55,1,100,6|2,3:2|3:2,0:0:0:0:
469,85,46558,1,10,0:2:0:0:
452,183,46855,6,0,P|456:212|458:242,2,50,6|0|10,3:2|0:2|0:2,0:0:0:0:
405,165,47301,1,0,3:2:0:0:
405,165,47449,2,0,P|356:158|301:188,1,100,2|10,3:2|0:2,0:0:0:0:
214,203,48043,2,0,L|206:322,1,100,2|10,3:2|0:2,0:0:0:0:
203,352,48489,2,0,P|251:340|312:355,1,100,0|0,3:2|3:2,0:0:0:0:
346,367,48935,1,10,0:2:0:0:
441,337,49232,6,0,L|433:230,1,100,2|10,3:2|0:2,0:0:0:0:
412,192,49677,1,0,3:2:0:0:
412,192,49826,2,0,P|465:200|521:175,1,100,2|10,3:2|0:2,0:0:0:0:
508,84,50420,2,0,L|503:33,1,50,2|0,3:2|3:2,0:0:0:0:
456,15,50717,1,14,0:2:0:0:
456,15,50865,2,0,P|405:31|351:16,1,100,0|8,3:2|0:2,0:0:0:0:
311,11,51311,2,0,L|303:69,1,50,8|8,0:2|0:2,0:0:0:0:
261,87,51608,6,0,L|152:77,1,100,4|10,0:1|0:2,0:0:0:0:
116,74,52053,1,0,3:2:0:0:
116,74,52202,2,0,P|99:121|119:179,1,100,2|10,3:2|0:2,0:0:0:0:
189,230,52796,2,0,L|309:219,1,100,2|10,3:2|2:2,0:0:0:0:
337,230,53242,2,0,P|351:272|337:333,1,100,0|0,3:2|3:2,0:0:0:0:
306,361,53687,1,10,0:2:0:0:
206,362,53984,6,0,L|102:353,1,100,2|10,3:2|0:2,0:0:0:0:
69,329,54430,1,0,3:2:0:0:
69,329,54578,2,0,P|65:279|54:219,1,100,2|10,3:2|0:2,0:0:0:0:
55,179,55024,2,0,P|127:204|202:159,1,150,0|10,3:2|0:2,0:0:0:0:
235,151,55618,2,0,L|355:158,1,100,6|2,3:2|3:2,0:0:0:0:
378,181,56063,1,10,0:2:0:0:
426,93,56360,6,0,L|486:88,2,50,14|0|10,0:2|0:2|0:2,0:0:0:0:
394,53,56806,1,0,3:2:0:0:
394,53,56954,2,0,L|285:46,1,100,2|10,3:2|3:2,0:0:0:0:
198,74,57548,2,0,L|85:66,1,100,2|8,3:2|0:2,0:0:0:0:
52,87,57994,1,0,3:2:0:0:
52,87,58142,2,0,P|34:130|55:184,1,100,2|8,3:2|0:3,0:0:0:0:
95,200,58588,1,0,0:0:0:0:
95,200,58737,6,0,B|100:253|100:253|81:297|81:297|87:353,2,150,14|10|14,0:2|0:2|0:2,0:0:0:0:
183,153,59925,1,2,3:2:0:0:
183,153,60073,2,0,P|251:147|314:207,1,150,12|8,2:2|0:3,0:0:0:0:
352,288,60816,1,10,0:2:0:0:
444,249,61113,6,0,L|453:128,1,100,4|10,3:2|0:2,0:0:0:0:
370,90,61707,2,0,P|327:70|266:81,1,100,2|10,3:2|0:2,0:0:0:0:
234,103,62152,1,2,0:2:0:0:
234,103,62301,2,0,L|225:213,1,100,2|10,3:2|0:2,0:0:0:0:
172,287,62895,1,2,3:2:0:0:
172,287,63044,2,0,P|123:268|63:276,1,100,2|0,3:2|0:0,0:0:0:0:
26,269,63489,6,0,L|16:153,1,100,2|10,3:2|0:2,0:0:0:0:
39,71,64083,2,0,P|85:85|142:70,1,100,2|10,3:2|0:2,0:0:0:0:
175,44,64529,2,0,L|233:50,1,50,2|2,0:2|3:2,0:0:0:0:
270,27,64826,1,8,0:2:0:0:
352,80,65123,1,10,0:3:0:0:
409,161,65420,2,0,P|420:212|407:265,1,100,6|8,0:3|0:2,0:0:0:0:
397,306,65865,6,0,L|293:297,1,100,6|10,3:2|0:2,0:0:0:0:
218,359,66459,2,0,L|113:368,1,100,2|10,3:2|0:2,0:0:0:0:
68,371,66904,1,0,0:2:0:0:
68,371,67053,2,0,P|57:323|82:271,1,100,2|10,3:2|0:2,0:0:0:0:
110,241,67499,2,0,L|215:231,1,100,2|0,3:2|3:2,0:0:0:0:
248,199,67945,1,10,0:2:0:0:
248,199,68093,6,0,P|262:149|238:93,1,100,0|0,0:0|3:2,0:0:0:0:
225,59,68539,2,0,L|115:49,1,100,10|2,0:2|3:2,0:0:0:0:
34,90,69133,1,10,0:2:0:0:
52,187,69430,2,0,L|-10:193,2,50,10|2|2,0:2|3:2|0:0,0:0:0:0:
85,224,69875,1,6,3:2:0:0:
177,262,70172,1,8,0:3:0:0:
274,241,70469,1,0,0:2:0:0:
274,241,70618,6,0,P|281:290|285:358,1,100,6|10,3:2|0:2,0:0:0:0:
381,366,71212,2,0,P|384:316|391:266,1,100,2|10,3:2|0:2,0:0:0:0:
428,233,71657,1,0,3:2:0:0:
428,233,71806,2,0,P|424:183|417:133,1,100,2|10,3:2|0:2,0:0:0:0:
335,76,72400,1,2,3:2:0:0:
335,76,72549,2,0,P|284:88|228:74,1,100,2|8,3:2|0:3,0:0:0:0:
189,66,72994,6,0,L|181:174,1,100,2|10,3:2|0:2,0:0:0:0:
99,222,73588,2,0,L|107:331,1,100,2|10,3:2|0:2,0:0:0:0:
131,365,74034,2,0,L|190:371,1,50,0|2,3:2|3:2,0:0:0:0:
231,370,74331,1,8,0:2:0:0:
330,362,74628,1,10,0:3:0:0:
403,294,74925,2,0,L|411:187,1,100,6|8,0:3|0:2,0:0:0:0:
407,145,75370,6,0,P|456:158|517:143,1,100,6|10,3:2|0:2,0:0:0:0:
504,49,75964,2,0,P|455:40|407:53,1,100,2|10,3:2|0:2,0:0:0:0:
359,67,76409,1,0,0:2:0:0:
359,67,76558,2,0,L|250:56,1,100,2|10,3:2|0:2,0:0:0:0:
218,28,77004,2,0,L|105:38,1,100,0|0,0:2|3:2,0:0:0:0:
70,20,77450,1,8,0:2:0:0:
24,109,77747,6,0,P|30:141|33:172,1,50,2|0,3:2|0:0,0:0:0:0:
59,201,78044,2,0,P|109:187|173:211,1,100,8|2,0:2|3:2,0:0:0:0:
236,255,78638,2,0,L|305:250,1,50,12|2,0:2|3:2,0:0:0:0:
335,259,78935,2,0,L|340:319,1,50,6|0,3:2|3:2,0:0:0:0:
325,357,79232,1,10,0:2:0:0:
225,368,79529,2,0,L|116:359,1,100,2|8,3:2|0:2,0:0:0:0:
85,329,79974,6,0,P|69:282|82:234,1,100,6|2,3:2|3:2,0:0:0:0:
107,193,80420,1,10,0:2:0:0:
107,193,80568,2,0,P|123:143|105:92,1,100,0|0,0:2|0:2,0:0:0:0:
79,58,81014,1,10,0:2:0:0:
79,58,81162,2,0,B|130:51|130:51|177:63|177:63|242:55,1,150,2|10,3:2|0:2,0:0:0:0:
323,32,81905,2,0,L|390:37,1,50,2|0,0:2|3:2,0:0:0:0:
441,109,82351,6,0,P|454:153|438:218,1,100,2|2,3:3|3:2,0:0:0:0:
403,233,82796,1,10,0:2:0:0:
305,221,83093,2,0,L|196:210,1,100,2|8,0:2|0:2,0:0:0:0:
178,168,83539,2,0,P|186:119|160:63,1,100,2|2,3:2|3:2,0:0:0:0:
136,35,83984,1,10,0:2:0:0:
36,35,84281,1,2,0:2:0:0:
36,35,84430,2,0,L|40:88,1,50,0|8,3:2|0:2,0:0:0:0:
64,128,84727,6,0,L|56:236,1,100,2|2,0:3|3:2,0:0:0:0:
64,276,85172,1,10,0:2:0:0:
64,276,85321,2,0,P|109:263|169:293,1,100,0|2,0:2|3:2,0:0:0:0:
193,314,85766,1,10,0:2:0:0:
193,314,85915,2,0,L|300:305,1,100,0|2,3:2|3:2,0:0:0:0:
380,354,86509,2,0,L|489:345,1,100,2|2,0:2|3:2,0:0:0:0:
498,299,86954,1,8,0:2:0:0:
498,299,87103,6,0,P|506:253|489:196,1,100,2|0,3:3|3:2,0:0:0:0:
463,161,87549,1,10,0:2:0:0:
363,164,87846,2,0,P|312:175|262:163,1,100,2|8,0:2|0:2,0:0:0:0:
219,147,88291,1,6,3:2:0:0:
142,211,88588,2,0,L|147:278,1,50,2|10,3:2|0:2,0:0:0:0:
113,355,89034,2,0,L|59:350,1,50,8|8,0:2|0:3,0:0:0:0:
29,323,89331,1,12,0:3:0:0:
29,323,89479,6,0,L|38:214,1,100,6|0,0:2|3:2,0:0:0:0:
75,130,90073,2,0,L|66:24,1,100,2|2,3:2|3:2,0:0:0:0:
166,36,90667,2,0,P|215:48|271:33,1,100,2|2,3:2|3:2,0:0:0:0:
308,18,91113,2,0,L|298:132,1,100,10|2,0:2|3:2,0:0:0:0:
272,159,91558,1,2,3:2:0:0:
338,233,91855,6,0,P|390:243|451:222,1,100,2|2,0:2|3:2,0:0:0:0:
469,194,92301,2,0,L|478:89,1,100,10|2,0:2|3:2,0:0:0:0:
499,49,92747,1,0,3:2:0:0:
400,33,93044,2,0,P|355:26|295:28,1,100,2|2,3:2|3:2,0:0:0:0:
254,45,93489,1,10,0:2:0:0:
230,143,93786,2,0,L|221:259,1,100,2|10,3:2|0:2,0:0:0:0:
207,290,94232,6,0,P|161:310|96:294,1,100,6|2,3:2|3:2,0:0:0:0:
67,282,94677,2,0,L|57:172,1,100,10|2,0:2|3:2,0:0:0:0:
56,82,95271,1,10,0:2:0:0:
56,82,95420,2,0,P|101:57|163:63,1,100,2|2,3:2|3:2,0:0:0:0:
189,86,95865,2,0,L|303:73,1,100,10|2,0:2|3:2,0:0:0:0:
375,26,96459,1,10,0:2:0:0:
375,26,96608,6,0,P|386:70|373:127,1,100,6|2,0:2|3:2,0:0:0:0:
346,163,97053,2,0,L|355:263,1,100,10|8,0:2|0:3,0:0:0:0:
399,286,97499,2,0,L|394:343,1,50,4|8,0:3|0:3,0:0:0:0:
347,352,97796,2,0,B|222:301|229:419|105:361,1,250,4|0,0:2|0:2,0:0:0:0:
22,311,98836,1,12,0:3:0:0:
27,211,99133,6,0,P|31:160|52:94,1,100,4|10,3:1|0:2,0:0:0:0:
129,61,99727,2,0,P|181:75|238:56,1,100,2|8,3:2|0:2,0:0:0:0:
270,43,100172,2,0,P|322:33|376:50,1,100,2|2,3:2|3:2,0:0:0:0:
412,66,100618,1,8,0:2:0:0:
412,66,100766,2,0,L|404:188,1,100,2|0,0:2|3:2,0:0:0:0:
401,265,101360,1,2,0:2:0:0:
401,265,101509,6,0,P|447:248|495:258,1,100,2|10,3:2|0:2,0:0:0:0:
499,359,102103,2,0,P|452:375|404:365,1,100,2|8,3:2|0:2,0:0:0:0:
357,346,102549,2,0,L|240:355,1,100,2|2,3:2|3:2,0:0:0:0:
158,368,103143,1,2,3:2:0:0:
65,331,103440,1,2,3:2:0:0:
87,233,103737,1,2,3:2:0:0:
87,233,103885,6,0,P|126:204|190:201,1,100,6|10,3:2|0:2,0:0:0:0:
275,192,104479,2,0,L|284:88,1,100,2|8,3:2|0:2,0:0:0:0:
256,50,104925,2,0,P|208:63|152:45,1,100,2|2,3:2|3:2,0:0:0:0:
117,25,105370,1,8,0:2:0:0:
117,25,105519,2,0,L|125:127,1,100,2|2,0:2|3:2,0:0:0:0:
100,168,105964,2,0,L|41:162,1,50,8|8,0:2|0:3,0:0:0:0:
17,200,106261,6,0,B|-1:244|-1:244|16:359,2,150,14|14|14,3:2|3:2|3:2,0:0:0:0:
148,272,107598,2,0,L|309:262,1,150,14|8,3:2|0:2,0:0:0:0:
379,321,108341,2,0,L|448:316,1,50,8|8,0:3|0:3,0:0:0:0:
468,286,108638,6,0,P|478:234|452:177,1,100,4|10,3:1|0:2,0:0:0:0:
421,99,109232,2,0,L|309:89,1,100,2|10,3:2|0:2,0:0:0:0:
287,53,109677,2,0,L|171:63,1,100,2|2,3:2|3:2,0:0:0:0:
139,46,110123,1,8,0:2:0:0:
139,46,110271,2,0,P|150:93|134:149,1,100,2|2,3:2|3:2,0:0:0:0:
52,194,110865,1,8,3:2:0:0:
52,194,111014,6,0,P|39:242|50:290,1,100,2|10,3:2|2:2,0:0:0:0:
126,355,111608,2,0,P|172:348|236:346,1,100,2|10,3:2|0:2,0:0:0:0:
268,320,112053,2,0,P|314:327|378:329,1,100,2|2,3:2|3:2,0:0:0:0:
450,272,112648,1,2,3:2:0:0:
479,176,112945,1,2,3:2:0:0:
419,95,113242,1,2,3:2:0:0:
419,95,113390,6,0,P|369:96|319:104,1,100,6|10,3:2|0:2,0:0:0:0:
241,41,113984,2,0,P|191:39|141:31,1,100,2|8,3:2|0:2,0:0:0:0:
91,34,114430,2,0,P|75:84|91:137,1,100,2|2,3:2|3:2,0:0:0:0:
126,157,114875,1,8,0:2:0:0:
126,157,115024,2,0,L|118:268,1,100,2|2,3:2|3:2,0:0:0:0:
82,290,115469,2,0,L|87:352,1,50,10|8,0:2|0:3,0:0:0:0:
123,373,115766,6,0,P|194:347|279:371,2,150,14|14|14,3:2|3:2|3:2,0:0:0:0:
211,251,117103,2,0,P|228:181|234:94,1,150,14|8,3:2|0:3,0:0:0:0:
302,30,117846,1,8,0:0:0:0:
373,100,118143,6,0,P|427:107|487:84,1,100,4|10,3:1|0:2,0:0:0:0:
493,191,118737,2,0,L|484:293,1,100,2|8,3:2|0:2,0:0:0:0:
457,332,119182,2,0,P|411:317|346:336,1,100,2|2,3:2|3:2,0:0:0:0:
262,341,119776,2,0,L|259:291,1,50,10|0,0:2|3:2,0:0:0:0:
221,268,120073,1,8,0:3:0:0:
221,268,120222,2,0,L|225:202,1,50,8|8,0:3|0:3,0:0:0:0:
215,168,120519,6,0,B|162:160|162:160|114:174|114:174|51:162,2,150,14|14|14,3:2|3:2|3:2,0:0:0:0:
364,168,121855,2,0,P|356:100|352:12,1,150,10|10,0:2|0:2,0:0:0:0:
253,38,122598,1,8,0:2:0:0:
253,38,122747,6,0,P|188:63|112:38,1,150,4|10,3:1|0:2,0:0:0:0:
46,112,123489,2,0,L|-14:107,2,50,2|0|8,3:2|3:2|0:2,0:0:0:0:
76,152,123935,2,0,P|82:200|85:274,1,100,2|2,3:2|3:2,0:0:0:0:
91,300,124380,1,10,0:2:0:0:
181,342,124677,2,0,L|243:336,1,50,0|2,3:2|3:2,0:0:0:0:
292,258,125123,6,0,P|284:210|298:158,1,100,6|2,3:2|3:2,0:0:0:0:
328,122,125568,1,10,0:2:0:0:
418,79,125865,2,0,P|413:42|405:13,2,50,2|0|10,3:2|0:2|0:2,0:0:0:0:
454,113,126311,2,0,P|445:161|441:230,1,100,2|2,3:2|3:2,0:0:0:0:
463,256,126756,1,10,0:2:0:0:
415,344,127053,2,0,P|366:329|318:347,1,100,2|8,3:2|0:2,0:0:0:0:
273,330,127499,6,0,P|223:344|171:327,1,100,6|2,3:2|3:2,0:0:0:0:
132,310,127945,1,10,0:2:0:0:
70,231,128242,2,0,L|8:224,1,50,2|0,3:2|3:2,0:0:0:0:
43,128,128687,2,0,L|157:120,1,100,6|2,3:2|3:2,0:0:0:0:
176,83,129133,2,0,L|297:91,1,100,10|2,0:2|3:2,0:0:0:0:
313,122,129578,1,8,0:2:0:0:
313,122,129727,2,0,L|383:116,1,50,8|0,0:2|3:2,0:0:0:0:
409,134,130024,6,0,B|437:213|385:206|410:285,2,150,12|12|12,3:2|3:2|3:2,0:0:0:0:
303,28,131360,2,0,P|237:62|221:146,1,150,14|8,3:2|0:2,0:0:0:0:
217,181,131954,1,8,0:2:0:0:
275,262,132251,1,12,0:2:0:0:
164,363,132697,6,0,P|120:351|51:349,1,100,4|2,3:1|3:2,0:0:0:0:
15,352,133143,1,0,3:2:0:0:
10,252,133440,2,0,L|17:142,1,100,6|2,3:2|3:2,0:0:0:0:
50,115,133885,2,0,P|95:130|153:115,1,100,10|2,0:2|3:2,0:0:0:0:
188,93,134331,1,2,3:2:0:0:
266,154,134628,6,0,L|274:265,1,100,6|2,3:2|3:2,0:0:0:0:
305,291,135073,2,0,P|356:307|411:291,1,100,10|2,0:2|3:2,0:0:0:0:
441,268,135519,1,0,3:2:0:0:
484,178,135816,2,0,P|490:124|501:60,1,100,6|2,3:2|3:2,0:0:0:0:
475,34,136261,1,10,0:2:0:0:
376,18,136558,1,2,3:2:0:0:
318,100,136855,1,8,0:2:0:0:
337,198,137152,6,0,P|340:251|334:317,1,100,6|10,3:2|0:2,0:0:0:0:
257,358,137747,2,0,L|204:354,1,50,2|0,3:2|3:2,0:0:0:0:
143,276,138192,2,0,L|37:286,1,100,6|0,3:2|3:2,0:0:0:0:
10,247,138638,2,0,P|1:188|22:134,1,100,8|8,0:2|0:2,0:0:0:0:
66,66,139232,1,8,0:3:0:0:
140,132,139529,6,0,L|254:122,1,100,6|8,3:2|0:2,0:0:0:0:
278,91,139974,2,0,L|386:103,1,100,6|8,3:2|0:2,0:0:0:0:
424,84,140420,1,8,3:3:0:0:
424,84,140568,1,4,3:1:0:0:
256,192,140643,12,2,143984,0:2:0:0:
