osu file format v14

[General]
AudioFilename: audio.mp3
AudioLeadIn: 0
PreviewTime: 99068
Countdown: 0
SampleSet: Soft
StackLeniency: 0.5
Mode: 0
LetterboxInBreaks: 0
WidescreenStoryboard: 1

[Editor]
Bookmarks: 61123
DistanceSpacing: 0.8
BeatDivisor: 4
GridSize: 4
TimelineZoom: 1.700006

[Metadata]
Title:Lost Time Memory (TV Size)
TitleUnicode:ロスタイムメモリー (TV Size)
Artist:JIN ft. Matsuyama Kouta (BYEE the ROUND)
ArtistUnicode:じん ft. 松山晃太(BYEE the ROUND)
Creator:Nevo
Version:Kagerou
Source:メカクシティアクターズ
Tags:vocaloid ia Mekakucity Actors project カゲロウプロジェク 中西亮輔 Ryosuke Nakanishi cover ia/vt colorful 自然の敵P Shizen no Teki P Teki-P TekiP じん Blindfold mekakucity actors daze カゲロウプロジェクト Shunao armin a_r_m_i_n Lasse shogunmoon Nao Tomori naotoshi Kalibe project
BeatmapID:1616500
BeatmapSetID:768638

[Difficulty]
HPDrainRate:6
CircleSize:4
OverallDifficulty:9
ApproachRate:9.3
SliderMultiplier:1.8
SliderTickRate:1

[Events]
//Background and Video events
0,0,"687474703a2f2f7075752e73682f38743443662e6a7067.jpg",0,0
Video,0,"losttime.avi"
//Break Periods
//Storyboard Layer 0 (Background)
//Storyboard Layer 1 (Fail)
//Storyboard Layer 2 (Pass)
//Storyboard Layer 3 (Foreground)
//Storyboard Sound Samples

[TimingPoints]
1331,300,4,2,1,40,1,0
1331,-133.333333333333,4,2,1,40,0,0
36431,-100,4,2,1,50,0,0
37351,297.029702970297,4,2,1,60,1,0
40766,-100,4,2,1,5,0,0
40915,-100,4,2,1,60,0,0
41138,-100,4,2,1,5,0,0
41212,-100,4,2,1,60,0,0
42103,-90.9090909090909,4,2,1,70,0,0
61113,-100,4,2,1,62,0,0
70172,-100,4,2,1,58,0,0
70618,-100,4,2,1,64,0,0
79974,-100,4,2,1,62,0,0
89479,-100,4,2,1,66,0,0
97796,-142.857142857143,4,2,1,70,0,0
97870,-142.857142857143,4,2,1,5,0,0
98539,-142.857142857143,4,2,1,20,0,0
98687,-142.857142857143,4,2,1,60,0,0
98836,-166.666666666667,4,2,1,60,0,0
99058,-166.666666666667,4,2,1,5,0,0
99133,-83.3333333333333,4,2,1,80,0,1
105519,-86.9565217391304,4,2,1,80,0,1
105667,-83.3333333333333,4,2,1,80,0,1
108044,-83.3333333333333,4,2,1,70,0,1
108341,-83.3333333333333,4,2,1,75,0,1
108638,-83.3333333333333,4,2,1,80,0,1
117549,-83.3333333333333,4,2,1,70,0,1
117846,-83.3333333333333,4,2,1,75,0,1
118143,-83.3333333333333,4,2,1,80,0,1
122747,-90.9090909090909,4,2,1,70,0,0
132251,-90.9090909090909,4,2,1,60,0,0
132697,-90.9090909090909,4,2,1,74,0,0
140643,-90.9090909090909,4,2,1,40,0,0
143984,-90.9090909090909,4,2,1,30,0,0

[Colours]
Combo1 : 253,186,47
Combo2 : 255,0,0
Combo3 : 103,103,103
Combo4 : 0,118,174
Combo5 : 192,192,192

[HitObjects]
421,219,1331,6,0,L|412:309,1,67.5000025749208,2|0,0:2|0:2,0:2:0:0:
333,172,1631,2,0,L|342:262,1,67.5000025749208,2|0,0:2|0:2,0:2:0:0:
486,173,1931,2,0,P|454:147|407:143,1,67.5000025749208,2|0,2:2|0:2,0:2:0:0:
325,91,2231,1,2,0:2:0:0:
401,61,2381,1,2,0:2:0:0:
333,172,2531,6,0,L|242:162,1,67.5000025749208,2|0,0:2|0:2,0:2:0:0:
175,94,2831,2,0,L|243:87,1,67.5000025749208,2|0,0:2|0:2,0:2:0:0:
176,176,3131,1,2,0:2:0:0:
176,176,3281,2,0,P|102:123|104:62,1,135.000005149842,2|0,0:2|0:2,0:2:0:0:
88,223,3731,6,0,L|97:313,1,67.5000025749208,2|0,0:2|0:2,0:2:0:0:
176,176,4031,2,0,L|167:266,1,67.5000025749208,2|0,0:2|0:2,0:2:0:0:
23,175,4331,2,0,P|55:149|102:145,1,67.5000025749208,2|0,0:2|0:2,0:2:0:0:
131,12,4631,2,0,L|129:80,1,67.5000025749208,2|0,0:2|0:2,0:2:0:0:
176,176,4931,5,2,0:2:0:0:
274,110,5081,2,0,L|190:100,1,67.5000025749208,2|0,0:2|0:2,0:2:0:0:
323,185,5381,2,0,L|255:192,1,67.5000025749208,2|0,0:2|0:2,0:2:0:0:
329,36,5681,2,0,P|377:83|459:66,1,135.000005149842,2|0,0:2|0:2,0:2:0:0:
431,229,6131,6,0,P|414:201|404:169,1,67.5000025749208,2|0,0:2|0:2,0:2:0:0:
326,326,6431,2,0,P|343:297|353:265,1,67.5000025749208,2|0,0:2|0:2,0:2:0:0:
158,265,6731,2,0,P|168:297|186:326,1,67.5000025749208,2|0,0:2|0:2,0:2:0:0:
256,194,7031,2,0,L|177:188,1,67.5000025749208,2|0,0:2|0:2,0:2:0:0:
78,274,7331,5,2,0:2:0:0:
158,265,7481,1,2,0:2:0:0:
79,143,7631,1,2,0:2:0:0:
79,143,7781,2,0,B|63:182|63:182|77:273,1,135.000005149842,2|2,0:2|0:2,0:2:0:0:
155,332,8231,2,0,L|158:265,1,67.5000025749208,2|0,0:2|0:2,0:2:0:0:
163,74,8531,6,0,P|211:38|333:99,1,202.500007724762,2|0,0:2|0:2,0:2:0:0:
252,263,9131,2,0,B|240:118,1,135.000005149842,2|0,0:2|0:2,0:2:0:0:
99,149,9581,2,0,P|149:156|188:139,1,67.5000025749208,2|0,0:2|0:2,0:2:0:0:
77,71,9881,1,2,0:2:0:0:
21,131,10031,1,2,0:2:0:0:
0,52,10181,1,2,0:2:0:0:
99,149,10331,2,0,P|151:104|142:26,1,135.000005149842,2|0,0:2|0:2,0:2:0:0:
180,200,10931,6,0,L|185:268,1,67.5000025749208,2|0,0:2|0:2,0:2:0:0:
99,149,11231,2,0,L|94:217,1,67.5000025749208,2|0,0:2|0:2,0:2:0:0:
236,143,11531,2,0,P|174:120|146:132,1,67.5000025749208,2|0,0:2|0:2,0:2:0:0:
263,220,11831,1,2,0:2:0:0:
317,160,11981,1,2,0:2:0:0:
346,307,12131,6,0,L|342:240,1,67.5000025749208,2|0,0:2|0:2,0:2:0:0:
241,75,12431,2,0,L|236:142,1,67.5000025749208,2|0,0:2|0:2,0:2:0:0:
421,216,12731,1,2,0:2:0:0:
421,216,12881,2,0,P|378:162|316:160,1,135.000005149842,2|0,0:2|0:2,0:2:0:0:
131,221,13331,6,0,L|53:214,1,67.5000025749208,2|0,0:2|0:2,0:2:0:0:
98,128,13631,2,0,L|165:121,1,67.5000025749208,2|0,0:2|0:2,0:2:0:0:
304,118,13931,1,2,0:2:0:0:
235,163,14081,1,2,0:2:0:0:
298,38,14231,2,0,P|333:42|375:80,1,67.5000025749208,2|0,0:2|0:2,0:2:0:0:
374,202,14531,5,2,0:2:0:0:
374,202,14681,2,0,L|383:136,1,67.5000025749208,2|0,0:2|0:2,0:2:0:0:
261,311,14981,2,0,L|252:244,1,67.5000025749208,2|0,0:2|0:2,0:2:0:0:
416,381,15281,2,0,L|424:314,1,67.5000025749208,2|0,0:2|0:2,0:2:0:0:
443,158,15581,1,2,0:2:0:0:
235,163,15731,6,0,L|159:159,1,67.5000025749208,2|0,0:2|0:2,0:2:0:0:
193,314,16031,2,0,L|260:310,1,67.5000025749208,2|0,0:2|0:2,0:2:0:0:
153,242,16331,2,0,P|119:285|114:324,1,67.5000025749208,2|0,0:2|0:2,0:2:0:0:
232,244,16631,1,2,0:2:0:0:
195,174,16781,1,2,0:2:0:0:
85,246,16931,6,0,L|152:241,1,67.5000025749208,2|0,0:2|0:2,0:2:0:0:
112,100,17231,1,2,0:2:0:0:
112,100,17381,2,0,L|117:168,1,67.5000025749208,2|0,0:2|0:2,0:2:0:0:
202,29,17681,1,2,0:2:0:0:
202,29,17831,2,0,L|197:96,1,67.5000025749208,2|2,0:2|0:2,0:2:0:0:
235,246,18131,6,0,P|288:207|366:228,1,135.000005149842,2|0,0:2|0:2,0:2:0:0:
307,285,18581,1,2,0:2:0:0:
430,125,18731,6,0,B|421:181|421:181|431:212|431:212|420:285,1,135.000005149842,2|0,0:2|0:2,0:2:0:0:
352,217,19181,1,2,0:2:0:0:
494,312,19331,6,0,B|452:341|452:341|361:331,1,135.000005149842,2|0,0:2|0:2,0:2:0:0:
289,322,19781,1,2,0:2:0:0:
242,111,19931,6,0,L|234:247,1,135.000005149842,2|0,0:2|0:2,0:2:0:0:
226,372,20381,1,2,0:2:0:0:
173,309,20531,5,2,0:2:0:0:
289,322,20681,1,2,0:2:0:0:
234,245,20831,1,2,0:2:0:0:
233,244,21131,2,0,L|229:177,1,67.5000025749208,2|0,0:2|0:2,0:2:0:0:
173,309,21431,1,2,0:2:0:0:
289,322,21581,6,0,L|357:316,1,67.5000025749208,2|0,0:2|0:2,0:2:0:0:
448,305,21881,1,2,0:2:0:0:
395,242,22031,1,2,0:2:0:0:
475,229,22181,1,2,0:2:0:0:
369,319,22331,1,2,0:2:0:0:
352,123,22481,2,0,B|387:157|387:157|397:264,1,135.000005149842,2|0,0:2|0:2,0:2:0:0:
463,146,22931,6,0,L|455:67,1,67.5000025749208,2|0,0:2|0:2,0:2:0:0:
311,52,23231,1,2,0:2:0:0:
352,123,23381,1,2,0:2:0:0:
264,190,23531,2,0,L|271:123,1,67.5000025749208,2|0,0:2|0:2,0:2:0:0:
402,187,23831,1,2,0:2:0:0:
402,187,23981,2,0,P|370:203|329:202,1,67.5000025749208,2|0,0:2|0:2,0:2:0:0:
464,130,24281,6,0,B|484:177|484:177|463:287,1,135.000005149842,2|0,0:2|0:2,0:2:0:0:
369,338,24731,2,0,L|387:246,1,67.5000025749208,2|0,0:2|0:2,0:2:0:0:
264,190,25031,2,0,L|277:256,1,67.5000025749208,2|0,0:2|0:2,0:2:0:0:
316,129,25331,5,2,0:2:0:0:
316,129,25481,2,0,P|253:111|186:169,1,135.000005149842,2|0,0:2|0:2,0:2:0:0:
208,306,25931,2,0,L|221:372,1,67.5000025749208,2|0,0:2|0:2,0:2:0:0:
141,210,26231,1,2,0:2:0:0:
141,210,26381,2,0,L|127:276,1,67.5000025749208,2|0,0:2|0:2,0:2:0:0:
277,256,26681,2,0,L|263:189,1,67.5000025749208,2|0,0:2|0:2,0:2:0:0:
233,49,26981,1,2,0:2:0:0:
190,132,27131,1,2,0:2:0:0:
310,104,27281,2,0,L|396:90,1,67.5000025749208,2|0,0:2|0:2,0:2:0:0:
429,226,27581,6,0,L|343:212,1,67.5000025749208,2|0,0:2|0:2,0:2:0:0:
436,40,27881,1,2,0:2:0:0:
436,40,28031,2,0,P|456:91|453:128,1,67.5000025749208,2|0,0:2|0:2,0:2:0:0:
310,104,28331,1,2,0:2:0:0:
352,34,28481,1,2,0:2:0:0:
203,36,28631,1,2,0:2:0:0:
203,36,28781,2,0,L|271:33,1,67.5000025749208,2|0,0:2|0:2,0:2:0:0:
231,161,29081,2,0,P|173:124|97:144,1,135.000005149842,2|0,0:2|0:2,0:2:0:0:
24,348,29531,6,0,P|67:328|110:329,1,67.5000025749208,2|0,0:2|0:2,0:2:0:0:
162,364,29831,1,2,0:2:0:0:
150,215,29981,2,0,L|155:282,1,67.5000025749208,2|0,0:2|0:2,0:2:0:0:
247,361,30281,2,0,L|258:210,1,135.000005149842,2|0,0:2|0:2,0:2:0:0:
271,67,30731,1,2,0:2:0:0:
196,108,30881,1,2,0:2:0:0:
337,192,31031,5,2,0:2:0:0:
337,192,31181,2,0,L|332:260,1,67.5000025749208,2|0,0:2|0:2,0:2:0:0:
268,149,31481,1,2,0:2:0:0:
339,111,31631,1,2,0:2:0:0:
257,227,31781,1,2,0:2:0:0:
270,68,31931,1,2,0:2:0:0:
200,154,32081,2,0,L|280:148,1,67.5000025749208,2|0,0:2|0:2,0:2:0:0:
179,233,32381,6,0,L|99:227,1,67.5000025749208,2|0,0:2|0:2,0:2:0:0:
74,90,32681,1,2,0:2:0:0:
74,90,32831,2,0,P|107:121|118:156,1,67.5000025749208,2|0,0:2|0:2,0:2:0:0:
28,232,33131,2,0,L|39:143,1,67.5000025749208,2|0,0:2|0:2,0:2:0:0:
191,87,33431,1,2,0:2:0:0:
191,87,33581,2,0,L|202:176,1,67.5000025749208,2|0,0:2|0:2,0:2:0:0:
123,40,33881,6,0,P|179:6|244:26,1,135.000005149842,2|2,0:2|0:2,0:2:0:0:
228,162,34331,1,2,0:2:0:0:
191,87,34481,1,2,0:2:0:0:
306,139,34631,1,2,0:2:0:0:
183,283,34781,1,2,0:2:0:0:
183,283,34931,6,0,B|177:230|177:230|146:200|150:154,1,135.000005149842,2|0,0:2|0:2,0:2:0:0:
331,298,35531,2,0,L|263:296,1,67.5000025749208,2|0,0:2|0:2,0:2:0:0:
377,232,35831,1,2,0:2:0:0:
377,232,35981,2,0,P|407:278|370:366,1,135.000005149842,2|0,0:2|0:2,0:2:0:0:
297,223,36431,5,2,0:2:0:0:
345,157,36581,1,2,0:2:0:0:
216,214,36731,1,2,0:2:0:0:
331,298,36881,1,2,0:2:0:0:
265,149,37031,1,2,0:2:0:0:
249,290,37181,1,2,0:2:0:0:
345,157,37351,6,0,P|335:108|292:75,1,90,2|0,0:2|0:2,0:0:0:0:
126,217,37648,2,0,L|225:213,1,90,2|0,0:2|0:2,0:0:0:0:
420,301,37945,2,0,L|321:297,1,90,2|0,0:2|0:2,0:0:0:0:
429,155,38242,1,2,0:2:0:0:
457,230,38390,1,2,0:2:0:0:
512,77,38539,6,0,L|509:167,1,90,2|0,0:2|0:2,0:0:0:0:
345,157,38836,2,0,L|341:67,1,90,2|0,0:2|0:2,0:0:0:0:
194,154,39133,1,2,0:2:0:0:
269,182,39281,1,2,0:2:0:0:
257,102,39430,5,2,0:2:0:0:
144,217,39578,1,2,0:2:0:0:
144,217,39652,1,2,0:2:0:0:
144,217,39727,1,2,0:2:0:0:
256,192,39801,12,0,40766,0:2:0:0:
104,48,40915,6,0,B|72:88|72:88|85:199,1,135,2|0,0:2|0:2,0:0:0:0:
166,205,41212,2,0,L|152:105,1,90,2|0,0:2|0:2,0:0:0:0:
58,255,41509,2,0,L|105:249,1,45,8|8,0:3|0:3,0:0:0:0:
216,291,41657,2,0,L|172:286,1,45,8|8,0:3|0:3,0:0:0:0:
50,335,41806,1,12,0:2:0:0:
325,53,42103,6,0,B|357:93|357:93|344:204,1,148.50000453186,4|0,3:1|0:2,0:0:0:0:
331,268,42400,1,10,0:2:0:0:
270,216,42549,1,0,3:2:0:0:
408,240,42697,1,2,3:2:0:0:
256,297,42846,1,0,3:2:0:0:
414,338,42994,2,0,L|407:232,1,99.0000030212403,10|0,2:2|3:2,0:0:0:0:
395,125,43291,5,2,3:2:0:0:
345,189,43440,1,0,3:2:0:0:
364,51,43588,1,10,0:2:0:0:
314,114,43737,1,0,3:2:0:0:
493,135,43885,2,0,L|378:123,1,99.0000030212403,2|0,3:2|3:2,0:0:0:0:
246,199,44182,2,0,L|361:187,1,99.0000030212403,10|0,0:2|3:2,0:0:0:0:
176,149,44479,6,0,B|165:206|165:206|194:303,1,148.50000453186,2|0,3:2|0:2,0:0:0:0:
276,293,44776,2,0,L|246:199,1,99.0000030212403,10|0,0:2|3:2,0:0:0:0:
83,214,45073,2,0,L|113:308,1,99.0000030212403,2|0,3:2|3:2,0:0:0:0:
139,156,45370,1,10,0:2:0:0:
61,135,45519,1,0,3:2:0:0:
118,79,45667,5,2,3:2:0:0:
83,214,45816,1,0,3:2:0:0:
41,55,45964,1,8,0:2:0:0:
196,98,46113,2,0,L|294:93,1,99.0000030212403,6|0,3:2|0:2,0:0:0:0:
436,97,46410,1,2,3:2:0:0:
334,165,46558,1,10,0:2:0:0:
347,30,46707,1,0,3:2:0:0:
410,219,46855,6,0,P|366:254|301:252,1,99.0000030212403,6|0,3:2|0:2,0:0:0:0:
244,133,47152,1,10,0:2:0:0:
334,165,47301,1,0,3:2:0:0:
218,287,47450,1,2,3:2:0:0:
180,202,47598,1,0,3:2:0:0:
25,282,47747,2,0,L|123:277,1,99.0000030212403,10|0,0:2|3:2,0:0:0:0:
314,295,48044,5,2,3:2:0:0:
180,202,48192,1,0,3:2:0:0:
218,287,48341,1,10,0:2:0:0:
232,125,48489,1,0,3:2:0:0:
274,210,48638,1,2,3:2:0:0:
138,118,48786,1,0,3:2:0:0:
327,130,48935,2,0,L|315:31,1,99.0000030212403,10|0,0:2|0:2,0:0:0:0:
485,154,49232,6,0,L|473:252,1,99.0000030212403,2|0,3:2|0:2,0:0:0:0:
413,95,49529,1,10,0:2:0:0:
501,62,49677,1,0,3:2:0:0:
399,190,49826,1,2,3:2:0:0:
429,3,49974,1,0,3:2:0:0:
327,130,50123,2,0,P|273:142|197:102,1,99.0000030212403,10|0,0:2|3:2,0:0:0:0:
119,3,50420,6,0,P|156:43|159:129,1,99.0000030212403,2|0,3:2|3:2,0:0:0:0:
83,185,50717,2,0,L|72:87,1,99.0000030212403,14|0,0:2|3:2,0:0:0:0:
169,205,51014,1,2,3:2:0:0:
118,284,51162,1,8,0:2:0:0:
118,284,51237,1,8,0:2:0:0:
118,284,51311,1,8,0:2:0:0:
153,122,51459,1,8,0:2:0:0:
153,122,51534,1,8,0:2:0:0:
153,122,51608,6,0,L|251:110,1,99.0000030212403,4|0,0:1|0:2,0:0:0:0:
407,94,51905,1,10,0:2:0:0:
335,153,52053,1,0,3:2:0:0:
409,287,52202,2,0,L|421:189,1,99.0000030212403,2|0,3:2|3:2,0:0:0:0:
254,203,52499,2,0,L|266:301,1,99.0000030212403,10|0,0:2|3:2,0:0:0:0:
335,153,52796,5,2,3:2:0:0:
253,108,52945,1,0,3:2:0:0:
155,215,53093,2,0,L|253:203,1,99.0000030212403,10|0,2:2|3:2,0:0:0:0:
364,313,53390,2,0,L|266:301,1,99.0000030212403,2|0,3:2|3:2,0:0:0:0:
101,292,53687,1,10,0:2:0:0:
147,377,53836,1,0,3:2:0:0:
114,133,53984,6,0,P|76:174|67:221,1,99.0000030212403,2|0,3:2|0:2,0:0:0:0:
196,295,54281,2,0,P|179:241|143:210,1,99.0000030212403,10|0,0:2|3:2,0:0:0:0:
200,86,54578,2,0,P|216:139|252:170,1,99.0000030212403,2|0,3:2|3:2,0:0:0:0:
393,99,54875,2,0,L|295:87,1,99.0000030212403,10|0,0:2|3:2,0:0:0:0:
439,181,55172,5,2,3:2:0:0:
487,103,55321,1,2,3:2:0:0:
345,181,55469,1,10,0:2:0:0:
507,247,55618,1,6,3:2:0:0:
507,247,55915,5,2,3:2:0:0:
354,319,56063,1,10,0:2:0:0:
503,345,56212,1,8,0:2:0:0:
503,345,56286,1,8,0:2:0:0:
503,345,56360,2,0,L|507:242,1,99.0000030212403,14|0,0:2|0:2,0:0:0:0:
341,82,56657,2,0,L|345:185,1,99.0000030212403,10|0,0:2|3:2,0:0:0:0:
410,35,56954,2,0,P|343:1|301:9,1,99.0000030212403,2|0,3:2|3:2,0:0:0:0:
178,104,57251,1,10,3:2:0:0:
341,82,57400,1,0,3:2:0:0:
181,202,57549,6,0,L|177:99,1,99.0000030212403,2|0,3:2|0:2,0:0:0:0:
250,267,57846,2,0,P|186:295|136:281,1,99.0000030212403,8|0,0:2|3:2,0:0:0:0:
271,174,58143,1,2,3:2:0:0:
343,236,58291,1,2,0:2:0:0:
343,236,58365,1,2,0:2:0:0:
343,236,58440,2,0,B|369:271|369:271|504:260,1,148.50000453186,8|0,0:3|0:2,0:0:0:0:
512,193,58737,5,14,0:2:0:0:
441,336,58885,1,2,3:2:0:0:
377,162,59034,1,2,3:2:0:0:
473,262,59182,5,10,0:2:0:0:
399,86,59331,1,2,3:2:0:0:
343,236,59479,1,2,3:2:0:0:
296,0,59628,5,14,0:2:0:0:
377,162,59776,1,0,3:2:0:0:
220,30,59925,1,2,3:2:0:0:
277,178,60073,6,0,L|284:79,1,99.0000030212403,12|0,2:2|0:2,0:0:0:0:
190,216,60370,1,8,0:3:0:0:
377,162,60519,1,8,0:3:0:0:
195,122,60667,1,8,0:3:0:0:
284,276,60816,2,0,L|276:177,1,99.0000030212403,10|0,0:2|3:2,0:0:0:0:
135,61,61113,6,0,P|162:104|227:125,1,90,4|0,3:2|0:2,0:0:0:0:
351,116,61410,2,0,P|388:90|407:50,1,90,10|0,0:2|0:2,0:0:0:0:
276,177,61707,2,0,L|284:276,1,90,2|0,3:2|3:2,0:0:0:0:
294,377,62004,1,10,0:2:0:0:
352,320,62152,1,2,0:2:0:0:
228,334,62301,5,2,3:2:0:0:
353,239,62450,1,0,3:2:0:0:
151,272,62598,1,10,0:2:0:0:
276,177,62747,1,0,3:2:0:0:
352,320,62895,1,2,3:2:0:0:
202,210,63044,2,0,L|194:121,1,90,2|0,3:2|3:2,0:0:0:0:
363,71,63341,1,8,0:2:0:0:
363,71,63415,1,8,0:2:0:0:
363,71,63489,6,0,L|355:160,1,90,2|0,3:2|3:2,0:0:0:0:
120,82,63786,2,0,P|160:46|215:42,1,90,10|0,0:2|0:2,0:0:0:0:
118,175,64083,2,0,P|66:158|35:112,1,90,2|0,3:2|3:2,0:0:0:0:
201,133,64380,1,10,0:2:0:0:
114,271,64529,1,2,0:2:0:0:
120,82,64677,5,2,3:2:0:0:
198,227,64826,1,8,0:2:0:0:
228,225,64900,1,8,0:2:0:0:
258,224,64974,1,8,0:2:0:0:
288,222,65048,1,8,0:2:0:0:
318,221,65123,5,10,0:3:0:0:
114,271,65420,1,6,0:3:0:0:
173,68,65717,1,8,0:2:0:0:
182,157,65865,6,0,L|172:67,1,90,6|0,3:2|0:2,0:0:0:0:
318,221,66162,2,0,L|327:131,1,90,10|0,0:2|0:2,0:0:0:0:
226,240,66459,1,2,3:2:0:0:
292,310,66608,1,0,3:2:0:0:
146,363,66756,2,0,L|137:274,1,90,10|0,0:2|0:2,0:0:0:0:
115,138,67053,5,2,3:2:0:0:
83,212,67202,1,0,3:2:0:0:
63,76,67351,1,10,0:2:0:0:
161,204,67499,2,0,B|233:197|233:197|266:211|266:211|349:203,1,180,2|0,3:2|3:2,0:0:0:0:
458,197,67945,1,10,0:2:0:0:
407,62,68093,1,8,0:2:0:0:
407,62,68167,1,8,0:2:0:0:
407,62,68242,6,0,P|390:128|404:165,1,90,2|0,3:2|3:2,0:0:0:0:
505,263,68539,1,10,0:2:0:0:
458,197,68687,1,2,0:2:0:0:
471,337,68836,1,2,3:2:0:0:
424,271,68984,1,0,3:2:0:0:
301,355,69133,2,0,L|390:346,1,90,10|2,0:2|0:2,0:0:0:0:
505,263,69430,1,10,0:2:0:0:
378,204,69578,5,2,3:2:0:0:
512,81,69875,1,6,3:2:0:0:
338,26,70172,1,8,0:3:0:0:
338,26,70247,1,8,0:3:0:0:
338,26,70321,2,0,L|347:115,1,90,10|0,0:2|0:2,0:0:0:0:
161,204,70618,6,0,L|170:115,1,90,6|0,3:2|0:2,0:0:0:0:
219,262,70915,2,0,P|169:284|105:264,1,90,10|0,0:2|0:2,0:0:0:0:
40,174,71212,1,2,3:2:0:0:
161,204,71360,1,0,3:2:0:0:
47,255,71509,1,10,0:2:0:0:
113,139,71657,1,0,3:2:0:0:
134,280,71806,5,2,3:2:0:0:
192,130,71954,1,2,3:2:0:0:
40,174,72103,1,10,0:2:0:0:
161,204,72251,1,0,3:2:0:0:
48,93,72400,1,2,3:2:0:0:
192,130,72549,1,2,3:2:0:0:
134,56,72697,1,8,0:2:0:0:
40,174,72846,1,8,0:3:0:0:
40,174,72920,1,8,0:3:0:0:
40,174,72994,6,0,L|52:276,1,90,2|0,3:2|3:2,0:0:0:0:
206,246,73291,2,0,L|124:211,1,90,10|0,0:2|0:2,0:0:0:0:
59,354,73588,2,0,L|131:300,1,90,2|0,3:2|3:2,0:0:0:0:
272,197,73885,1,10,0:2:0:0:
256,309,74034,1,0,3:2:0:0:
196,168,74182,5,2,3:2:0:0:
322,262,74331,1,8,0:2:0:0:
354,259,74405,1,8,0:2:0:0:
386,257,74479,1,8,0:2:0:0:
418,255,74553,1,8,0:2:0:0:
451,252,74628,5,10,0:3:0:0:
327,123,74925,1,6,0:3:0:0:
501,80,75222,1,8,0:2:0:0:
407,12,75370,6,0,L|414:102,1,90,6|0,3:2|0:2,0:0:0:0:
320,212,75667,2,0,L|326:122,1,90,10|0,0:2|0:2,0:0:0:0:
482,154,75964,2,0,P|443:180|395:184,1,90,2|0,3:2|3:2,0:0:0:0:
259,67,76261,2,0,P|301:87|328:127,1,90,10|0,0:2|0:2,0:0:0:0:
264,293,76558,5,2,3:2:0:0:
249,149,76707,1,0,3:2:0:0:
131,230,76855,2,0,L|221:225,1,90,10|0,0:2|0:2,0:0:0:0:
310,370,77152,2,0,L|220:364,1,90,2|0,3:2|3:2,0:0:0:0:
108,309,77450,1,8,0:2:0:0:
249,149,77598,1,8,0:3:0:0:
249,149,77672,1,8,0:3:0:0:
249,149,77747,6,0,P|302:226|260:296,1,180,2|8,3:2|0:2,0:0:0:0:
221,225,78192,1,2,0:2:0:0:
339,218,78341,2,0,B|413:212|413:212|449:233|449:233|551:224,1,180,2|12,3:2|0:2,0:0:0:0:
472,138,78786,1,2,3:2:0:0:
395,309,78935,6,0,B|424:323|424:323|485:319,1,90,6|0,3:2|3:2,0:0:0:0:
472,138,79232,2,0,B|443:124|443:124|385:127,1,90,10|0,0:2|3:2,0:0:0:0:
264,293,79529,2,0,B|190:287|190:287|154:308|154:308|52:299,1,180,2|8,3:2|0:2,0:0:0:0:
89,135,79974,6,0,P|119:169|132:212,1,90,6|0,3:2|0:2,0:0:0:0:
272,99,80271,1,2,3:2:0:0:
272,99,80420,2,0,P|242:132|229:175,1,90,10|0,0:2|0:2,0:0:0:0:
121,4,80717,2,0,P|151:38|164:81,1,90,2|0,3:2|0:2,0:0:0:0:
69,85,81014,1,10,0:2:0:0:
241,10,81162,6,0,L|348:6,1,90,2|0,3:2|0:2,0:0:0:0:
419,175,81459,1,2,3:2:0:0:
419,175,81608,2,0,L|312:171,1,90,10|0,0:2|3:2,0:0:0:0:
406,31,81905,1,2,0:2:0:0:
453,100,82053,1,0,3:2:0:0:
330,6,82202,1,8,0:2:0:0:
239,174,82351,6,0,L|328:171,1,90,2|0,3:3|0:2,0:0:0:0:
196,245,82648,1,2,3:2:0:0:
196,245,82796,2,0,P|163:209|155:158,1,90,10|0,0:2|0:2,0:0:0:0:
201,103,83093,1,2,0:2:0:0:
238,173,83242,1,0,3:2:0:0:
121,100,83390,1,8,0:2:0:0:
239,29,83539,6,0,P|269:61|281:105,1,90,2|0,3:2|0:2,0:0:0:0:
316,229,83836,1,2,3:2:0:0:
316,229,83984,2,0,P|328:186|360:155,1,90,10|0,0:2|0:2,0:0:0:0:
476,212,84281,1,2,0:2:0:0:
398,225,84430,1,0,3:2:0:0:
443,378,84578,1,8,0:2:0:0:
443,378,84727,6,0,L|451:289,1,90,2|0,0:3|0:2,0:0:0:0:
390,135,85024,1,2,3:2:0:0:
390,135,85173,2,0,L|397:224,2,90,10|0|0,0:2|0:2|0:2,0:0:0:0:
512,25,85618,1,2,3:2:0:0:
512,25,85766,2,0,P|455:61|402:54,1,90,10|0,0:2|3:2,0:0:0:0:
366,20,86063,1,0,3:2:0:0:
300,143,86212,6,0,L|409:133,1,90,2|8,3:2|0:2,0:0:0:0:
276,50,86509,2,0,L|167:40,1,90,2|0,0:2|0:2,0:0:0:0:
69,184,86806,2,0,P|116:178|151:142,1,90,2|8,3:2|0:2,0:0:0:0:
63,7,87103,6,0,L|76:97,1,90,2|0,3:3|0:2,0:0:0:0:
221,211,87400,1,0,3:2:0:0:
221,211,87549,2,0,L|234:121,1,90,10|0,0:2|0:2,0:0:0:0:
366,230,87846,1,2,0:2:0:0:
289,256,87994,1,0,3:2:0:0:
428,282,88143,1,8,0:2:0:0:
353,140,88291,6,0,L|366:230,1,90,6|0,3:2|0:2,0:0:0:0:
276,345,88588,1,2,3:2:0:0:
276,345,88737,2,0,L|289:255,1,90,10|8,0:2|0:2,0:0:0:0:
289,256,88959,1,8,0:2:0:0:
289,256,89034,1,8,0:2:0:0:
200,304,89182,1,8,0:3:0:0:
362,328,89331,1,12,0:3:0:0:
219,224,89479,6,0,B|153:215|153:215|106:233|106:233|27:222,1,180,6|0,0:2|3:2,0:0:0:0:
69,65,89925,1,10,0:2:0:0:
69,65,90073,2,0,P|92:109|88:171,1,90,2|0,3:2|0:2,0:0:0:0:
14,130,90370,1,2,3:2:0:0:
150,215,90519,1,10,0:2:0:0:
150,215,90667,6,0,P|173:171|169:109,1,90,2|0,3:2|0:2,0:0:0:0:
69,65,90964,1,2,3:2:0:0:
93,148,91113,1,10,0:2:0:0:
123,6,91261,1,2,3:2:0:0:
147,89,91410,1,2,3:2:0:0:
290,34,91558,2,0,L|200:28,1,90,2|8,3:2|2:2,0:0:0:0:
318,110,91855,6,0,L|408:104,1,90,2|0,0:2|0:2,0:0:0:0:
275,180,92152,1,2,3:2:0:0:
290,34,92301,1,10,0:2:0:0:
356,184,92450,1,2,3:2:0:0:
356,184,92598,2,0,L|348:290,1,90,2|0,3:2|3:2,0:0:0:0:
256,374,92895,1,8,0:2:0:0:
256,374,93044,6,0,L|248:268,1,90,2|0,3:2|0:2,0:0:0:0:
236,152,93341,1,2,3:2:0:0:
196,222,93489,1,10,0:2:0:0:
197,81,93638,1,0,3:2:0:0:
156,151,93786,1,2,3:2:0:0:
279,84,93935,1,0,3:2:0:0:
122,79,94083,1,10,0:2:0:0:
275,223,94232,6,0,L|390:215,1,90,6|0,3:2|0:2,0:0:0:0:
509,205,94529,1,2,3:2:0:0:
431,150,94677,1,10,0:2:0:0:
448,279,94826,1,0,3:2:0:0:
492,76,94974,1,2,3:2:0:0:
509,205,95123,1,2,3:2:0:0:
414,21,95271,1,10,0:2:0:0:
236,152,95420,6,0,L|121:144,1,90,2|0,3:2|0:2,0:0:0:0:
292,228,95717,1,2,3:2:0:0:
272,66,95865,1,10,0:2:0:0:
197,241,96014,1,0,3:2:0:0:
329,142,96162,1,2,3:2:0:0:
179,76,96311,1,0,3:2:0:0:
255,315,96459,1,10,0:2:0:0:
9,253,96608,6,0,L|124:245,1,90,6|0,0:2|0:2,0:0:0:0:
292,228,96905,1,2,3:2:0:0:
149,332,97053,1,10,0:2:0:0:
161,159,97202,1,8,0:2:0:0:
161,159,97276,1,8,0:2:0:0:
161,159,97351,1,8,0:3:0:0:
357,306,97499,1,4,0:3:0:0:
98,246,97648,1,8,0:3:0:0:
376,213,97796,6,0,B|436:174|492:216|492:216|457:125|489:95|489:95|510:133|490:157,1,314.999990386963,4|0,0:2|0:2,0:0:0:0:
432,290,98687,5,0,3:3:0:0:
432,290,98761,1,0,3:3:0:0:
432,290,98836,2,0,L|350:285,1,80.9999975280763,12|0,0:3|0:2,0:0:0:0:
271,333,99133,6,0,L|381:326,1,107.999996704102,4|0,3:1|0:2,0:0:0:0:
214,162,99430,2,0,P|194:212|203:265,1,107.999996704102,10|0,0:2|0:2,0:0:0:0:
303,127,99727,1,2,3:2:0:0:
123,134,99875,1,0,3:2:0:0:
289,223,100024,1,8,0:2:0:0:
205,54,100172,6,0,L|214:162,1,107.999996704102,2|0,3:2|0:2,0:0:0:0:
369,294,100469,2,0,L|378:187,1,107.999996704102,2|8,3:2|0:2,0:0:0:0:
393,2,100766,1,2,0:2:0:0:
499,105,100915,2,0,L|391:96,1,107.999996704102,0|0,3:2|3:2,0:0:0:0:
221,88,101212,1,8,0:2:0:0:
378,187,101360,1,2,0:2:0:0:
297,20,101509,6,0,L|306:128,1,107.999996704102,2|0,3:2|0:2,0:0:0:0:
171,280,101806,2,0,L|179:172,1,107.999996704102,10|0,0:2|0:2,0:0:0:0:
250,328,102103,1,2,3:2:0:0:
85,382,102251,2,0,L|77:275,1,107.999996704102,2|8,3:2|0:2,0:0:0:0:
245,11,102549,6,0,P|255:64|217:134,1,107.999996704102,2|0,3:2|0:2,0:0:0:0:
68,102,102846,2,0,P|109:66|189:64,1,107.999996704102,2|8,3:2|0:2,0:0:0:0:
235,209,103143,2,0,P|184:192|149:151,1,107.999996704102,2|0,3:2|0:2,0:0:0:0:
321,65,103440,1,2,3:2:0:0:
314,159,103588,1,8,0:2:0:0:
245,11,103737,1,2,3:2:0:0:
428,70,103885,6,0,L|299:64,1,107.999996704102,6|0,3:2|0:2,0:0:0:0:
127,214,104182,2,0,L|256:208,1,107.999996704102,10|0,0:2|0:2,0:0:0:0:
428,358,104479,2,0,L|299:352,1,107.999996704102,2|0,3:2|3:2,0:0:0:0:
314,159,104776,1,8,0:2:0:0:
314,159,104925,6,0,P|327:221|298:279,1,107.999996704102,2|0,3:2|0:2,0:0:0:0:
50,266,105222,2,0,P|35:205|66:146,1,107.999996704102,2|8,3:2|0:2,0:0:0:0:
182,271,105519,2,0,L|184:387,1,103.500001974106,2|0,0:2|0:2,0:0:0:0:
127,214,105816,1,2,3:2:0:0:
234,208,105964,1,8,0:2:0:0:
49,164,106113,1,8,0:3:0:0:
224,54,106261,6,0,B|251:102|251:102|227:250,1,161.999995056153,14|0,3:2|0:0,0:0:0:0:
182,271,106558,1,0,3:2:0:0:
136,60,106707,6,0,B|109:108|109:108|133:256,1,161.999995056153,14|0,3:2|0:0,0:0:0:0:
182,271,107004,1,0,3:2:0:0:
309,36,107152,6,0,B|336:84|336:84|312:232,1,161.999995056153,14|0,3:2|0:0,0:0:0:0:
298,266,107449,1,0,3:2:0:0:
51,42,107598,6,0,B|24:90|24:90|48:238,1,161.999995056153,14|0,3:2|0:0,0:0:0:0:
66,271,107895,1,0,3:2:0:0:
318,189,108044,1,8,0:2:0:0:
347,209,108118,1,8,0:2:0:0:
365,240,108192,1,8,0:2:0:0:
369,276,108266,1,8,0:2:0:0:
357,310,108341,5,8,0:3:0:0:
331,263,108415,1,8,0:3:0:0:
347,209,108489,1,8,0:3:0:0:
394,185,108563,1,8,0:3:0:0:
446,201,108638,6,0,L|461:82,1,107.999996704102,4|0,3:1|0:2,0:0:0:0:
257,109,108935,2,0,L|365:96,1,107.999996704102,10|0,0:2|0:2,0:0:0:0:
222,197,109232,1,2,3:2:0:0:
200,34,109380,1,0,3:2:0:0:
315,184,109529,1,10,0:2:0:0:
164,121,109677,6,0,L|56:108,1,107.999996704102,2|0,3:2|0:2,0:0:0:0:
183,283,109974,2,0,L|291:270,1,107.999996704102,2|8,3:2|0:2,0:0:0:0:
125,207,110271,1,2,3:2:0:0:
88,293,110420,1,0,3:2:0:0:
69,128,110568,1,2,3:2:0:0:
183,283,110717,1,8,0:2:0:0:
164,121,110865,1,8,3:2:0:0:
164,121,110940,1,8,3:2:0:0:
164,121,111014,6,0,P|132:58|85:34,1,107.999996704102,2|0,3:2|0:2,0:0:0:0:
22,219,111311,2,0,P|92:222|136:194,1,107.999996704102,10|0,2:2|0:2,0:0:0:0:
254,85,111608,1,2,3:2:0:0:
69,128,111756,1,0,3:2:0:0:
216,201,111905,1,10,0:2:0:0:
154,13,112053,6,0,L|165:138,1,107.999996704102,2|0,3:2|0:2,0:0:0:0:
294,274,112351,2,0,L|304:167,1,107.999996704102,2|8,3:2|0:2,0:0:0:0:
487,239,112648,2,0,L|379:229,1,107.999996704102,2|0,3:2|0:2,0:0:0:0:
127,339,112945,2,0,L|235:330,1,107.999996704102,2|8,3:2|0:2,0:0:0:0:
112,146,113242,1,2,3:2:0:0:
112,146,113316,1,2,3:2:0:0:
112,146,113390,6,0,P|89:194|93:248,1,107.999996704102,6|0,3:2|0:2,0:0:0:0:
279,175,113687,2,0,P|248:131|201:108,1,107.999996704102,10|0,0:2|0:2,0:0:0:0:
15,114,113984,1,2,3:2:0:0:
186,203,114133,1,2,3:2:0:0:
88,54,114281,1,8,0:2:0:0:
10,279,114430,6,0,L|118:270,1,107.999996704102,2|0,3:2|0:2,0:0:0:0:
307,117,114727,2,0,L|199:107,1,107.999996704102,2|8,3:2|0:2,0:0:0:0:
358,292,115024,2,0,P|378:242|366:191,1,107.999996704102,2|0,3:2|0:2,0:0:0:0:
258,37,115321,1,2,3:2:0:0:
282,233,115469,1,10,0:2:0:0:
352,35,115618,1,8,0:3:0:0:
497,173,115766,6,0,B|456:202|456:202|331:177,1,161.999995056153,14|0,3:2|0:0,0:0:0:0:
227,155,116063,1,0,3:2:0:0:
274,383,116212,6,0,B|303:342|303:342|278:217,1,161.999995056153,14|0,3:2|0:0,0:0:0:0:
246,77,116509,1,0,3:2:0:0:
53,225,116657,6,0,B|94:254|94:254|204:233,1,161.999995056153,14|0,3:2|0:0,0:0:0:0:
363,204,116954,5,0,3:2:0:0:
110,168,117103,1,14,3:2:0:0:
398,96,117251,1,0,3:0:0:0:
204,233,117400,1,0,3:2:0:0:
294,76,117549,2,0,B|307:121|307:121|284:233,1,161.999995056153,8|8,0:3|0:3,0:0:0:0:
204,233,117846,2,0,L|228:124,1,107.999996704102,8|8,0:0|0:0,0:0:0:0:
86,62,118143,6,0,L|110:171,1,107.999996704102,4|0,3:1|0:2,0:0:0:0:
294,76,118440,2,0,P|242:47|183:57,1,107.999996704102,10|0,0:2|0:2,0:0:0:0:
33,186,118737,1,2,3:2:0:0:
227,127,118885,1,2,3:2:0:0:
86,62,119034,1,8,0:2:0:0:
180,338,119182,6,0,L|203:232,1,107.999996704102,2|0,3:2|0:2,0:0:0:0:
377,117,119479,2,0,L|400:222,1,107.999996704102,2|8,3:2|0:2,0:0:0:0:
291,80,119776,1,10,0:2:0:0:
291,80,119851,1,8,0:2:0:0:
291,80,119925,1,0,3:2:0:0:
452,61,120073,1,8,0:3:0:0:
306,178,120222,1,8,0:3:0:0:
366,24,120370,1,8,0:3:0:0:
426,317,120519,6,0,L|441:156,1,161.999995056153,14|0,3:2|0:0,0:0:0:0:
452,61,120816,1,0,3:2:0:0:
320,339,120964,6,0,L|305:177,1,161.999995056153,14|0,3:2|0:0,0:0:0:0:
295,82,121261,1,0,3:2:0:0:
218,378,121410,6,0,L|172:222,1,161.999995056153,14|0,3:2|0:0,0:0:0:0:
143,131,121707,1,0,3:2:0:0:
108,358,121855,1,10,0:2:0:0:
295,82,122004,1,0,3:2:0:0:
270,283,122152,1,0,3:2:0:0:
49,133,122301,1,10,0:2:0:0:
218,29,122450,1,8,0:3:0:0:
96,278,122598,1,8,0:2:0:0:
119,34,122747,6,0,L|244:27,1,99.0000030212403,4|0,3:1|0:2,0:0:0:0:
238,196,123044,1,2,3:2:0:0:
238,196,123192,2,0,L|169:91,1,99.0000030212403,10|0,0:2|0:2,0:0:0:0:
310,18,123489,1,2,3:2:0:0:
274,103,123638,1,0,3:2:0:0:
217,28,123786,1,8,0:2:0:0:
367,94,123935,6,0,L|492:87,1,99.0000030212403,2|0,3:2|0:2,0:0:0:0:
415,241,124232,1,2,3:2:0:0:
415,241,124380,2,0,L|290:234,1,99.0000030212403,10|0,0:2|0:2,0:0:0:0:
447,150,124677,1,0,3:2:0:0:
512,227,124826,2,0,P|509:280|475:318,1,99.0000030212403,2|8,3:2|0:2,0:0:0:0:
170,166,125123,6,0,B|252:173|252:173|282:151|282:151|368:157,1,198.000006042481,6|2,3:2|3:2,0:0:0:0:
375,298,125568,2,0,P|330:268|314:220,1,99.0000030212403,10|0,0:2|0:2,0:0:0:0:
386,79,125865,2,0,P|430:108|446:156,1,99.0000030212403,2|0,3:2|0:2,0:0:0:0:
256,165,126162,1,10,0:2:0:0:
324,5,126311,6,0,L|451:-2,1,99.0000030212403,2|0,3:2|0:2,0:0:0:0:
288,85,126608,1,2,3:2:0:0:
288,85,126756,2,0,L|161:78,1,99.0000030212403,10|0,0:2|0:2,0:0:0:0:
51,79,127053,1,2,3:2:0:0:
121,145,127202,1,0,3:2:0:0:
121,16,127351,1,8,0:2:0:0:
38,182,127499,6,0,P|100:236|205:187,1,198.000006042481,6|2,3:2|3:2,0:0:0:0:
47,313,127945,2,0,P|96:329|173:313,1,99.0000030212403,10|0,0:2|0:2,0:0:0:0:
305,218,128242,1,2,3:2:0:0:
121,145,128390,1,0,3:2:0:0:
226,374,128539,1,8,0:2:0:0:
226,374,128687,6,0,L|232:254,1,99.0000030212403,6|0,3:2|0:2,0:0:0:0:
380,133,128984,1,2,3:2:0:0:
380,133,129133,2,0,L|385:232,1,99.0000030212403,10|0,0:2|0:2,0:0:0:0:
296,92,129430,1,2,3:2:0:0:
454,62,129578,1,8,0:2:0:0:
454,62,129652,1,8,0:2:0:0:
454,62,129727,2,0,L|461:219,1,148.50000453186,8|0,0:2|0:0,0:0:0:0:
458,304,130024,6,0,P|391:268|316:318,1,148.50000453186,12|0,3:2|0:0,0:0:0:0:
390,349,130321,1,0,3:2:0:0:
246,171,130469,6,0,L|254:320,1,148.50000453186,12|0,3:2|0:0,0:0:0:0:
314,374,130766,1,0,3:2:0:0:
374,163,130915,6,0,P|307:199|232:149,1,148.50000453186,12|0,3:2|0:0,0:0:0:0:
306,118,131212,1,0,3:2:0:0:
439,14,131360,6,0,L|437:113,1,99.0000030212403,14|0,3:2|0:2,0:0:0:0:
437,257,131657,1,8,0:2:0:0:
437,257,131732,1,8,0:2:0:0:
437,257,131806,1,8,0:2:0:0:
346,48,131954,1,8,0:2:0:0:
483,187,132103,1,8,0:2:0:0:
223,136,132251,5,12,0:2:0:0:
223,136,132697,6,0,L|220:37,1,99.0000030212403,4|0,3:1|0:2,0:0:0:0:
66,178,132994,1,2,3:2:0:0:
157,205,133143,1,0,3:2:0:0:
74,83,133291,1,8,0:2:0:0:
85,370,133440,2,0,L|88:272,1,99.0000030212403,6|0,3:2|0:2,0:0:0:0:
256,231,133737,1,2,3:2:0:0:
256,231,133885,2,0,P|230:275|178:300,1,99.0000030212403,10|0,0:2|0:2,0:0:0:0:
223,140,134182,1,2,3:2:0:0:
317,157,134331,2,0,L|447:152,1,99.0000030212403,2|8,3:2|0:2,0:0:0:0:
453,374,134628,6,0,L|354:370,1,99.0000030212403,6|0,3:2|0:2,0:0:0:0:
479,216,134925,1,2,3:2:0:0:
479,216,135073,2,0,P|510:267|504:318,1,99.0000030212403,10|0,0:2|0:2,0:0:0:0:
289,315,135370,1,2,3:2:0:0:
418,283,135519,1,0,3:2:0:0:
244,233,135667,1,8,0:2:0:0:
339,134,135816,6,0,L|336:233,1,99.0000030212403,6|0,3:2|0:2,0:0:0:0:
334,384,136113,1,2,3:2:0:0:
145,237,136261,2,0,L|243:233,1,99.0000030212403,10|0,0:2|0:2,0:0:0:0:
132,331,136558,1,2,3:2:0:0:
91,173,136707,1,8,0:2:0:0:
91,173,136781,1,8,0:2:0:0:
91,173,136855,1,8,0:2:0:0:
28,365,137004,1,8,0:2:0:0:
28,365,137078,1,8,0:2:0:0:
28,365,137152,6,0,L|24:266,1,99.0000030212403,6|0,3:2|0:2,0:0:0:0:
74,79,137450,1,10,0:2:0:0:
145,237,137598,1,0,3:2:0:0:
165,61,137747,1,2,3:2:0:0:
24,266,137895,1,0,3:2:0:0:
16,7,138044,1,8,0:2:0:0:
197,159,138192,6,0,L|295:155,1,99.0000030212403,6|0,3:2|0:2,0:0:0:0:
460,114,138489,1,0,3:2:0:0:
384,266,138638,2,0,L|381:168,1,99.0000030212403,8|8,0:2|0:2,0:0:0:0:
381,168,138860,1,8,0:2:0:0:
381,168,138935,1,8,0:2:0:0:
464,323,139083,1,8,0:3:0:0:
304,315,139232,1,8,0:3:0:0:
470,227,139380,1,8,0:3:0:0:
301,220,139529,6,0,L|143:216,1,148.50000453186,6|0,3:2|0:0,0:0:0:0:
74,215,139826,1,8,0:2:0:0:
342,143,139974,6,0,L|184:139,1,148.50000453186,6|0,3:2|0:0,0:0:0:0:
115,138,140271,1,8,0:2:0:0:
222,301,140420,1,8,3:3:0:0:
211,40,140568,5,4,3:1:0:0:
256,192,140643,12,2,143984,0:2:0:0:
