osu file format v14

[General]
AudioFilename: audio.mp3
AudioLeadIn: 0
PreviewTime: 237780
Countdown: 0
SampleSet: Soft
StackLeniency: 0.6
Mode: 0
LetterboxInBreaks: 0
WidescreenStoryboard: 1

[Editor]
DistanceSpacing: 1
BeatDivisor: 4
GridSize: 16
TimelineZoom: 2.599999

[Metadata]
Title:Lost Time Memory
TitleUnicode:ロスタイムメモリー
Artist:JIN ft. Matsuyama Kouta (BYEE the ROUND)
ArtistUnicode:じん ft. 松山晃太(BYEE the ROUND)
Creator:Nevo
Version:Lasse's Hard
Source:メカクシティアクターズ
Tags:vocaloid ia Mekakucity Actors project カゲロウプロジェク 中西亮輔 Ryosuke Nakanishi cover 初音ミク -Project DIVA- F 2nd 自然の敵P Shizen no Teki P Teki-P TekiP じん Blindfold mekakucity actors daze カゲロウプロジェクト project lasse kalibe schoolboy komore Nikakis
BeatmapID:1692821
BeatmapSetID:797779

[Difficulty]
HPDrainRate:5
CircleSize:3.6
OverallDifficulty:6.5
ApproachRate:8
SliderMultiplier:1.4
SliderTickRate:1

[Events]
//Background and Video events
0,0,"lost.jpg",0,0
Video,-185,"video.mp4"
//Break Periods
2,37298,40542
2,203468,216978
//Storyboard Layer 0 (Background)
//Storyboard Layer 1 (Fail)
//Storyboard Layer 2 (Pass)
//Storyboard Layer 3 (Foreground)
//Storyboard Sound Samples

[TimingPoints]
1098,300,4,2,1,40,1,0
1098,-166.666666666667,4,2,1,40,0,0
17898,-142.857142857143,4,2,1,40,0,0
20148,-166.666666666667,4,2,1,40,0,0
35598,-142.857142857143,4,2,1,40,0,0
36198,-100,4,2,1,50,0,0
40548,-100,4,2,1,5,0,0
40698,297.029702970297,4,2,1,55,1,0
40698,-100,4,2,1,60,0,0
40921,-100,4,2,1,5,0,0
40995,-100,4,2,1,60,0,0
41292,-133.333333333333,4,2,1,60,0,0
41886,-100,4,2,1,70,0,0
60896,-125,4,2,1,60,0,0
69955,-125,4,2,1,60,0,0
70401,-111.111111111111,4,2,1,60,0,0
79757,-111.111111111111,4,2,1,60,0,0
89856,-100,4,2,1,60,0,0
97578,-181.818181818182,4,2,1,60,0,0
98618,-166.666666666667,4,2,1,60,0,0
98841,-166.666666666667,4,2,1,5,0,0
98915,-83.3333333333333,4,2,1,80,0,1
106043,-71.4285714285714,4,2,1,80,0,1
107825,-100,4,2,1,80,0,1
108419,-83.3333333333333,4,2,1,80,0,1
115548,-71.4285714285714,4,2,1,80,0,1
117330,-100,4,2,1,80,0,1
117925,-111.111111111111,4,2,1,55,0,0
136786,-111.111111111111,4,2,1,55,0,0
146290,-100,4,2,1,55,0,0
154607,-90.9090909090909,4,2,1,55,0,0
154904,-90.9090909090908,4,2,1,55,0,0
155944,-133.333333333333,4,2,1,55,0,0
156242,-83.3333333333333,4,2,1,80,0,1
163072,-71.4285714285714,4,2,1,80,0,1
164854,-100,4,2,1,80,0,1
165448,-83.3333333333333,4,2,1,80,0,1
172577,-71.4285714285714,4,2,1,80,0,1
174359,-83.3333333333333,4,2,1,80,0,1
174806,-90.9090909090909,4,2,1,65,0,0
193963,-166.666666666667,4,2,1,30,0,0
198716,-200,4,2,1,30,0,0
203468,-200,4,2,1,30,0,0
217726,-200,4,2,1,30,0,0
222478,-166.666666666667,4,2,1,30,0,0
226785,-117.647058823529,4,2,1,50,0,0
227231,-100,4,2,1,50,0,0
234062,-133.333333333333,4,2,1,50,0,0
236587,-133.333333333333,4,2,1,70,0,0
236642,-133.333333333333,4,2,1,5,0,0
236662,-133.333333333333,4,2,1,20,0,0
237479,-133.333333333333,4,2,1,60,0,0
237627,-125,4,2,1,60,0,0
237850,-83.3333333333333,4,2,1,5,0,0
237925,-83.3333333333333,4,2,1,80,0,1
245052,-71.4285714285714,4,2,1,80,0,1
246835,-100,4,2,1,80,0,1
247429,-83.3333333333333,4,2,1,80,0,1
254557,-71.4285714285714,4,2,1,80,0,1
256340,-100,4,2,1,80,0,1
256934,-83.3333333333333,4,2,1,80,0,1
259310,-71.4285714285714,4,2,1,80,0,1
261539,-83.3333333333333,4,2,1,70,0,0
263914,-90.9090909090909,4,2,1,70,0,0
268815,-76.9230769230769,4,2,1,70,0,0
271042,-83.3333333333333,4,2,1,60,0,0
271488,-90.9090909090909,4,2,1,74,0,0
278320,-76.9230769230769,4,2,1,74,0,0
279433,-90.9090909090909,4,2,1,40,0,0
282727,-90.9090909090909,4,2,1,30,0,0

[Colours]
Combo1 : 255,220,113
Combo2 : 129,211,239
Combo3 : 162,177,251
Combo4 : 255,130,133

[HitObjects]
31,113,1098,6,0,B|22:300,2,167.999994873047,2|2|2,0:2|2:2|0:2,0:0:0:0:
146,136,2598,2,0,L|139:45,2,83.9999974365235,2|2|2,0:2|0:2|0:0,0:0:0:0:
249,193,3498,6,0,P|286:172|425:179,2,167.999994873047,2|2|2,0:2|0:2|0:2,0:0:0:0:
159,269,4998,2,0,P|124:275|67:265,2,83.9999974365235,2|2|2,0:2|0:2|0:0,0:0:0:0:
250,194,5898,6,0,P|252:111|261:20,2,167.999994873047,2|2|2,0:2|0:2|0:2,0:0:0:0:
332,277,7398,2,0,L|431:272,2,83.9999974365235,2|2|2,0:2|0:0|0:2,0:0:0:0:
250,362,8298,6,0,P|202:272|145:268,1,167.999994873047,2|2,0:2|0:2,0:0:0:0:
34,308,9198,1,2,0:2:0:0:
34,308,9348,2,0,L|28:172,1,125.999996154785,2|2,0:2|0:2,0:0:0:0:
131,125,10098,2,0,L|220:137,1,83.9999974365235,2|2,0:2|0:2,0:0:0:0:
364,96,10698,6,0,P|305:137|325:234,2,167.999994873047,2|2|2,0:2|0:2|0:2,0:0:0:0:
427,195,12198,2,0,L|423:293,2,83.9999974365235,2|2|2,0:2|0:2|0:0,0:0:0:0:
364,96,13098,6,0,B|298:82|298:82|268:101|268:101|188:86,2,167.999994873047,2|2|2,0:2|0:2|0:2,0:0:0:0:
471,143,14598,2,0,L|470:59,2,83.9999974365235,2|2|2,0:2|0:2|0:0,0:0:0:0:
406,246,15498,6,0,P|443:223|511:305,2,167.999994873047,2|2|2,0:2|0:2|0:2,0:0:0:0:
310,315,16998,2,0,L|218:313,2,83.9999974365235,2|2|2,0:2|0:2|0:2,0:0:0:0:
406,246,17898,6,0,B|414:208|414:208|359:178|365:100|365:100|392:128,3,195.999994018555,2|2|2|2,0:0|0:2|0:2|0:2,0:0:0:0:
386,122,20148,6,0,L|379:263,1,125.999996154785,2|2,0:2|0:2,0:0:0:0:
284,317,20898,2,0,P|239:294|198:297,1,83.9999974365235,2|2,0:2|0:2,0:0:0:0:
159,358,21348,2,0,L|152:222,1,125.999996154785,2|2,0:2|0:2,0:0:0:0:
101,126,22098,2,0,L|94:179,1,41.9999987182618,2|2,0:2|0:2,0:0:0:0:
3,42,22548,5,2,0:2:0:0:
3,42,22698,2,0,P|51:54|94:30,1,83.9999974365235,2|2,0:2|0:2,0:0:0:0:
184,98,23298,2,0,P|218:90|276:107,1,83.9999974365235,2|2,0:2|0:2,0:0:0:0:
318,158,23748,2,0,L|310:247,1,83.9999974365235,2|2,0:2|0:2,0:0:0:0:
353,310,24198,2,0,P|394:318|434:282,2,83.9999974365235,2|2|2,0:0|0:2|0:2,0:0:0:0:
263,233,25098,6,0,B|183:199|184:257|98:223,2,167.999994873047,2|2|2,0:2|0:2|0:0,0:0:0:0:
368,284,26598,1,2,0:0:0:0:
436,188,26898,2,0,B|443:68|443:68|385:33,2,167.999994873047,2|2|2,0:2|0:2|0:2,0:0:0:0:
348,267,28398,5,2,0:2:0:0:
348,267,28548,2,0,P|322:240|225:226,1,125.999996154785,2|2,0:2|0:0,0:0:0:0:
127,263,29298,2,0,P|89:265|40:234,1,83.9999974365235,2|2,0:2|0:2,0:0:0:0:
3,178,29748,1,2,0:2:0:0:
3,178,29898,2,0,B|1:88,1,83.9999974365235,2|2,0:2|0:0,0:0:0:0:
102,35,30498,6,0,P|155:90|243:83,1,167.999994873047,2|2,0:2|0:2,0:0:0:0:
339,18,31398,1,2,0:2:0:0:
432,88,31698,2,0,L|432:178,1,83.9999974365235,2|2,0:2|0:2,0:0:0:0:
396,244,32148,1,2,0:2:0:0:
396,244,32298,2,0,L|396:334,1,83.9999974365235,2|2,0:2|0:2,0:0:0:0:
285,367,32898,6,0,L|272:273,1,83.9999974365235,2|2,0:2|0:2,0:0:0:0:
226,223,33348,1,2,0:2:0:0:
226,223,33498,2,0,P|186:210|135:215,2,83.9999974365235,2|2|2,0:0|0:0|0:2,0:0:0:0:
336,175,34398,5,2,0:2:0:0:
336,175,34548,2,0,L|342:42,1,125.999996154785,2|2,0:2|0:0,0:0:0:0:
451,6,35298,1,2,0:2:0:0:
503,111,35598,5,2,0:2:0:0:
503,111,35748,2,0,B|517:144|510:169|510:169|496:196|496:196|515:221|511:263,1,146.999995513916,2|2,0:2|0:0,0:0:0:0:
375,321,36498,2,0,L|296:304,2,70,2|2|2,0:0|0:0|0:0,0:0:0:0:
512,374,37098,5,2,0:0:0:0:
0,184,41292,5,8,0:3:0:0:
0,184,41366,1,8,0:3:0:0:
0,184,41440,1,8,0:3:0:0:
0,184,41515,1,8,0:3:0:0:
0,184,41589,2,0,L|12:252,1,52.5000020027161,12|0,0:2|0:0,0:0:0:0:
98,295,41886,6,0,P|145:278|230:319,2,140,4|10|2,3:1|0:2|3:2,0:0:0:0:
0,347,42629,1,0,3:2:0:0:
9,235,42777,2,0,L|10:157,1,70,10|0,2:2|3:2,0:0:0:0:
170,138,43074,6,0,B|99:127|99:127|89:97|42:70,1,140,2|10,3:2|0:2,0:0:0:0:
141,21,43520,1,0,3:2:0:0:
141,21,43668,2,0,L|217:14,1,70,2|0,3:2|3:2,0:0:0:0:
239,148,43965,2,0,L|153:135,1,70,10|0,0:2|3:2,0:0:0:0:
292,28,44262,6,0,B|333:62|333:62|320:170,2,140,2|10|2,3:2|0:2|3:2,0:0:0:0:
197,56,45005,1,0,3:2:0:0:
106,18,45153,1,10,0:2:0:0:
0,174,45450,6,0,L|9:249,1,70,2|0,3:2|3:2,0:0:0:0:
27,340,45747,1,8,0:2:0:0:
135,269,45896,2,0,P|168:258|203:263,1,70,6|0,3:2|0:0,0:0:0:0:
269,342,46193,1,2,3:2:0:0:
269,342,46341,2,0,P|240:361|205:365,1,70,10|0,0:2|3:2,0:0:0:0:
136,270,46638,6,0,L|122:121,1,140,6|10,3:2|0:2,0:0:0:0:
143,34,47084,1,0,3:2:0:0:
229,81,47233,2,0,P|264:81|303:65,1,70,2|0,3:2|3:2,0:0:0:0:
143,34,47530,2,0,P|108:34|69:50,1,70,10|0,0:2|3:2,0:0:0:0:
14,163,47827,6,0,B|83:185|83:185|123:130,2,140,2|10|2,3:2|0:2|3:2,0:0:0:0:
44,70,48569,1,0,3:2:0:0:
122,130,48718,1,10,0:2:0:0:
282,54,49015,6,0,B|315:56|338:46|338:46|362:62|362:62|397:64|442:79,1,140,2|10,3:2|0:2,0:0:0:0:
498,121,49460,1,0,3:2:0:0:
425,191,49609,2,0,P|394:184|351:171,1,70,2|0,3:2|3:2,0:0:0:0:
293,249,49906,2,0,P|310:283|324:329,1,70,10|0,0:2|3:2,0:0:0:0:
235,362,50203,5,2,3:2:0:0:
235,362,50351,1,0,3:2:0:0:
179,249,50500,2,0,P|162:287|149:333,1,70,14|0,0:2|3:2,0:0:0:0:
62,361,50797,2,0,P|54:315|41:279,1,70,2|8,3:2|0:2,0:0:0:0:
34,285,51020,1,8,0:2:0:0:
25,274,51094,2,0,P|11:255|3:236,3,35,8|8|8|8,0:2|0:0|0:2|0:2,0:0:0:0:
25,210,51391,6,0,B|22:157|22:157|0:129|0:129|-3:52,2,140,4|10|2,0:1|0:2|3:2,0:0:0:0:
76,293,52134,1,0,3:2:0:0:
151,230,52282,2,0,L|165:149,1,70,10|0,0:2|3:2,0:0:0:0:
307,92,52579,6,0,B|282:119|237:106|237:106|221:81|184:70,1,140,2|10,3:2|2:2,0:0:0:0:
89,95,53025,1,0,3:2:0:0:
162,161,53173,2,0,L|168:237,1,70,2|0,3:2|3:2,0:0:0:0:
263,251,53470,2,0,L|277:178,1,70,10|0,0:2|3:2,0:0:0:0:
339,315,53767,6,0,P|406:332|455:278,2,140,2|10|2,3:2|0:2|3:2,0:0:0:0:
263,251,54510,1,0,3:2:0:0:
300,160,54658,2,0,P|311:132|312:85,1,70,10|0,0:2|3:2,0:0:0:0:
224,27,54955,5,2,3:2:0:0:
224,27,55104,2,0,B|132:18,1,70,2|10,3:2|0:2,0:0:0:0:
26,43,55401,2,0,B|72:56|72:56|105:18|171:21,1,140,6|2,3:2|3:2,0:0:0:0:
199,114,55846,2,0,P|185:154|175:194,1,70,10|8,0:2|0:2,0:0:0:0:
176,198,56069,1,8,0:2:0:0:
182,214,56143,6,0,P|232:262|238:348,2,140,6|10|2,3:2|0:2|3:2,0:0:0:0:
84,222,56886,1,0,3:2:0:0:
20,148,57034,2,0,P|9:121|12:73,1,70,10|0,3:2|3:2,0:0:0:0:
159,30,57331,6,0,L|90:23,1,70,2|0,3:2|3:2,0:0:0:0:
203,116,57629,2,0,L|133:121,1,70,8|0,0:2|3:2,0:0:0:0:
261,32,57926,1,2,3:2:0:0:
261,32,58074,1,2,3:2:0:0:
312,121,58223,1,8,0:3:0:0:
466,36,58520,6,0,L|396:21,1,70,6|2,0:2|3:2,0:0:0:0:
470,126,58817,1,10,0:2:0:0:
470,126,58965,2,0,L|399:148,1,70,10|2,0:2|3:2,0:0:0:0:
312,121,59262,5,2,3:2:0:0:
338,215,59411,2,0,L|329:284,1,70,14|0,0:2|3:2,0:0:0:0:
403,146,59708,5,0,3:2:0:0:
429,240,59856,2,0,L|420:309,1,70,12|0,2:2|0:2,0:0:0:0:
298,361,60153,5,8,0:3:0:0:
298,361,60302,2,0,L|220:340,1,70,8|8,0:3|0:3,0:0:0:0:
119,374,60599,1,10,0:2:0:0:
0,211,60896,6,0,L|9:85,2,112,4|10|2,3:2|0:2|3:2,0:0:0:0:
0,211,61638,1,0,3:2:0:0:
40,284,61787,2,0,P|79:288|116:274,1,56,10|2,0:2|0:2,0:0:0:0:
160,237,62084,2,0,P|223:219|289:236,2,112,2|10|2,3:2|0:2|3:2,0:0:0:0:
94,284,62827,2,0,L|102:364,1,56,2|8,3:2|0:0,0:0:0:0:
281,370,63272,6,0,B|310:361|310:361|351:369|351:369|403:354,2,112,2|10|2,3:2|0:2|3:2,0:0:0:0:
281,370,64015,1,0,3:2:0:0:
219,320,64163,2,0,L|239:203,1,112,10|2,0:2|3:2,0:0:0:0:
285,135,64609,5,8,0:2:0:0:
294,124,64683,1,8,0:2:0:0:
302,113,64757,2,0,L|284:38,1,56,8|10,0:2|0:3,0:0:0:0:
144,34,65203,1,6,0:3:0:0:
0,10,65500,1,8,0:2:0:0:
60,65,65648,6,0,B|65:107|65:107|52:130|52:130|57:189,2,112,6|10|2,3:2|0:2|3:2,0:0:0:0:
60,65,66391,1,0,3:2:0:0:
129,28,66539,2,0,L|203:19,1,56,10|0,0:2|3:0,0:0:0:0:
254,57,66836,2,0,L|252:135,1,56,0|0,3:3|3:2,0:0:0:0:
304,179,67134,1,10,0:2:0:0:
304,179,67282,2,0,L|432:176,1,112,2|0,3:2|3:2,0:0:0:0:
489,147,67728,1,10,0:2:0:0:
481,224,67876,1,8,0:2:0:0:
478,237,67950,1,8,0:2:0:0:
475,250,68025,6,0,B|466:281|466:281|484:325|469:370,1,112,2|10,3:2|0:2,0:0:0:0:
393,376,68470,1,2,0:2:0:0:
393,376,68619,2,0,P|336:354|263:355,1,112,2|10,3:2|0:2,0:0:0:0:
209,369,69064,1,2,0:2:0:0:
209,369,69213,2,0,L|199:295,1,56,10|2,0:2|3:2,0:0:0:0:
135,270,69510,1,0,0:0:0:0:
135,270,69658,2,0,B|189:278|189:278|230:238,1,112,6|8,3:2|0:3,0:0:0:0:
237,222,70030,1,8,0:3:0:0:
241,205,70104,1,10,0:2:0:0:
122,65,70401,6,0,B|79:59|79:59|44:72|44:72|-14:63,2,125.999996154785,6|10|2,3:2|0:2|3:2,0:0:0:0:
197,109,71143,1,0,3:2:0:0:
223,24,71292,2,0,L|298:14,1,62.9999980773926,10|0,0:2|3:2,0:0:0:0:
394,80,71589,6,0,B|343:84|343:84|371:57|373:18,1,125.999996154785,2|10,3:2|0:2,0:0:0:0:
466,39,72034,2,0,L|421:168,1,125.999996154785,0|2,3:2|3:2,0:0:0:0:
350,205,72480,2,0,L|306:156,1,62.9999980773926,8|0,0:2|3:0,0:0:0:0:
296,147,72703,1,8,0:3:0:0:
281,140,72777,6,0,B|222:128|217:165|157:147,2,125.999996154785,2|10|2,3:2|0:2|3:2,0:0:0:0:
349,83,73520,1,0,3:2:0:0:
292,15,73668,2,0,P|268:8|207:0,1,62.9999980773926,10|0,0:2|3:2,0:0:0:0:
154,47,73965,5,2,3:2:0:0:
64,21,74114,1,8,0:2:0:0:
64,21,74188,1,8,0:2:0:0:
64,21,74262,2,0,P|71:52|73:106,1,62.9999980773926,8|10,0:2|0:3,0:0:0:0:
0,228,74708,1,6,0:3:0:0:
122,336,75005,1,8,0:2:0:0:
87,255,75153,6,0,L|73:115,2,125.999996154785,6|10|2,3:2|0:2|3:2,0:0:0:0:
122,336,75896,1,0,3:2:0:0:
203,304,76044,2,0,P|235:292|272:294,1,62.9999980773926,10|0,0:2|0:2,0:0:0:0:
388,362,76341,6,0,P|357:362|328:351,1,62.9999980773926,2|0,3:2|3:2,0:0:0:0:
278,277,76638,1,10,0:2:0:0:
326,203,76787,2,0,B|346:163|343:124|343:124|313:59,1,125.999996154785,2|0,0:2|3:2,0:0:0:0:
244,46,77233,1,8,0:2:0:0:
167,102,77381,5,8,0:3:0:0:
167,102,77455,1,8,0:3:0:0:
167,102,77530,2,0,L|146:177,1,62.9999980773926,2|0,3:2|0:0,0:0:0:0:
104,238,77827,2,0,L|125:313,1,62.9999980773926,8|2,0:2|0:2,0:0:0:0:
241,312,78124,6,0,P|198:293|110:303,1,125.999996154785,2|12,3:2|0:2,0:0:0:0:
46,88,78718,2,0,P|89:107|177:97,1,125.999996154785,6|10,3:2|0:2,0:0:0:0:
253,51,79163,1,0,3:2:0:0:
253,51,79312,2,0,B|248:85|257:112|257:112|236:137|230:197,1,125.999996154785,2|8,3:2|0:2,0:0:0:0:
323,240,79757,6,0,B|328:206|319:179|319:179|340:154|346:94,1,125.999996154785,6|2,3:2|3:2,0:0:0:0:
395,50,80203,1,10,0:2:0:0:
452,116,80351,2,0,L|463:193,1,62.9999980773926,0|2,0:2|3:2,0:0:0:0:
509,252,80648,1,0,0:2:0:0:
509,252,80797,1,10,0:2:0:0:
452,319,80945,5,2,3:2:0:0:
319,202,81242,2,0,L|313:264,2,62.9999980773926,2|10|0,3:2|0:2|3:2,0:0:0:0:
330,114,81688,1,2,0:2:0:0:
249,91,81836,2,0,L|183:81,1,62.9999980773926,0|8,3:2|0:2,0:0:0:0:
64,72,82134,6,0,B|112:65|112:65|141:79|141:79|212:82,1,125.999996154785,2|2,3:3|3:2,0:0:0:0:
229,169,82579,2,0,L|205:297,1,125.999996154785,10|2,0:2|0:2,0:0:0:0:
128,348,83025,2,0,L|114:275,1,62.9999980773926,0|8,3:2|0:2,0:0:0:0:
39,242,83322,5,2,3:2:0:0:
72,68,83619,1,2,3:2:0:0:
72,68,83767,2,0,B|116:63|157:82|157:82|193:69,1,125.999996154785,10|2,0:2|0:2,0:0:0:0:
328,24,84213,5,0,3:2:0:0:
328,24,84361,1,8,0:2:0:0:
352,108,84510,1,2,0:3:0:0:
505,194,84807,2,0,L|514:110,2,62.9999980773926,2|10|0,3:2|0:2|0:2,0:0:0:0:
413,344,85401,5,2,3:2:0:0:
413,344,85549,1,10,0:2:0:0:
489,373,85698,1,0,3:2:0:0:
505,194,85995,2,0,L|514:110,2,62.9999980773926,2|8|2,3:2|0:2|0:2,0:0:0:0:
349,277,86589,6,0,L|340:193,1,62.9999980773926,2|8,3:2|0:2,0:0:0:0:
281,141,86886,2,0,P|217:125|149:132,1,125.999996154785,2|0,3:3|3:2,0:0:0:0:
90,187,87332,2,0,P|57:182|17:166,1,62.9999980773926,10|0,0:2|0:2,0:0:0:0:
32,83,87629,2,0,P|61:72|92:68,1,62.9999980773926,2|0,0:2|3:2,0:0:0:0:
157,129,87926,1,8,0:2:0:0:
218,68,88074,6,0,P|213:137|210:220,1,125.999996154785,6|2,3:2|3:2,0:0:0:0:
274,264,88520,2,0,P|281:307|280:348,1,62.9999980773926,10|8,0:2|0:2,0:0:0:0:
275,341,88742,1,8,0:2:0:0:
266,354,88817,2,0,L|176:347,1,62.9999980773926,8|8,0:2|0:3,0:0:0:0:
120,380,89114,1,12,0:3:0:0:
39,314,89262,6,0,B|49:285|49:285|21:238|40:194,1,125.999996154785,6|0,0:2|3:2,0:0:0:0:
154,216,89708,1,10,0:2:0:0:
154,216,89856,2,0,P|95:238|36:177,1,140,2|2,3:2|3:2,0:0:0:0:
18,98,90302,1,10,0:2:0:0:
88,29,90450,5,2,3:2:0:0:
227,167,90747,2,0,L|318:174,2,70,2|10|2,3:2|0:2|3:2,0:0:0:0:
196,66,91193,1,2,3:2:0:0:
196,66,91341,2,0,L|267:40,1,70,2|8,3:2|2:2,0:0:0:0:
394,41,91638,6,0,B|336:31|336:31|310:49|310:49|249:39,1,140,2|2,0:2|3:2,0:0:0:0:
376,129,92084,2,0,L|452:123,1,70,10|2,0:2|3:2,0:0:0:0:
318,196,92381,1,2,3:2:0:0:
318,196,92530,2,0,L|231:216,1,70,0|8,3:2|0:2,0:0:0:0:
398,236,92827,5,2,3:2:0:0:
252,367,93124,1,2,3:2:0:0:
252,367,93272,1,8,0:0:0:0:
98,245,93569,2,0,L|103:164,1,70,2|0,3:2|3:2,0:0:0:0:
17,125,93866,1,10,0:2:0:0:
98,36,94015,6,0,B|139:27|139:27|176:45|176:45|240:30,1,140,6|2,3:2|3:2,0:0:0:0:
342,31,94460,2,0,L|297:90,1,70,10|0,0:2|3:2,0:0:0:0:
356,167,94757,2,0,L|426:162,1,70,2|2,3:2|3:2,0:0:0:0:
504,231,95054,1,10,0:2:0:0:
435,313,95203,6,0,B|395:312|364:296|364:296|360:330|332:361,1,140,2|2,3:2|3:2,0:0:0:0:
239,357,95648,1,10,0:2:0:0:
239,357,95797,1,0,3:2:0:0:
164,289,95945,2,0,B|176:246|176:246|144:202|154:144,1,140,2|10,3:2|0:2,0:0:0:0:
246,48,96391,6,0,B|237:94|269:138|269:138|257:181,1,140,6|2,0:2|3:2,0:0:0:0:
176,245,96836,1,10,0:2:0:0:
256,329,96985,1,8,0:2:0:0:
256,329,97059,1,8,0:2:0:0:
256,329,97134,2,0,P|290:324|326:330,1,70,8|4,0:3|0:3,0:0:0:0:
411,381,97431,1,8,0:3:0:0:
473,277,97579,22,0,B|482:246|505:231|505:231|510:184|481:153|481:153|441:136|415:161|415:161|416:193|455:199,1,269.500008224488,4|8,2:0|0:2,0:0:0:0:
451,198,98916,6,0,L|458:6,2,167.999994873047,4|10|2,3:1|0:2|3:2,0:0:0:0:
315,369,99807,1,8,0:2:0:0:
254,278,99955,6,0,B|217:237|217:237|229:301|180:341,1,167.999994873047,2|2,3:2|3:2,0:0:0:0:
78,373,100401,1,8,0:2:0:0:
4,292,100549,2,0,P|-4:258|3:192,1,83.9999974365235,2|0,0:2|3:2,0:0:0:0:
94,157,100846,2,0,P|133:144|168:120,1,83.9999974365235,0|8,3:2|0:2,0:0:0:0:
227,27,101143,1,2,0:2:0:0:
95,3,101292,6,0,P|65:91|114:175,1,167.999994873047,2|10,3:2|0:2,0:0:0:0:
270,283,101886,1,2,3:2:0:0:
346,205,102034,2,0,P|383:187|437:193,1,83.9999974365235,2|8,3:2|0:2,0:0:0:0:
486,302,102332,6,0,B|441:297|441:297|386:249|424:188,1,167.999994873047,2|2,3:2|3:2,0:0:0:0:
490,100,102777,1,8,0:2:0:0:
401,35,102926,2,0,P|358:21|301:28,1,83.9999974365235,2|0,3:2|0:2,0:0:0:0:
256,142,103223,2,0,P|298:143|338:130,1,83.9999974365235,2|8,3:2|0:2,0:0:0:0:
225,48,103520,1,2,3:2:0:0:
144,126,103668,6,0,B|131:173|156:214|156:214|160:249|109:284,1,167.999994873047,6|10,3:2|0:2,0:0:0:0:
318,366,104262,2,0,B|331:319|306:278|306:278|302:243|353:208,1,167.999994873047,2|8,3:2|0:2,0:0:0:0:
464,152,104708,6,0,B|408:177|408:177|279:136,1,167.999994873047,2|2,3:2|3:2,0:0:0:0:
208,96,105153,1,8,0:2:0:0:
297,33,105302,2,0,B|337:15|337:15|390:25,1,83.9999974365235,2|0,0:2|0:2,0:0:0:0:
208,96,105599,2,0,B|168:114|168:114|115:104,2,83.9999974365235,2|8|8,3:2|0:2|0:3,0:0:0:0:
286,157,106044,6,0,B|298:85|248:43|248:43|210:58|206:104,1,195.999994018555,14|0,3:2|3:2,0:0:0:0:
229,220,106490,2,0,P|339:200|440:192,1,195.999994018555,14|0,3:2|3:2,0:0:0:0:
512,298,106935,2,0,P|402:318|301:326,1,195.999994018555,14|0,3:2|3:2,0:0:0:0:
185,378,107381,2,0,B|182:331|225:300|225:300|266:331|266:331|288:321|324:325,1,195.999994018555,14|8,3:2|2:2,0:0:0:0:
429,365,107827,6,0,L|432:312,3,35,8|8|8|8,0:2|0:2|0:2|0:2,0:0:0:0:
452,321,108124,2,0,L|440:239,1,70,8|8,0:3|0:3,0:0:0:0:
376,139,108421,6,0,B|322:128|322:128|275:162|275:162|220:151,2,167.999994873047,4|10|2,3:1|0:2|3:2,0:0:0:0:
457,341,109312,1,10,0:2:0:0:
489,237,109460,6,0,B|472:190|472:190|495:134|460:63,1,167.999994873047,2|2,3:2|3:2,0:0:0:0:
368,24,109906,1,8,0:2:0:0:
280,89,110054,2,0,L|188:81,1,83.9999974365235,2|0,3:2|3:2,0:0:0:0:
96,128,110351,2,0,P|80:163|89:233,1,83.9999974365235,2|8,3:2|0:2,0:0:0:0:
138,299,110648,1,2,3:2:0:0:
241,214,110797,6,0,B|158:176|157:247|78:207,1,167.999994873047,2|10,3:2|2:2,0:0:0:0:
295,35,111391,2,0,P|353:24|406:29,1,83.9999974365235,2|0,3:2|3:2,0:0:0:0:
476,71,111688,1,10,0:2:0:0:
411,170,111836,6,0,B|394:232|417:243|428:261|434:298|404:351,1,167.999994873047,2|2,3:2|3:2,0:0:0:0:
308,363,112282,1,8,0:2:0:0:
232,284,112431,2,0,L|225:200,1,83.9999974365235,2|0,3:2|0:2,0:0:0:0:
162,368,112728,2,0,P|114:373|73:341,1,83.9999974365235,2|8,3:2|0:2,0:0:0:0:
11,273,113025,1,2,3:2:0:0:
102,193,113173,6,0,B|113:155|101:116|96:117|92:118|79:71|108:29,1,167.999994873047,6|10,3:2|0:2,0:0:0:0:
336,90,113767,2,0,P|296:102|255:92,1,83.9999974365235,2|2,3:2|3:2,0:0:0:0:
398,13,114064,1,8,0:2:0:0:
464,109,114213,6,0,B|494:147|494:147|489:224|489:224|442:266,1,167.999994873047,2|2,3:2|3:2,0:0:0:0:
356,293,114658,1,8,0:2:0:0:
294,202,114807,2,0,L|287:107,1,83.9999974365235,2|0,3:2|0:2,0:0:0:0:
356,293,115104,2,0,L|363:388,2,83.9999974365235,2|10|8,3:2|0:2|0:3,0:0:0:0:
272,196,115549,6,0,B|229:171|184:195|184:195|117:195|103:137,1,195.999994018555,14|0,3:2|3:2,0:0:0:0:
115,12,115995,2,0,B|163:32|163:32|190:115|104:142,1,195.999994018555,14|0,3:2|3:2,0:0:0:0:
1,62,116440,2,0,B|44:32|44:32|128:54|104:141,1,195.999994018555,14|0,3:2|3:2,0:0:0:0:
0,239,116886,2,0,P|13:149|103:141,1,195.999994018555,14|0,3:2|3:2,0:0:0:0:
242,218,117332,5,8,0:3:0:0:
195,140,117480,1,8,0:3:0:0:
151,220,117629,1,8,0:0:0:0:
304,326,117926,6,0,B|345:332|345:332|373:361|373:361|442:372,2,125.999996154785,4|10|2,3:2|0:2|3:2,0:0:0:0:
218,303,118668,1,0,3:2:0:0:
281,240,118817,2,0,P|290:207|281:167,1,62.9999980773926,10|2,0:2|0:2,0:0:0:0:
217,106,119114,6,0,L|74:94,1,125.999996154785,2|10,3:2|0:2,0:0:0:0:
2,248,119708,1,2,3:2:0:0:
69,304,119856,2,0,L|140:298,1,62.9999980773926,2|8,3:2|0:2,0:0:0:0:
273,193,120302,6,0,B|202:185|216:228|152:218,1,125.999996154785,2|10,3:2|0:2,0:0:0:0:
83,165,120747,1,0,0:0:0:0:
96,77,120896,2,0,P|121:53|153:42,1,62.9999980773926,2|0,3:2|3:2,0:0:0:0:
233,60,121193,2,0,B|273:83|273:83|376:54,1,125.999996154785,10|2,0:2|3:2,0:0:0:0:
433,16,121638,5,8,0:2:0:0:
447,21,121713,1,8,0:2:0:0:
461,25,121787,2,0,L|474:108,1,62.9999980773926,8|10,0:2|0:3,0:0:0:0:
508,247,122233,1,6,0:3:0:0:
351,198,122530,1,8,0:2:0:0:
417,263,122678,6,0,B|425:312|425:312|411:340|411:340|417:384,2,125.999996154785,6|10|2,3:2|0:2|3:2,0:0:0:0:
351,198,123421,1,0,3:2:0:0:
277,246,123569,2,0,P|242:250|203:237,1,62.9999980773926,10|0,0:2|0:2,0:0:0:0:
183,154,123866,6,0,L|177:74,1,62.9999980773926,2|0,3:2|3:2,0:0:0:0:
126,22,124163,1,10,0:2:0:0:
126,22,124312,2,0,B|56:13|56:13|15:63,1,125.999996154785,2|0,3:2|3:2,0:0:0:0:
0,142,124757,1,10,0:2:0:0:
60,205,124906,1,8,0:2:0:0:
63,218,124980,1,8,0:2:0:0:
66,231,125054,6,0,B|116:227|116:227|150:254|194:254,1,125.999996154785,2|10,3:2|0:2,0:0:0:0:
262,210,125500,1,2,0:2:0:0:
321,275,125648,1,2,3:2:0:0:
461,167,125945,6,0,L|465:93,2,62.9999980773926,14|2|10,0:2|0:2|0:2,0:0:0:0:
502,245,126391,1,2,3:2:0:0:
321,275,126688,2,0,B|277:273|277:273|249:295|249:295|199:293,1,125.999996154785,6|8,3:2|0:3,0:0:0:0:
132,345,127134,1,10,0:2:0:0:
67,284,127282,1,8,0:3:0:0:
65,270,127356,1,8,0:3:0:0:
63,256,127431,6,0,B|48:214|48:214|21:189|21:189|3:133,2,125.999996154785,6|10|2,3:2|0:2|3:2,0:0:0:0:
44,341,128173,1,0,3:2:0:0:
132,345,128322,2,0,L|207:335,1,62.9999980773926,10|0,0:2|3:2,0:0:0:0:
288,318,128619,6,0,B|229:303|229:303|203:212,1,125.999996154785,2|10,3:2|0:2,0:0:0:0:
273,178,129064,2,0,L|422:157,1,125.999996154785,0|2,3:2|3:2,0:0:0:0:
470,109,129510,2,0,B|476:78|476:78|461:45,1,62.9999980773926,8|8,0:2|0:3,0:0:0:0:
448,43,129733,1,8,0:3:0:0:
432,38,129807,6,0,B|398:29|371:42|374:51|343:61|306:48,2,125.999996154785,2|10|2,3:2|0:2|3:2,0:0:0:0:
499,95,130549,1,0,3:2:0:0:
466,176,130698,2,0,L|461:257,1,62.9999980773926,10|0,0:2|3:2,0:0:0:0:
512,324,130995,5,2,3:2:0:0:
428,354,131143,1,8,0:2:0:0:
428,354,131218,1,8,0:2:0:0:
428,354,131292,2,0,P|401:335|352:313,1,62.9999980773926,8|10,0:2|0:3,0:0:0:0:
212,291,131737,1,6,0:3:0:0:
68,369,132034,1,8,0:2:0:0:
21,294,132183,6,0,P|14:230|7:154,2,125.999996154785,6|10|2,3:2|0:2|3:2,0:0:0:0:
68,369,132926,1,0,3:2:0:0:
123,300,133074,2,0,L|130:234,1,62.9999980773926,10|0,0:2|0:2,0:0:0:0:
198,157,133371,6,0,P|227:144|277:152,1,62.9999980773926,2|0,3:2|3:2,0:0:0:0:
340,176,133668,1,10,0:2:0:0:
424,151,133817,2,0,P|451:89|406:24,1,125.999996154785,2|0,3:2|3:2,0:0:0:0:
344,10,134262,1,8,0:2:0:0:
263,58,134411,5,8,0:3:0:0:
263,58,134485,1,8,0:3:0:0:
263,58,134559,2,0,L|255:135,1,62.9999980773926,2|0,3:2|0:0,0:0:0:0:
219,200,134856,2,0,P|185:208|136:194,1,62.9999980773926,8|2,0:2|0:2,0:0:0:0:
60,152,135153,6,0,P|120:155|157:204,1,125.999996154785,2|12,3:2|0:2,0:0:0:0:
97,369,135747,2,0,P|36:365|0:316,1,125.999996154785,6|10,3:2|0:2,0:0:0:0:
86,237,136193,1,0,3:2:0:0:
86,237,136341,2,0,B|128:234|128:234|153:250|153:250|210:247,1,125.999996154785,2|8,3:2|0:2,0:0:0:0:
299,243,136787,6,0,P|259:233|233:157,1,125.999996154785,6|2,3:2|3:2,0:0:0:0:
263,77,137233,1,10,0:2:0:0:
335,127,137381,2,0,B|376:154|376:154|462:137,1,125.999996154785,2|0,3:2|0:2,0:0:0:0:
510,72,137827,1,10,0:2:0:0:
457,1,137975,5,2,3:2:0:0:
335,127,138272,2,0,L|342:192,2,62.9999980773926,2|10|0,3:2|0:2|3:2,0:0:0:0:
263,77,138718,1,2,0:2:0:0:
209,147,138866,2,0,L|201:227,1,62.9999980773926,0|8,3:2|0:2,0:0:0:0:
281,280,139163,6,0,B|345:260|341:303|408:282,1,125.999996154785,2|2,3:3|3:2,0:0:0:0:
469,224,139609,2,0,L|472:146,1,62.9999980773926,10|0,0:2|0:2,0:0:0:0:
510,81,139906,1,2,0:2:0:0:
433,36,140054,2,0,L|356:27,1,62.9999980773926,0|8,3:2|0:2,0:0:0:0:
300,83,140351,5,2,3:2:0:0:
144,13,140648,1,2,3:2:0:0:
144,13,140797,2,0,B|168:39|168:39|154:154,1,125.999996154785,10|2,0:2|0:2,0:0:0:0:
85,210,141242,5,0,3:2:0:0:
85,210,141391,1,8,0:2:0:0:
69,122,141539,1,2,0:3:0:0:
247,78,141836,2,0,L|316:67,2,62.9999980773926,2|10|0,3:2|0:2|0:2,0:0:0:0:
80,34,142431,5,2,3:2:0:0:
80,34,142579,1,10,0:2:0:0:
69,122,142728,2,0,B|65:165|65:165|45:189|45:189|39:239,1,125.999996154785,0|2,3:2|3:2,0:0:0:0:
92,310,143173,1,8,0:2:0:0:
168,266,143322,2,0,P|232:248|302:272,1,125.999996154785,2|2,0:2|3:2,0:0:0:0:
356,319,143767,1,8,0:2:0:0:
439,264,143916,6,0,L|449:136,1,125.999996154785,2|0,3:3|3:2,0:0:0:0:
383,78,144361,2,0,P|355:87|312:82,1,62.9999980773926,10|0,0:2|0:2,0:0:0:0:
249,33,144658,2,0,P|219:23|187:25,1,62.9999980773926,2|0,0:2|3:2,0:0:0:0:
115,77,144955,1,8,0:2:0:0:
49,13,145104,6,0,L|66:164,1,125.999996154785,6|2,3:2|3:2,0:0:0:0:
89,222,145549,2,0,P|131:231|172:232,1,62.9999980773926,10|8,0:2|0:2,0:0:0:0:
165,227,145772,1,8,0:2:0:0:
179,219,145846,2,0,P|182:180|197:138,1,62.9999980773926,8|8,0:2|0:3,0:0:0:0:
259,104,146143,1,12,0:3:0:0:
321,189,146292,6,0,B|328:235|328:235|317:277|317:277|327:331,1,140,6|0,0:2|3:2,0:0:0:0:
439,355,146737,1,10,0:2:0:0:
439,355,146886,2,0,B|448:305|448:305|437:263|437:263|444:217,1,140,2|2,3:2|3:2,0:0:0:0:
507,143,147332,1,10,0:2:0:0:
460,56,147480,5,2,3:2:0:0:
321,189,147777,2,0,L|325:261,2,70,2|10|2,3:2|0:2|3:2,0:0:0:0:
265,108,148223,1,2,3:2:0:0:
185,165,148371,2,0,P|145:171|105:156,1,70,2|8,3:2|2:2,0:0:0:0:
40,91,148668,6,0,B|81:79|81:79|131:114|114:183,1,140,2|2,0:2|3:2,0:0:0:0:
45,229,149114,2,0,P|33:260|30:305,1,70,10|2,0:2|3:2,0:0:0:0:
129,353,149411,1,2,3:2:0:0:
129,353,149559,2,0,L|225:337,1,70,0|8,3:2|0:2,0:0:0:0:
276,282,149856,5,2,3:2:0:0:
461,346,150153,1,2,3:2:0:0:
461,346,150302,1,10,0:2:0:0:
419,154,150599,2,0,L|424:73,1,70,2|0,3:2|3:2,0:0:0:0:
366,4,150896,1,10,0:2:0:0:
274,62,151044,6,0,B|264:112|264:112|280:147|280:147|270:203,1,140,6|2,3:2|3:2,0:0:0:0:
188,248,151490,2,0,L|175:161,1,70,10|0,0:2|3:2,0:0:0:0:
137,88,151787,2,0,P|107:78|67:83,1,70,2|2,3:2|3:2,0:0:0:0:
0,154,152084,1,10,0:2:0:0:
67,231,152233,6,0,B|146:207|146:207|187:247,1,140,6|2,3:2|3:2,0:0:0:0:
246,333,152678,1,10,0:2:0:0:
246,333,152827,1,0,3:2:0:0:
322,270,152975,2,0,L|336:118,1,140,2|10,3:2|0:2,0:0:0:0:
453,142,153421,6,0,B|418:175|363:164|363:164|330:125,1,140,6|2,0:2|3:2,0:0:0:0:
266,59,153866,1,10,0:2:0:0:
201,131,154015,1,8,0:2:0:0:
201,131,154089,1,8,0:2:0:0:
201,131,154163,2,0,L|191:207,1,70,8|4,0:3|0:3,0:0:0:0:
128,275,154460,1,8,0:3:0:0:
52,178,154609,6,0,L|59:83,1,77.0000023498536,10|0,0:0|3:0,0:0:0:0:
135,34,154906,2,8,L|196:21,14,38.5000011749268,8|8|8|8|8|8|8|8|8|8|8|8|8|8|10,0:2|0:2|0:2|0:2|0:2|0:2|0:2|0:2|0:2|0:2|0:2|0:2|0:2|0:2|0:3,0:2:0:0:
167,226,156242,6,0,P|160:279|189:335,1,83.9999974365235,14|0,0:2|0:2,0:0:0:0:
268,353,156539,2,0,L|370:346,1,83.9999974365235,2|0,3:2|3:2,0:0:0:0:
457,376,156836,1,8,0:2:0:0:
506,265,156985,6,0,B|482:231|482:231|478:187|506:148|506:148|485:115,1,167.999994873047,6|2,3:2|3:2,0:0:0:0:
395,54,157431,1,8,0:2:0:0:
292,90,157579,2,0,L|208:81,1,83.9999974365235,2|0,0:2|3:2,0:0:0:0:
136,163,157876,2,0,L|154:261,1,83.9999974365235,0|8,3:2|0:2,0:0:0:0:
71,320,158173,1,2,0:2:0:0:
0,215,158322,6,0,B|15:180|15:180|-4:142|-4:94|-4:94|29:47,2,167.999994873047,2|10|2,3:2|0:2|3:2,0:0:0:0:
177,342,159213,1,8,0:2:0:0:
269,285,159361,6,0,B|312:275|312:275|373:297|373:297|435:286,1,167.999994873047,2|2,3:2|3:2,0:0:0:0:
504,204,159807,1,8,0:2:0:0:
439,116,159955,2,0,L|335:101,1,83.9999974365235,2|0,3:2|0:2,0:0:0:0:
272,191,160252,2,0,L|363:188,1,83.9999974365235,2|8,3:2|0:2,0:0:0:0:
268,88,160549,1,2,3:2:0:0:
179,164,160698,6,0,B|165:214|191:252|191:252|191:297|137:316,1,167.999994873047,6|10,3:2|0:2,0:0:0:0:
0,156,161292,2,0,B|14:106|-12:68|-12:68|-12:23|42:4,1,167.999994873047,2|8,3:2|0:2,0:0:0:0:
137,55,161737,6,0,B|206:51|206:51|225:58|225:58|303:55,1,167.999994873047,2|2,3:2|3:2,0:0:0:0:
386,126,162183,1,8,0:2:0:0:
486,81,162332,2,0,L|506:-26,1,83.9999974365235,2|0,0:2|0:2,0:0:0:0:
386,126,162629,2,0,L|366:233,2,83.9999974365235,2|8|8,3:2|0:2|0:3,0:0:0:0:
289,38,163074,6,0,B|335:17|335:17|405:75|405:75|386:126,1,195.999994018555,14|0,3:2|3:2,0:0:0:0:
283,167,163520,2,0,B|258:122|258:122|254:71|254:71|194:44|151:95,1,195.999994018555,14|0,3:2|3:2,0:0:0:0:
109,201,163965,2,0,B|127:174|167:170|167:170|196:190|196:190|236:159|305:169,1,195.999994018555,14|0,3:2|3:2,0:0:0:0:
381,255,164410,2,8,B|335:276|335:276|265:218|265:218|283:166,1,195.999994018555,14|8,0:2|0:2,0:0:0:0:
342,88,164856,6,0,L|345:35,3,35,8|8|8|8,0:2|0:2|0:2|0:2,0:0:0:0:
366,26,165153,2,0,P|386:20|415:28,3,35,8|8|8|8,0:3|0:3|0:3|0:3,0:0:0:0:
424,38,165450,6,0,B|450:62|458:82|458:82|450:130|450:130|458:167|483:192,2,167.999994873047,4|10|2,3:1|0:2|3:2,0:0:0:0:
207,13,166341,1,10,0:2:0:0:
118,76,166490,6,0,L|130:257,1,167.999994873047,2|2,3:2|3:2,0:0:0:0:
179,340,166935,1,8,0:2:0:0:
237,248,167084,2,0,P|271:235|329:240,1,83.9999974365235,2|0,3:2|3:2,0:0:0:0:
179,340,167381,2,0,P|145:353|87:348,1,83.9999974365235,2|8,3:2|0:2,0:0:0:0:
15,280,167678,1,2,3:2:0:0:
115,208,167827,6,0,B|128:156|128:156|82:118|87:51,1,167.999994873047,2|10,3:2|2:2,0:0:0:0:
304,33,168421,2,0,L|393:42,1,83.9999974365235,2|0,3:2|3:2,0:0:0:0:
490,6,168718,1,10,0:2:0:0:
488,121,168866,6,0,B|476:187|476:187|492:222|492:222|481:302,1,167.999994873047,2|2,3:2|3:2,0:0:0:0:
394,346,169312,1,8,0:2:0:0:
303,285,169460,2,0,L|287:201,1,83.9999974365235,2|0,3:2|0:2,0:0:0:0:
228,109,169757,2,0,P|192:91|125:93,1,83.9999974365235,2|8,3:2|0:2,0:0:0:0:
50,134,170054,1,2,3:2:0:0:
128,231,170203,6,0,B|163:239|203:219|193:207|230:183|287:202,1,167.999994873047,6|10,3:2|0:2,0:0:0:0:
435,363,170797,2,0,P|395:371|350:349,1,83.9999974365235,2|2,3:2|3:2,0:0:0:0:
264,294,171094,1,8,0:2:0:0:
372,242,171242,6,0,B|391:203|379:172|379:172|394:138|394:138|363:81,1,167.999994873047,2|2,3:2|3:2,0:0:0:0:
298,1,171688,1,8,0:2:0:0:
222,80,171836,2,0,B|177:75|177:75|150:91|150:91|119:62|58:66,1,167.999994873047,2|2,3:2|3:2,0:0:0:0:
0,155,172282,1,10,0:2:0:0:
0,155,172431,1,8,0:3:0:0:
68,237,172579,6,0,B|114:225|114:225|155:243|155:243|217:242|223:177,1,195.999994018555,14|0,3:2|3:2,0:0:0:0:
197,66,173025,2,0,B|169:68|145:90|145:90|139:151|183:190|233:178,1,195.999994018555,14|0,3:2|3:2,0:0:0:0:
324,121,173470,2,0,B|353:92|411:103|436:159|436:159|426:190|403:206,1,195.999994018555,14|0,3:2|3:2,0:0:0:0:
304,268,173916,2,0,B|273:269|248:253|248:253|234:222|234:222|179:195|137:239,1,195.999994018555,14|0,3:2|3:2,0:0:0:0:
58,316,174361,6,0,P|134:314|140:237,1,167.999994873047,8|8,0:3|0:0,0:0:0:0:
68,165,174807,6,0,B|42:125|42:125|35:60|100:31,1,154.000004699707,4|2,0:1|3:2,0:0:0:0:
184,61,175252,2,0,P|226:67|271:51,1,77.0000023498536,12|0,0:0|3:2,0:0:0:0:
354,26,175549,2,0,P|396:20|480:94,1,154.000004699707,2|10,3:2|0:0,0:0:0:0:
488,185,175995,1,0,3:2:0:0:
377,222,176143,6,0,B|320:210|320:210|283:224|283:224|215:212,1,154.000004699707,2|8,3:2|0:0,0:0:0:0:
149,151,176589,1,0,3:0:0:0:
71,214,176737,2,0,L|68:304,1,77.0000023498536,2|0,3:2|3:0,0:0:0:0:
140,360,177034,1,8,0:0:0:0:
233,296,177183,6,0,B|235:255|235:255|228:213|228:213|258:140,1,154.000004699707,4|2,3:1|3:2,0:0:0:0:
321,73,177629,1,12,0:0:0:0:
321,73,177777,1,0,3:2:0:0:
389,146,177926,2,0,B|415:211|415:211|408:253|408:253|410:294,1,154.000004699707,2|10,3:2|0:0,0:0:0:0:
335,359,178371,1,0,3:2:0:0:
239,304,178520,6,0,L|66:295,1,154.000004699707,2|8,3:2|0:0,0:0:0:0:
25,104,179114,2,0,L|198:95,1,154.000004699707,2|10,3:2|0:0,0:0:0:0:
286,141,179559,6,0,P|215:156|178:95,1,154.000004699707,4|2,3:1|3:2,0:0:0:0:
262,40,180005,2,0,B|312:30|350:57|350:57|386:56|411:32,2,154.000004699707,12|2|10,0:0|3:2|0:0,0:0:0:0:
178,95,180747,1,0,3:2:0:0:
243,178,180896,6,0,P|264:241|234:345,1,154.000004699707,2|8,3:2|0:0,0:0:0:0:
46,331,181490,2,0,P|25:268|55:164,1,154.000004699707,2|10,3:2|0:0,0:0:0:0:
152,159,181935,6,0,B|106:222|106:222|41:183,1,154.000004699707,4|2,3:1|3:2,0:0:0:0:
2,91,182381,2,0,L|24:1,1,77.0000023498536,12|0,0:0|3:2,0:0:0:0:
111,58,182678,2,0,L|274:30,1,154.000004699707,2|10,3:2|0:0,0:0:0:0:
357,65,183124,1,0,3:2:0:0:
450,8,183272,6,0,L|445:84,1,77.0000023498536,2|8,3:2|0:0,0:0:0:0:
454,101,183495,1,8,0:0:0:0:
462,118,183569,2,0,L|457:194,1,77.0000023498536,8|0,0:0|3:0,0:0:0:0:
500,285,183866,1,2,3:2:0:0:
417,342,184015,2,0,L|323:324,1,77.0000023498536,4|8,3:2|0:0,0:0:0:0:
256,265,184312,6,0,B|321:222|321:222|258:171,1,154.000004699707,4|0,3:1|3:3,0:0:0:0:
244,169,184683,1,0,3:3:0:0:
224,166,184757,2,0,L|60:141,2,154.000004699707,10|2|8,0:0|3:2|0:0,0:0:0:0:
308,112,185500,1,0,3:0:0:0:
361,210,185648,6,0,B|381:252|381:252|345:354,1,154.000004699707,2|8,3:2|0:0,0:0:0:0:
146,382,186242,2,0,B|110:280|110:280|130:238,1,154.000004699707,2|8,3:2|0:0,0:0:0:0:
227,216,186688,6,0,P|188:274|128:238,1,154.000004699707,4|0,0:1|3:0,0:0:0:0:
99,142,187134,1,8,0:0:0:0:
99,142,187282,1,0,3:0:0:0:
170,71,187431,2,0,B|221:56|221:56|260:79|260:79|338:62,1,154.000004699707,2|8,3:2|0:0,0:0:0:0:
512,154,188025,6,0,B|461:139|461:139|422:162|422:162|344:145,1,154.000004699707,2|8,3:2|0:0,0:0:0:0:
314,67,188470,1,0,3:0:0:0:
245,140,188619,2,0,L|235:220,1,77.0000023498536,2|0,3:2|3:2,0:0:0:0:
173,295,188916,1,10,0:0:0:0:
78,234,189064,6,0,L|60:49,1,154.000004699707,4|0,3:1|3:0,0:0:0:0:
145,22,189510,2,0,B|191:22|191:22|246:50|246:50|292:49,1,154.000004699707,8|2,0:0|3:2,0:0:0:0:
389,26,189955,1,0,3:0:0:0:
471,83,190104,2,0,L|460:174,1,77.0000023498536,8|0,0:0|3:0,0:0:0:0:
387,227,190401,6,0,B|285:202|285:202|215:239,2,154.000004699707,2|8|2,3:2|0:0|3:2,0:0:0:0:
489,54,191292,1,10,0:0:0:0:
507,153,191440,6,0,L|489:337,1,154.000004699707,4|0,3:1|0:0,0:0:0:0:
410,363,191886,2,0,P|378:346|236:343,1,154.000004699707,8|2,0:0|3:2,0:0:0:0:
171,377,192332,1,0,3:2:0:0:
85,326,192480,2,0,L|69:245,1,77.0000023498536,12|0,0:0|0:0,0:0:0:0:
23,160,192777,6,0,L|31:72,1,77.0000023498536,2|0,3:2|3:0,0:0:0:0:
33,68,193000,1,0,3:0:0:0:
40,54,193074,2,0,P|74:32|138:20,1,77.0000023498536,8|0,0:0|3:0,0:0:0:0:
190,99,193371,6,0,L|202:27,2,51.3333348999024,8|8|8,0:0|0:2|0:2,0:0:0:0:
231,165,193668,1,8,0:3:0:0:
253,185,193767,2,0,P|281:191|317:192,1,51.3333348999024,8|8,2:3|0:3,0:0:0:0:
365,143,193965,6,0,B|353:76|416:27|416:27|500:91|496:190|415:388|252:360|252:360|324:279|270:190|270:190|206:213|183:274|183:274|210:173|143:115|143:115|87:157|81:213|81:213|68:167|32:146|32:146|20:171|39:192,1,1343.99995898438,4|2,0:0|0:0,0:0:0:0:
28,93,217728,6,0,P|207:73|173:250,1,420,2|2,0:0|0:0,0:0:0:0:
173,250,220104,6,0,P|340:316|353:136,1,420,2|2,0:0|0:0,0:0:0:0:
352,136,222480,6,0,L|184:120,1,167.999994873047,2|2,0:0|0:0,0:0:0:0:
256,192,223148,12,0,224856,0:0:0:0:
256,192,224931,12,2,226490,0:0:0:0:
164,147,226787,6,0,L|160:110,2,29.7500005674362,8|8|8,0:3|0:3|3:3,0:0:0:0:
272,311,227232,6,0,P|336:330|412:301,1,140,6|8,3:2|0:3,0:0:0:0:
447,220,227678,1,8,0:3:0:0:
447,220,227752,1,8,0:3:0:0:
447,220,227827,2,0,L|454:126,2,70,8|8|8,3:0|3:0|0:0,0:0:0:0:
276,123,228421,6,0,L|273:40,2,70,0|0|8,3:0|3:0|3:3,0:0:0:0:
191,172,228866,1,8,0:3:0:0:
191,172,228940,1,8,0:3:0:0:
191,172,229015,2,0,L|166:102,2,70,8|0|8,3:0|3:0|0:0,0:0:0:0:
120,355,229608,6,0,P|36:352|-3:309,1,140,6|8,3:2|3:3,0:0:0:0:
25,220,230054,1,8,0:3:0:0:
25,220,230129,1,8,0:3:0:0:
25,220,230203,2,0,L|19:123,2,70,8|8|8,3:0|3:0|0:0,0:0:0:0:
216,260,230797,6,0,L|222:168,2,70,0|0|8,3:0|3:0|0:0,0:0:0:0:
277,337,231242,1,8,3:0:0:0:
277,337,231317,1,8,3:0:0:0:
277,337,231391,2,0,P|316:325|370:320,2,70,12|12|8,0:3|0:3|0:0,0:0:0:0:
84,373,231985,6,0,L|72:225,1,140,6|8,3:2|3:3,0:0:0:0:
26,146,232431,1,8,0:3:0:0:
26,146,232505,1,8,0:3:0:0:
26,146,232579,2,0,L|32:58,2,70,8|8|8,3:3|3:3|0:0,0:0:0:0:
219,177,233173,6,0,L|213:89,2,70,0|0|8,3:3|3:3|3:3,0:0:0:0:
285,249,233619,1,8,0:3:0:0:
285,249,233693,1,8,0:3:0:0:
285,249,233767,2,0,P|332:261|374:255,2,70,8|4|12,3:0|3:3|0:0,0:0:0:0:
191,135,234361,5,10,0:2:0:0:
191,135,234510,1,2,3:3:0:0:
312,52,234807,5,10,0:2:0:0:
312,52,234955,1,2,3:3:0:0:
428,141,235252,5,10,0:2:0:0:
428,141,235401,1,2,3:3:0:0:
379,278,235698,5,10,0:2:0:0:
379,278,235846,1,2,3:3:0:0:
233,273,236143,6,0,L|156:266,1,52.5000020027161,10|8,0:0|0:3,0:0:0:0:
165,271,236366,1,8,0:3:0:0:
151,279,236440,2,0,P|132:333|137:349,1,52.5000020027161,12|10,3:3|0:0,0:0:0:0:
30,38,237629,6,0,L|39:124,1,84,0|0,0:0|0:0,0:0:0:0:
43,143,237926,6,0,B|81:125|116:129|116:129|139:122|139:122|168:133|220:126,2,167.999994873047,4|10|2,3:1|0:2|3:2,0:0:0:0:
4,357,238817,1,8,0:2:0:0:
105,318,238965,6,0,B|156:303|202:331|202:331|232:320|257:284,1,167.999994873047,2|2,3:2|3:2,0:0:0:0:
236,184,239411,1,8,0:2:0:0:
127,186,239559,2,0,L|20:170,1,83.9999974365235,2|0,0:2|3:2,0:0:0:0:
236,184,239856,2,0,L|343:168,1,83.9999974365235,0|8,3:2|0:2,0:0:0:0:
391,89,240153,1,2,0:2:0:0:
454,188,240302,6,0,B|369:226|369:226|312:164,1,167.999994873047,2|10,3:2|0:2,0:0:0:0:
180,2,240896,1,2,3:2:0:0:
93,67,241044,2,0,L|85:159,1,83.9999974365235,2|8,3:2|0:2,0:0:0:0:
1,220,241341,6,0,B|40:197|40:197|74:210|74:210|173:200,1,167.999994873047,2|2,3:2|3:2,0:0:0:0:
262,240,241787,1,8,0:2:0:0:
344,168,241935,2,0,L|374:78,1,83.9999974365235,2|0,3:2|0:2,0:0:0:0:
370,273,242233,2,0,L|385:366,1,83.9999974365235,2|8,3:2|0:2,0:0:0:0:
490,378,242530,1,2,3:2:0:0:
508,255,242678,6,0,B|457:252|428:303|428:303|385:304|370:273,1,167.999994873047,6|10,3:2|0:2,0:0:0:0:
296,67,243272,2,0,B|347:70|376:19|376:19|419:18|434:49,1,167.999994873047,2|8,3:2|0:2,0:0:0:0:
395,159,243718,6,0,P|289:178|210:143,1,167.999994873047,2|2,3:2|3:2,0:0:0:0:
156,83,244163,1,8,0:2:0:0:
82,163,244312,2,0,L|76:333,1,167.999994873047,2|2,0:2|3:2,0:0:0:0:
180,363,244757,1,8,0:2:0:0:
180,363,244906,1,8,0:3:0:0:
244,276,245054,6,0,B|299:183|299:183|354:174|382:226,1,195.999994018555,14|0,3:2|3:2,0:0:0:0:
370,340,245500,2,0,P|260:315|159:312,1,195.999994018555,14|0,3:2|3:2,0:0:0:0:
105,207,245945,2,0,P|232:196|316:179,1,195.999994018555,14|0,3:2|3:2,0:0:0:0:
393,152,246391,2,0,B|342:153|300:184|300:184|299:129|258:95,1,195.999994018555,14|8,3:2|2:2,0:0:0:0:
339,14,246836,6,0,L|393:4,3,35,8|8|8|8,0:2|0:2|0:2|0:2,0:0:0:0:
406,20,247134,2,0,L|460:10,3,35,8|8|8|8,0:3|0:3|0:3|0:3,0:0:0:0:
479,40,247431,6,0,B|484:96|484:96|457:148|457:148|462:206,2,167.999994873047,4|10|2,3:1|0:2|3:2,0:0:0:0:
264,5,248322,1,10,0:2:0:0:
203,96,248470,6,0,B|198:148|198:148|225:200|225:200|220:256,1,167.999994873047,2|2,3:2|3:2,0:0:0:0:
169,353,248916,1,8,0:2:0:0:
115,257,249064,2,0,B|77:240|77:240|23:249,1,83.9999974365235,2|0,3:2|3:2,0:0:0:0:
169,353,249361,2,0,B|207:370|207:370|261:361,1,83.9999974365235,2|8,3:2|0:2,0:0:0:0:
338,300,249658,1,2,3:2:0:0:
237,229,249807,6,0,B|223:179|223:179|262:116|230:66,1,167.999994873047,2|10,3:2|2:2,0:0:0:0:
20,16,250401,2,0,L|5:122,1,83.9999974365235,2|0,3:2|3:2,0:0:0:0:
15,209,250698,1,10,0:2:0:0:
129,154,250846,6,0,B|193:138|204:165|220:171|251:180|310:147,1,167.999994873047,2|2,3:2|3:2,0:0:0:0:
373,83,251292,1,8,0:2:0:0:
452,152,251440,2,0,L|465:249,1,83.9999974365235,2|0,3:2|0:2,0:0:0:0:
384,311,251737,2,0,P|328:296|279:300,1,83.9999974365235,2|8,3:2|0:2,0:0:0:0:
213,357,252034,1,2,3:2:0:0:
132,273,252183,6,0,B|132:252|126:238|126:238|147:195|130:181|116:145|143:97,1,167.999994873047,6|10,3:2|0:2,0:0:0:0:
331,8,252777,1,2,3:2:0:0:
416,76,252926,2,0,P|425:118|413:175,1,83.9999974365235,2|8,3:2|0:2,0:0:0:0:
321,222,253223,6,0,B|287:199|287:199|246:208|210:189|210:189|163:203,1,167.999994873047,2|2,3:2|3:2,0:0:0:0:
69,255,253668,1,8,0:2:0:0:
3,166,253817,2,0,B|-3:60|-3:60|44:9,1,167.999994873047,2|2,3:2|3:2,0:0:0:0:
120,87,254262,1,10,0:2:0:0:
120,87,254411,1,8,0:3:0:0:
224,31,254559,6,0,B|269:51|276:101|276:101|315:155|371:133,1,195.999994018555,14|0,3:2|3:2,0:0:0:0:
488,59,255005,2,0,P|397:49|367:135,1,195.999994018555,14|0,3:2|3:2,0:0:0:0:
464,240,255450,2,0,P|456:149|366:135,1,195.999994018555,14|0,3:2|3:2,0:0:0:0:
287,225,255896,2,0,B|254:268|192:240|192:240|161:200|112:205,1,195.999994018555,14|0,3:2|3:2,0:0:0:0:
46,285,256341,6,0,P|109:271|114:206,1,140,8|8,0:3|0:0,0:0:0:0:
35,149,256787,1,8,0:0:0:0:
115,69,256935,6,0,L|287:44,1,167.999994873047,4|10,3:1|0:2,0:0:0:0:
485,122,257530,1,2,3:2:0:0:
419,208,257678,2,0,L|413:304,1,83.9999974365235,2|8,3:2|0:2,0:0:0:0:
313,355,257975,6,0,L|293:170,1,167.999994873047,2|2,3:2|3:2,0:0:0:0:
256,85,258421,1,8,0:2:0:0:
182,171,258569,1,10,0:2:0:0:
182,171,258643,1,8,0:2:0:0:
182,171,258718,2,0,L|88:166,1,83.9999974365235,0|8,3:2|0:3,0:0:0:0:
73,60,259015,2,0,L|165:40,1,83.9999974365235,8|8,0:3|0:3,0:0:0:0:
256,85,259312,6,0,P|178:124|156:40,1,195.999994018555,14|0,3:2|3:2,0:0:0:0:
300,0,259757,2,0,P|290:115|282:214,1,195.999994018555,14|0,3:2|3:2,0:0:0:0:
182,152,260203,2,0,P|260:113|282:197,1,195.999994018555,14|0,3:2|3:2,0:0:0:0:
138,237,260648,2,0,P|148:122|156:23,1,195.999994018555,14|0,0:2|3:2,0:0:0:0:
300,0,261094,6,0,P|307:97|316:195,1,195.999994018555,14|8,0:2|0:2,0:0:0:0:
232,295,261539,1,4,3:1:0:0:
256,192,261614,12,0,263470,3:2:0:0:
199,116,263916,6,0,P|131:82|40:98,1,154.000004699707,6|2,3:2|3:2,0:0:0:0:
6,177,264361,2,0,L|-3:268,1,77.0000023498536,10|0,0:2|0:2,0:0:0:0:
57,334,264658,1,2,3:2:0:0:
57,334,264807,2,0,P|106:320|143:327,1,77.0000023498536,0|10,0:2|0:2,0:0:0:0:
226,379,265104,6,0,L|237:205,1,154.000004699707,2|2,3:2|3:2,0:0:0:0:
266,130,265549,1,10,0:2:0:0:
334,203,265698,2,0,P|376:208|422:192,1,77.0000023498536,0|2,0:2|3:2,0:0:0:0:
266,130,265995,2,0,P|224:125|178:141,1,77.0000023498536,0|8,3:2|0:2,0:0:0:0:
77,166,266292,6,0,B|145:197|145:197|190:133,1,154.000004699707,6|2,3:2|3:2,0:0:0:0:
239,45,266737,2,0,B|275:27|275:27|332:29,1,77.0000023498536,10|0,0:2|0:2,0:0:0:0:
411,42,267034,1,2,3:2:0:0:
461,127,267183,2,0,L|450:226,1,77.0000023498536,0|8,3:2|0:2,0:0:0:0:
375,273,267480,6,0,P|328:239|206:242,1,154.000004699707,6|2,3:2|3:2,0:0:0:0:
155,292,267926,1,10,0:2:0:0:
155,292,268074,2,0,L|148:198,1,77.0000023498536,0|2,0:2|3:2,0:0:0:0:
74,148,268371,1,8,0:2:0:0:
74,148,268520,2,0,L|100:71,1,77.0000023498536,8|0,0:2|0:0,0:0:0:0:
219,128,268817,6,0,B|158:159|158:159|95:141|98:73,1,181.999991668702,12|0,3:2|3:2,0:0:0:0:
228,40,269262,2,0,P|221:101|215:241,1,181.999991668702,12|0,3:2|3:2,0:0:0:0:
310,274,269708,2,0,P|348:202|460:218,1,181.999991668702,12|0,3:2|3:2,0:0:0:0:
506,287,270153,2,0,L|506:381,1,90.9999958343508,14|0,3:2|0:2,0:0:0:0:
399,371,270450,1,8,0:2:0:0:
399,371,270525,1,8,0:2:0:0:
399,371,270599,2,0,L|393:260,2,90.9999958343508,8|8|8,0:2|0:2|0:2,0:0:0:0:
282,384,271044,5,12,0:2:0:0:
282,384,271490,6,0,L|280:217,1,154.000004699707,4|2,3:1|3:2,0:0:0:0:
234,140,271935,2,0,P|190:126|133:134,1,77.0000023498536,0|8,3:2|0:2,0:0:0:0:
37,168,272233,6,0,P|86:185|162:111,1,154.000004699707,6|2,3:2|3:2,0:0:0:0:
157,27,272678,2,0,P|118:13|59:5,1,77.0000023498536,10|0,0:2|0:2,0:0:0:0:
26,91,272975,1,2,3:2:0:0:
26,91,273124,2,0,L|38:179,1,77.0000023498536,2|8,3:2|0:2,0:0:0:0:
144,251,273421,6,0,B|199:235|199:235|229:253|229:253|305:239,1,154.000004699707,6|2,3:2|3:2,0:0:0:0:
328,150,273866,2,0,P|326:114|338:72,1,77.0000023498536,10|0,0:2|0:2,0:0:0:0:
435,46,274163,1,2,3:2:0:0:
435,46,274312,2,0,P|466:68|489:98,1,77.0000023498536,0|8,3:2|0:2,0:0:0:0:
437,200,274609,6,0,B|411:246|425:309|425:309|387:361,1,154.000004699707,6|2,3:2|3:2,0:0:0:0:
308,302,275054,2,0,L|292:209,1,77.0000023498536,10|0,0:2|0:2,0:0:0:0:
228,150,275351,2,0,P|186:142|148:149,1,77.0000023498536,2|8,3:2|0:2,0:0:0:0:
135,156,275574,1,8,0:2:0:0:
122,170,275648,2,0,L|114:262,1,77.0000023498536,8|8,0:2|0:2,0:0:0:0:
169,342,275945,6,0,B|225:338|225:338|257:303|257:303|308:301,2,154.000004699707,6|10|2,3:2|0:2|3:2,0:0:0:0:
96,273,276688,2,0,L|88:187,1,77.0000023498536,0|8,3:2|0:2,0:0:0:0:
147,106,276985,6,0,B|204:107|204:107|236:141|236:141|287:141,1,154.000004699707,6|0,3:2|3:2,2:0:0:0:
377,99,277431,2,0,P|412:83|450:88,1,77.0000023498536,8|8,0:2|0:2,0:0:0:0:
466,99,277653,1,8,0:2:0:0:
477,114,277728,2,0,L|481:205,1,77.0000023498536,8|8,0:2|0:3,0:0:0:0:
411,279,278025,2,0,L|388:199,1,77.0000023498536,8|8,0:3|0:3,0:0:0:0:
286,141,278322,6,0,B|239:124|196:156|196:156|150:153|122:98,1,181.999991668702,6|8,3:2|0:2,0:0:0:0:
296,49,278767,2,0,P|290:117|282:255,1,181.999991668702,6|8,3:2|0:2,0:0:0:0:
305,328,279213,1,8,3:3:0:0:
399,251,279361,5,4,3:1:0:0:
256,192,279435,12,0,282727,0:0:0:0:
