osu file format v14

[General]
AudioFilename: audio.mp3
AudioLeadIn: 0
PreviewTime: 54840
Countdown: 0
SampleSet: Soft
StackLeniency: 0.5
Mode: 0
LetterboxInBreaks: 0
WidescreenStoryboard: 1

[Editor]
Bookmarks: 5446,16507,21659,23628,31204,43780,49839,50446,65143,86659
DistanceSpacing: 0.4
BeatDivisor: 4
GridSize: 16
TimelineZoom: 2.1

[Metadata]
Title:daze (TV Size)
TitleUnicode:daze (TV Size)
Artist:JIN ft. MARiA from GARNiDELiA
ArtistUnicode:じん ft. メイリア from GARNiDELiA
Creator:Nevo
Version:Kagerou
Source:メカクシティアクターズ
Tags:カゲロウプロジェクト vocaloid ia Mekakucity Actors project カゲロウプロジェク 中西亮輔 自然の敵P Shizen no Teki P Teki-P TekiP じん Blindfold utaite short ver version naotoshi nao tomori yukiyo nextplay My Angel Kanan
BeatmapID:1634526
BeatmapSetID:491796

[Difficulty]
HPDrainRate:6
CircleSize:4
OverallDifficulty:9
ApproachRate:9.3
SliderMultiplier:1.7
SliderTickRate:1

[Events]
//Background and Video events
Video,-739,"PV.avi"
0,0,"kagerou.jpg",0,0
//Break Periods
//Storyboard Layer 0 (Background)
//Storyboard Layer 1 (Fail)
//Storyboard Layer 2 (Pass)
//Storyboard Layer 3 (Foreground)
//Storyboard Sound Samples

[TimingPoints]
750,303.030303030303,4,2,1,70,1,0
750,-100,4,2,1,70,0,0
6659,-100,4,2,1,60,0,0
15598,-200,4,2,1,70,0,0
16356,-125,4,2,1,50,0,0
16810,-100,4,2,1,50,0,0
27265,-90.9090909090909,4,2,1,50,0,0
33553,-90.9090909090909,4,2,1,5,0,0
33628,-90.9090909090909,4,2,1,50,0,0
35901,-90.9090909090909,4,2,1,70,0,0
38325,-100,4,2,1,50,0,0
45598,-90.9090909090909,4,2,1,70,0,0
48022,-100,4,2,1,50,0,0
52871,-100,4,2,1,60,0,0
53325,-100,4,2,1,70,0,0
53780,-100,4,2,1,80,0,0
54083,-100,4,2,1,90,0,0
54840,-83.3333333333333,4,2,1,70,0,0
54992,-133.333333333333,4,2,1,75,0,0
55295,-80,4,2,1,85,0,1
57416,-100,4,2,1,85,0,1
57719,-80,4,2,1,85,0,1
64689,-100,4,2,1,85,0,1
64992,-80,4,2,1,85,0,1
67113,-100,4,2,1,85,0,1
67416,-80,4,2,1,85,0,1
74689,-100,4,2,1,85,0,1
81810,-100,4,2,1,70,0,0
87871,-250,4,2,1,70,0,0
88628,-250,4,2,1,5,0,0

[Colours]
Combo1 : 1,184,102
Combo2 : 192,192,192
Combo3 : 255,66,66
Combo4 : 0,138,204
Combo5 : 244,177,2

[HitObjects]
71,99,750,5,2,0:1:0:0:
74,114,1053,1,2,0:1:0:0:
77,129,1356,1,2,0:1:0:0:
103,271,1507,1,0,0:0:0:0:
103,271,1583,1,8,0:0:0:0:
103,271,1659,1,0,3:0:0:0:
179,156,1810,5,4,3:2:0:0:
0,199,1962,1,0,0:0:0:0:
203,260,2113,1,0,0:0:0:0:
77,129,2265,1,8,0:0:0:0:
15,295,2416,1,8,0:0:0:0:
89,211,2568,1,0,3:0:0:0:
167,339,2719,1,8,0:0:0:0:
197,345,2795,1,8,0:0:0:0:
227,349,2871,1,8,0:0:0:0:
258,356,2946,1,8,0:0:0:0:
287,360,3022,6,0,L|283:256,1,85,4|0,3:2|0:0,0:0:0:0:
276,93,3325,1,0,3:0:0:0:
196,208,3477,1,8,0:0:0:0:
196,208,3553,1,8,0:0:0:0:
196,208,3628,1,0,3:0:0:0:
371,142,3780,1,2,0:3:0:0:
371,142,3856,1,2,0:3:0:0:
371,142,3931,1,4,0:3:0:0:
180,27,4083,5,4,0:3:0:0:
180,27,4159,1,4,0:3:0:0:
180,27,4234,2,0,L|185:134,1,85,4|0,3:2|0:0,0:0:0:0:
207,310,4537,1,0,3:0:0:0:
278,190,4689,1,8,0:0:0:0:
161,232,4840,1,8,0:0:0:0:
296,278,4992,1,2,0:1:0:0:
93,171,5143,5,8,0:0:0:0:
74,209,5219,1,8,0:0:0:0:
72,251,5295,1,8,0:0:0:0:
89,289,5372,1,8,0:0:0:0:
122,316,5446,6,0,L|223:308,1,85,4|2,3:2|0:1,0:0:0:0:
320,186,5749,1,8,0:0:0:0:
320,186,5825,1,4,0:3:0:0:
320,186,5901,2,0,L|267:190,1,42.5,4|4,0:3|0:3,0:3:0:0:
389,271,6053,2,0,L|442:280,1,42.5,8|8,0:3|0:3,0:3:0:0:
401,122,6204,5,8,0:0:0:0:
291,314,6356,1,8,0:0:0:0:
291,314,6659,6,0,L|169:307,1,85,4|0,3:2|0:0,0:0:0:0:
37,207,6962,1,0,3:0:0:0:
174,158,7113,1,8,0:0:0:0:
87,318,7265,1,8,0:0:0:0:
86,127,7416,1,0,3:0:0:0:
174,282,7568,1,0,3:0:0:0:
160,65,7719,1,8,0:0:0:0:
103,221,7871,1,0,3:0:0:0:
250,97,8022,5,0,0:0:0:0:
72,34,8174,1,0,3:0:0:0:
212,189,8325,1,8,0:0:0:0:
231,5,8477,1,8,0:0:0:0:
86,127,8628,1,0,3:0:0:0:
304,175,8780,1,0,3:0:0:0:
160,65,8931,1,8,0:0:0:0:
292,338,9083,6,0,B|316:289|316:289|302:168,1,170,0|0,3:0|3:0,0:0:0:0:
430,54,9537,2,0,P|409:91|374:114,1,85,8|8,0:0|0:0,0:0:0:0:
216,124,9840,2,0,P|180:101|160:65,1,85,0|0,3:0|3:0,0:0:0:0:
294,89,10143,2,0,L|304:198,1,85,8|0,0:0|3:0,0:0:0:0:
317,355,10446,5,0,0:0:0:0:
373,216,10598,1,0,3:0:0:0:
236,223,10750,1,8,0:0:0:0:
403,310,10901,1,8,0:0:0:0:
231,318,11053,1,0,3:0:0:0:
301,173,11204,1,8,0:0:0:0:
333,141,11281,1,8,0:0:0:0:
377,131,11357,1,8,0:0:0:0:
420,146,11431,1,8,0:0:0:0:
449,181,11507,6,0,P|472:132|452:56,1,127.5,4|0,3:2|0:0,0:0:0:0:
388,25,11810,1,0,3:0:0:0:
373,216,11962,2,0,L|383:325,1,85,8|8,0:0|0:0,0:0:0:0:
449,181,12265,1,0,3:0:0:0:
301,173,12416,1,0,3:0:0:0:
457,264,12568,1,8,0:0:0:0:
457,101,12719,1,0,3:0:0:0:
276,251,12871,5,0,0:0:0:0:
449,181,13022,1,0,3:0:0:0:
200,146,13174,1,8,0:0:0:0:
373,216,13325,1,8,0:0:0:0:
128,243,13477,1,0,3:0:0:0:
301,173,13628,1,0,3:0:0:0:
61,148,13780,1,8,0:0:0:0:
229,301,13931,6,0,L|233:217,1,85,0|0,3:0|0:0,0:0:0:0:
242,32,14234,1,0,3:0:0:0:
160,118,14386,1,8,0:0:0:0:
341,88,14537,1,0,0:0:0:0:
341,88,14613,1,8,0:0:0:0:
341,88,14689,1,8,0:0:0:0:
233,217,14840,1,2,0:3:0:0:
242,32,14992,5,4,0:3:0:0:
344,236,15143,1,8,0:3:0:0:
160,118,15295,2,0,B|143:158|143:158|160:280,1,127.5,0|0,3:0|0:0,0:0:0:0:
242,295,15598,6,0,L|223:170,1,106.25,12|0,0:2|0:0,0:0:0:0:
226,189,16053,1,8,0:0:0:0:
95,302,16204,1,8,0:0:0:0:
42,130,16356,6,0,P|100:153|166:103,1,136,6|0,3:2|0:0,0:0:0:0:
257,22,16810,2,0,P|238:65|246:115,1,85,10|0,0:0|0:0,0:0:0:0:
377,130,17113,2,0,P|353:96|316:77,1,85,2|0,3:2|3:0,0:0:0:0:
159,117,17416,1,10,0:0:0:0:
300,155,17568,5,2,3:2:0:0:
240,101,17720,1,2,0:0:0:0:
282,235,17871,2,0,P|328:231|359:209,1,85,2|8,3:2|0:0,0:0:0:0:
451,155,18174,2,0,L|446:239,1,85,2|0,0:0|3:0,0:0:0:0:
439,320,18477,1,2,3:2:0:0:
358,209,18629,1,10,0:0:0:0:
367,384,18780,6,0,L|362:299,1,85,0|0,3:2|0:0,0:0:0:0:
353,128,19083,1,2,3:2:0:0:
282,235,19235,1,10,0:0:0:0:
190,155,19386,2,0,L|275:151,1,85,2|0,0:0|3:0,0:0:0:0:
158,80,19689,1,2,3:2:0:0:
110,147,19840,1,10,0:0:0:0:
185,282,19992,6,0,B|190:138,1,127.5,2|0,3:2|0:0,0:0:0:0:
158,80,20295,1,2,3:2:0:0:
277,106,20447,1,10,0:0:0:0:
110,147,20599,1,2,0:2:0:0:
212,18,20750,1,2,3:2:0:0:
189,154,20902,1,2,3:2:0:0:
76,73,21053,1,10,0:0:0:0:
0,275,21205,6,0,P|67:227|145:252,1,170,6|0,3:2|3:0,0:0:0:0:
242,337,21659,2,0,P|223:294|231:244,1,85,10|0,0:2|0:0,0:0:0:0:
362,229,21962,2,0,P|338:263|301:282,1,85,2|0,3:2|3:0,0:0:0:0:
225,257,22265,1,10,0:2:0:0:
292,114,22417,6,0,L|283:198,1,85,2|0,3:2|0:0,0:0:0:0:
228,65,22720,1,2,3:2:0:0:
304,34,22871,1,8,0:0:0:0:
304,34,23023,2,0,P|345:51|372:99,1,85,2|0,0:2|3:0,0:0:0:0:
358,163,23326,1,2,3:2:0:0:
291,114,23477,1,10,0:2:0:0:
512,74,23629,6,0,L|501:159,1,85,2|0,3:2|0:0,0:0:0:0:
472,313,23932,1,2,3:2:0:0:
369,248,24083,1,10,0:2:0:0:
369,248,24234,2,0,L|358:163,1,85,0|2,3:0|0:0,0:0:0:0:
344,85,24538,1,2,3:2:0:0:
420,113,24689,1,10,0:2:0:0:
282,139,24841,6,0,L|197:127,1,85,0|0,3:2|0:0,0:0:0:0:
112,127,25144,1,0,3:0:0:0:
248,215,25295,1,8,0:0:0:0:
259,57,25447,1,0,0:0:0:0:
259,57,25523,1,8,0:0:0:0:
259,57,25598,1,8,0:0:0:0:
183,267,25750,2,0,P|223:295|301:279,1,127.5,0|0,3:0|0:0,0:0:0:0:
328,210,26053,6,0,L|332:91,1,85,6|0,3:2|0:0,0:0:0:0:
248,215,26356,1,0,3:0:0:0:
376,280,26508,2,0,P|403:246|408:182,1,85,10|0,0:2|0:0,0:0:0:0:
329,66,26811,2,0,P|339:107|367:140,1,85,2|0,3:2|3:0,0:0:0:0:
512,84,27114,1,10,0:2:0:0:
512,84,27265,6,0,L|400:71,1,93.5000028533936,2|0,3:2|0:0,0:0:0:0:
243,56,27568,1,2,3:2:0:0:
320,159,27720,1,8,0:0:0:0:
319,159,27871,2,0,L|329:66,1,93.5000028533936,2|0,0:2|3:0,0:0:0:0:
224,173,28174,1,2,3:2:0:0:
404,197,28326,1,10,0:2:0:0:
235,266,28477,6,0,L|123:253,1,93.5000028533936,2|0,3:2|0:0,0:0:0:0:
264,342,28780,1,2,3:2:0:0:
317,279,28932,1,10,0:2:0:0:
224,173,29083,2,0,L|235:266,1,93.5000028533936,2|0,0:0|3:0,0:0:0:0:
291,131,29386,1,2,3:2:0:0:
219,92,29537,1,10,0:2:0:0:
131,184,29689,6,0,L|223:173,1,93.5000028533936,0|0,3:2|0:0,0:0:0:0:
69,266,29992,1,2,3:2:0:0:
38,173,30144,1,10,0:2:0:0:
162,274,30295,2,0,L|151:366,1,93.5000028533936,2|0,0:0|3:0,0:0:0:0:
252,249,30599,1,2,3:2:0:0:
69,266,30750,1,8,0:0:0:0:
241,156,30902,6,0,L|251:248,1,93.5000028533936,6|0,3:2|0:0,0:0:0:0:
271,369,31205,1,0,3:0:0:0:
446,304,31356,2,0,P|410:274|364:266,1,93.5000028533936,10|0,0:0|0:0,0:0:0:0:
241,156,31659,2,0,P|276:185|322:193,1,93.5000028533936,2|0,3:2|3:0,0:0:0:0:
453,123,31962,1,10,0:2:0:0:
318,20,32114,6,0,L|308:112,1,93.5000028533936,2|0,3:2|0:0,0:0:0:0:
97,226,32417,2,0,L|87:134,1,93.5000028533936,2|8,3:2|0:0,0:0:0:0:
34,276,32720,2,0,P|69:302|145:289,1,93.5000028533936,2|0,0:2|3:0,0:0:0:0:
170,193,33023,1,2,3:2:0:0:
97,226,33174,1,10,0:0:0:0:
227,250,33325,6,0,B|285:242|285:242|321:255|321:255|383:246,1,140.25000428009,2|0,3:2|0:0,0:0:0:0:
441,235,33629,1,2,3:2:0:0:
384,326,33780,1,10,0:2:0:0:
345,157,33932,2,0,L|366:262,1,93.5000028533936,2|0,3:2|0:0,0:0:0:0:
492,172,34235,1,2,3:2:0:0:
421,131,34386,1,10,0:2:0:0:
509,0,34538,6,0,L|491:91,1,93.5000028533936,6|0,3:2|0:0,0:0:0:0:
457,246,34841,1,8,0:0:0:0:
345,157,34992,2,0,L|326:65,1,93.5000028533936,4|0,0:3|0:0,0:0:0:0:
276,200,35295,1,8,0:3:0:0:
457,246,35447,1,8,0:0:0:0:
457,246,35523,1,8,0:0:0:0:
457,246,35598,2,0,L|438:337,1,93.5000028533936,8|0,0:0|0:0,0:0:0:0:
154,282,35902,5,8,0:0:0:0:
416,153,36205,1,8,0:0:0:0:
416,153,36356,1,0,3:2:0:0:
316,72,36508,1,8,0:0:0:0:
316,72,36811,1,0,3:2:0:0:
282,218,36962,5,8,0:0:0:0:
32,122,37265,1,8,0:0:0:0:
32,122,37417,1,0,3:0:0:0:
72,249,37568,1,8,0:0:0:0:
143,163,37720,1,0,3:0:0:0:
130,332,37871,1,8,0:0:0:0:
130,332,37947,1,8,0:0:0:0:
130,332,38022,1,8,0:0:0:0:
32,122,38174,1,8,0:0:0:0:
298,48,38325,6,0,L|290:160,1,85,6|0,3:2|0:0,0:0:0:0:
115,15,38629,1,10,0:0:0:0:
115,15,38780,2,0,L|123:127,1,85,2|0,0:0|3:0,0:0:0:0:
14,218,39083,2,0,L|84:170,1,85,2|8,3:2|0:0,0:0:0:0:
241,205,39386,6,0,L|164:167,1,85,6|0,3:2|0:0,0:0:0:0:
134,329,39689,1,2,3:2:0:0:
134,329,39840,2,0,L|126:217,1,85,10|2,0:0|0:3,0:0:0:0:
121,99,40144,1,4,0:3:0:0:
14,218,40295,1,8,0:3:0:0:
36,132,40447,1,8,0:0:0:0:
203,127,40598,1,2,0:3:0:0:
203,127,40674,1,4,0:3:0:0:
203,127,40749,6,0,P|207:105|184:40,1,85,6|0,3:2|0:0,0:0:0:0:
105,243,41053,1,10,0:0:0:0:
105,243,41205,2,0,P|139:219|181:214,1,85,2|0,0:0|3:0,0:0:0:0:
257,268,41508,1,0,3:0:0:0:
172,299,41659,1,10,0:0:0:0:
264,184,41811,6,0,L|256:296,1,85,6|0,3:2|0:0,0:0:0:0:
313,341,42114,1,0,3:0:0:0:
342,257,42265,1,10,0:0:0:0:
482,346,42417,2,0,L|397:339,1,85,2|0,0:0|3:0,0:0:0:0:
257,268,42720,1,0,3:0:0:0:
313,341,42871,1,10,0:0:0:0:
512,270,43022,6,0,L|341:257,1,170,6|0,3:2|3:0,0:0:0:0:
243,123,43477,1,10,0:0:0:0:
243,123,43628,2,0,P|278:154|289:204,1,85,2|0,0:0|3:0,0:0:0:0:
174,269,43931,2,0,P|181:227|209:196,1,85,2|8,3:2|0:0,0:0:0:0:
162,81,44235,6,0,P|154:122|127:154,1,85,6|0,3:2|0:0,0:0:0:0:
28,26,44538,2,0,P|67:12|109:20,1,85,2|8,3:0|0:0,0:0:0:0:
50,165,44841,1,2,0:3:0:0:
0,106,44992,1,4,0:3:0:0:
167,87,45144,1,8,0:0:0:0:
167,87,45220,1,8,0:0:0:0:
167,87,45295,2,0,L|269:70,1,85,8|0,0:0|3:0,0:0:0:0:
313,293,45598,5,8,0:0:0:0:
51,164,45901,1,8,0:0:0:0:
51,164,46052,1,0,3:0:0:0:
151,83,46204,1,8,0:0:0:0:
152,188,46356,1,4,0:3:0:0:
152,188,46431,1,8,0:3:0:0:
152,188,46507,1,8,0:3:0:0:
55,70,46658,5,8,0:0:0:0:
331,127,46961,1,8,0:0:0:0:
331,127,47113,1,0,3:0:0:0:
237,221,47264,1,8,0:0:0:0:
251,88,47416,1,0,3:0:0:0:
321,293,47567,1,8,0:0:0:0:
321,293,47643,1,8,0:0:0:0:
321,293,47719,1,8,0:0:0:0:
435,163,47871,1,8,0:0:0:0:
435,163,47946,1,8,0:0:0:0:
435,163,48022,6,0,L|443:275,1,85,6|0,3:2|0:0,0:0:0:0:
230,305,48325,1,10,0:0:0:0:
230,305,48477,2,0,L|238:193,1,85,2|0,0:0|3:0,0:0:0:0:
131,99,48780,2,0,L|202:147,1,85,2|8,3:2|0:0,0:0:0:0:
358,116,49083,6,0,L|281:153,1,85,6|0,3:2|0:0,0:0:0:0:
158,221,49385,1,2,3:2:0:0:
253,0,49538,2,0,L|245:112,1,85,8|0,0:0|0:0,0:0:0:0:
230,305,49841,5,8,0:0:0:0:
358,116,50068,1,8,0:0:0:0:
131,99,50295,1,8,0:0:0:0:
131,99,50447,6,0,L|152:197,1,85,6|0,3:2|0:0,0:0:0:0:
57,313,50749,2,0,L|78:215,1,85,8|0,0:0|0:0,0:0:0:0:
235,338,51053,1,2,3:2:0:0:
141,356,51205,1,2,3:2:0:0:
257,247,51356,1,10,0:2:0:0:
148,181,51507,6,0,L|166:265,1,85,2|0,3:2|0:0,0:0:0:0:
325,315,51811,1,0,3:0:0:0:
325,315,51962,1,8,0:0:0:0:
336,174,52114,1,2,0:2:0:0:
257,247,52265,1,2,3:2:0:0:
424,240,52417,1,2,3:2:0:0:
334,87,52568,1,10,0:2:0:0:
336,174,52720,1,2,0:2:0:0:
422,49,52871,5,6,0:3:0:0:
422,49,52947,1,4,0:3:0:0:
422,49,53023,1,8,0:3:0:0:
496,173,53174,1,8,0:3:0:0:
334,87,53325,5,6,0:3:0:0:
334,87,53401,1,4,0:3:0:0:
334,87,53477,1,8,0:3:0:0:
416,225,53629,1,8,0:3:0:0:
229,251,53780,5,6,0:3:0:0:
229,251,53856,1,4,0:3:0:0:
229,251,53931,1,10,0:3:0:0:
250,22,54083,5,8,3:0:0:0:
315,209,54235,1,8,0:0:0:0:
148,75,54386,1,8,3:0:0:0:
130,288,54538,1,8,3:2:0:0:
130,288,54841,6,0,L|135:214,1,50.9999984436036,0|0,3:0|0:0,0:0:0:0:
164,164,54992,6,0,L|170:266,1,95.6250036478044,12|0,0:2|0:0,0:0:0:0:
229,364,55295,6,0,P|166:312|85:372,1,159.375,6|0,3:2|0:2,0:2:0:0:
31,372,55599,2,0,B|17:342|29:310|29:310|22:260,1,106.25,10|2,0:2|0:2,0:2:0:0:
1,108,55902,1,2,3:2:0:0:
141,213,56053,1,2,3:2:0:0:
95,46,56205,1,10,0:2:0:0:
23,267,56356,1,2,0:2:0:0:
193,117,56507,5,2,3:2:0:0:
188,319,56659,1,2,3:2:0:0:
87,139,56811,1,8,0:2:0:0:
246,215,56962,2,0,L|118:211,1,106.25,2|0,3:2|0:2,0:2:0:0:
335,269,57265,1,0,3:2:0:0:
260,96,57417,2,0,B|237:127|237:127|249:242,1,127.5,10|0,0:2|0:2,0:2:0:0:
335,269,57720,6,0,L|322:160,1,106.25,2|0,3:2|0:2,0:2:0:0:
410,226,58023,2,0,B|418:304|418:304|397:332,1,106.25,10|0,0:2|0:2,0:2:0:0:
194,340,58326,1,2,3:2:0:0:
335,269,58477,1,2,3:2:0:0:
148,257,58629,1,10,0:2:0:0:
291,351,58780,1,2,0:2:0:0:
288,172,58932,5,2,3:2:0:0:
106,334,59083,1,2,3:2:0:0:
251,269,59234,1,8,0:2:0:0:
135,151,59386,2,0,L|148:260,1,106.25,2|0,3:2|0:2,0:2:0:0:
380,157,59689,1,0,3:2:0:0:
195,76,59841,1,10,0:2:0:0:
346,235,59992,1,2,0:2:0:0:
307,62,60144,6,0,L|294:167,1,106.25,6|0,3:2|0:2,0:2:0:0:
265,359,60447,1,10,0:2:0:0:
141,275,60599,2,0,P|171:232|221:215,1,106.25,2|0,0:2|3:2,0:2:0:0:
437,274,60901,2,0,P|384:268|345:234,1,106.25,2|8,3:2|0:2,0:2:0:0:
289,19,61204,6,0,P|310:66|300:118,1,106.25,2|0,0:2|3:2,0:2:0:0:
123,86,61508,2,0,L|229:74,1,106.25,2|8,3:2|0:2,0:2:0:0:
345,234,61811,2,0,L|239:221,1,106.25,2|0,3:2|0:2,0:2:0:0:
63,199,62114,1,0,3:2:0:0:
180,293,62265,1,10,0:2:0:0:
152,156,62417,1,2,0:2:0:0:
91,384,62568,6,0,L|78:278,1,106.25,2|0,3:2|0:2,0:2:0:0:
51,105,62871,1,10,0:2:0:0:
221,211,63023,2,0,L|327:198,1,106.25,2|0,0:2|3:2,0:2:0:0:
186,69,63326,1,2,3:2:0:0:
152,156,63477,1,8,0:2:0:0:
280,54,63629,1,2,0:2:0:0:
93,82,63780,5,0,3:2:0:0:
246,146,63932,1,8,0:2:0:0:
246,146,64008,1,8,0:2:0:0:
246,146,64083,1,8,0:2:0:0:
94,255,64235,1,8,0:2:0:0:
94,255,64311,1,8,0:2:0:0:
94,255,64386,2,0,L|204:242,1,106.25,8|0,0:2|0:2,0:2:0:0:
199,242,64614,1,8,0:2:0:0:
199,242,64689,1,8,0:2:0:0:
351,158,64840,5,8,0:2:0:0:
351,158,64917,1,8,0:2:0:0:
351,158,64992,2,0,L|245:145,1,106.25,6|0,3:2|0:2,0:2:0:0:
417,90,65295,1,8,0:2:0:0:
433,244,65447,1,2,0:2:0:0:
335,40,65599,1,2,3:2:0:0:
512,150,65750,1,2,3:2:0:0:
465,7,65902,1,10,0:2:0:0:
351,158,66053,1,2,0:2:0:0:
512,247,66205,5,2,3:2:0:0:
417,90,66356,1,2,3:2:0:0:
335,312,66508,1,8,0:2:0:0:
440,181,66659,2,0,L|427:287,1,106.25,2|0,3:2|0:2,0:2:0:0:
225,167,66962,1,2,3:2:0:0:
240,293,67114,2,0,L|223:157,1,127.5,10|0,0:2|0:2,0:2:0:0:
134,126,67417,6,0,P|172:161|224:166,1,106.25,6|0,3:2|0:2,0:2:0:0:
291,17,67719,2,0,P|241:33|211:76,1,106.25,10|0,0:2|0:2,0:2:0:0:
136,244,68023,1,2,3:2:0:0:
108,40,68174,1,2,3:2:0:0:
294,111,68326,1,10,0:2:0:0:
29,178,68477,1,2,0:2:0:0:
315,269,68629,5,2,3:2:0:0:
211,75,68780,1,2,3:2:0:0:
136,244,68932,1,8,0:2:0:0:
358,186,69083,2,0,P|410:267|344:359,1,212.5,2|0,3:2|3:2,0:2:0:0:
122,338,69537,1,8,0:2:0:0:
315,269,69689,1,2,0:2:0:0:
148,138,69840,6,0,L|135:244,1,106.25,6|0,3:2|0:2,0:2:0:0:
303,110,70144,1,10,0:2:0:0:
303,110,70295,2,0,L|290:4,1,106.25,2|0,0:2|3:2,0:2:0:0:
235,176,70598,1,0,3:2:0:0:
395,126,70749,1,10,0:2:0:0:
212,77,70901,1,2,0:2:0:0:
319,300,71053,6,0,L|332:194,1,106.25,6|0,3:2|0:2,0:2:0:0:
119,149,71356,1,10,0:2:0:0:
148,348,71508,2,0,L|135:242,1,106.25,2|0,0:2|3:2,0:2:0:0:
240,376,71811,1,4,0:3:0:0:
55,350,71962,1,8,0:3:0:0:
220,282,72114,1,8,0:3:0:0:
41,206,72265,6,0,P|82:238|134:242,1,106.25,14|0,0:2|0:2,0:2:0:0:
290,126,72568,1,0,3:2:0:0:
290,126,72719,2,0,P|241:145|212:189,1,106.25,10|0,0:2|0:2,0:2:0:0:
391,264,73023,2,0,P|398:212|376:165,1,106.25,2|8,3:2|0:2,0:2:0:0:
220,282,73326,6,0,P|261:314|313:318,1,106.25,2|0,0:2|3:2,0:2:0:0:
497,272,73629,2,0,L|373:262,1,106.25,10|0,0:2|0:2,0:2:0:0:
134,241,73932,1,8,0:2:0:0:
214,378,74083,1,8,0:2:0:0:
210,187,74235,1,8,0:0:0:0:
186,163,74310,1,8,0:0:0:0:
157,149,74386,1,8,0:0:0:0:
124,147,74462,1,8,0:0:0:0:
93,156,74538,1,8,0:0:0:0:
66,176,74613,1,8,0:0:0:0:
48,203,74689,6,0,L|36:79,1,85,4|0,3:2|0:0,0:0:0:0:
271,116,74992,1,8,0:0:0:0:
134,241,75144,1,0,0:0:0:0:
192,62,75295,1,0,3:0:0:0:
280,248,75447,1,0,3:0:0:0:
347,61,75599,1,8,0:0:0:0:
447,190,75750,1,0,0:0:0:0:
447,190,75826,1,8,0:0:0:0:
447,190,75902,6,0,L|342:179,1,85,0|0,3:0|3:0,0:0:0:0:
244,338,76204,2,0,L|349:327,1,85,8|0,0:0|3:0,0:0:0:0:
220,174,76508,1,0,0:0:0:0:
188,261,76659,1,0,3:0:0:0:
41,198,76811,2,0,L|126:190,1,85,8|0,0:0|0:0,0:0:0:0:
123,36,77114,6,0,P|91:63|80:103,1,85,0|0,3:0|0:0,0:0:0:0:
188,261,77417,1,8,0:0:0:0:
156,110,77568,1,0,0:0:0:0:
95,296,77720,1,0,3:0:0:0:
207,181,77871,1,0,3:0:0:0:
212,363,78023,1,8,0:0:0:0:
126,190,78174,1,0,0:0:0:0:
301,330,78326,6,0,L|385:321,1,85,0|0,3:0|3:0,0:0:0:0:
368,168,78629,2,0,L|334:246,1,85,8|0,0:0|3:0,0:0:0:0:
474,307,78932,2,0,L|424:238,1,85,0|0,0:0|3:0,0:0:0:0:
317,105,79235,1,8,0:0:0:0:
458,169,79386,1,0,0:0:0:0:
458,169,79462,1,8,0:0:0:0:
458,169,79538,6,0,L|466:79,1,85,4|0,3:2|0:0,0:0:0:0:
263,46,79841,1,8,0:0:0:0:
368,168,79992,1,0,0:0:0:0:
421,14,80144,1,4,0:3:0:0:
234,140,80295,1,2,0:3:0:0:
465,84,80446,1,4,0:3:0:0:
275,224,80598,1,8,0:0:0:0:
360,83,80749,6,0,L|368:173,1,85,8|0,0:0|0:0,0:0:0:0:
174,290,81053,2,0,L|182:206,1,85,12|0,0:2|0:0,0:0:0:0:
190,39,81356,1,0,3:0:0:0:
275,224,81508,1,8,0:0:0:0:
46,175,81659,1,8,0:0:0:0:
233,124,81810,6,0,P|314:122|366:166,1,127.5,4|0,3:2|0:0,0:0:0:0:
402,206,82114,1,0,3:0:0:0:
387,76,82265,1,4,0:3:0:0:
275,224,82417,1,8,0:3:0:0:
316,36,82568,1,8,0:0:0:0:
480,142,82720,1,2,0:1:0:0:
480,142,82795,1,8,0:0:0:0:
480,142,82871,1,8,0:0:0:0:
233,124,83023,6,0,L|66:116,1,127.5,4|0,3:2|0:0,0:0:0:0:
26,115,83326,1,0,3:0:0:0:
169,216,83477,1,8,0:0:0:0:
169,216,83553,1,8,0:0:0:0:
169,216,83629,1,0,0:0:0:0:
166,38,83780,1,2,0:3:0:0:
166,38,83856,1,4,0:3:0:0:
166,38,83932,1,4,0:3:0:0:
63,208,84083,1,0,3:0:0:0:
279,201,84235,6,0,B|346:194|346:194|389:214|389:214|451:208,1,170,4|0,3:2|0:0,0:0:0:0:
316,285,84689,1,8,0:0:0:0:
400,130,84841,1,8,0:0:0:0:
494,300,84992,1,0,3:0:0:0:
467,77,85144,1,8,0:0:0:0:
467,77,85220,1,8,0:0:0:0:
467,77,85295,1,8,0:0:0:0:
279,201,85447,6,0,L|267:79,1,85,2|0,3:1|0:0,0:0:0:0:
54,292,85750,2,0,L|66:170,1,85,2|0,3:1|0:0,0:0:0:0:
294,193,86053,2,0,L|282:71,1,85,8|0,3:2|0:0,0:0:0:0:
40,302,86356,2,0,L|52:180,1,85,2|0,3:1|0:0,0:0:0:0:
307,288,86659,6,0,L|211:277,1,85,12|0,0:2|0:0,0:0:0:0:
56,125,86962,2,0,L|152:114,1,85,8|2,0:0|0:1,0:0:0:0:
315,304,87265,2,0,L|219:293,1,85,2|4,0:3|0:3,0:0:0:0:
45,114,87568,2,0,L|141:103,1,85,8|0,0:3|3:0,0:3:0:0:
390,82,87871,6,0,B|400:145|400:145|389:190|389:190|400:251,1,170,12|0,0:2|0:0,0:0:0:0:
