osu file format v14

[General]
AudioFilename: audio.mp3
AudioLeadIn: 0
PreviewTime: 52075
Countdown: 0
SampleSet: None
StackLeniency: 0.2
Mode: 0
LetterboxInBreaks: 0
WidescreenStoryboard: 1

[Editor]
Bookmarks: 10590,20969,31347,41725,52104,177942,179063,188320
DistanceSpacing: 0.4
BeatDivisor: 4
GridSize: 4
TimelineZoom: 2.1

[Metadata]
Title:Mekakushi Code (Cut Ver.)
TitleUnicode:メカクシコード (Cut Ver.)
Artist:JIN feat. Yasagure Koneko
ArtistUnicode:じん feat. やさぐれ子猫
Creator:Nevo
Version:captin's Extra
Source:カゲロウプロジェクト
Tags:vocaloid Mekakucity Actors 自然の敵P Shizen no Teki P Teki-P TekiP Blindfold daze kagerou project メカクシティアクターズ japanese pop jpop jrock rock anime utaite cover captin1 frontier -_frontier_- lit120 agatsu -Hakurei-
BeatmapID:4570505
BeatmapSetID:1039223

[Difficulty]
HPDrainRate:6
CircleSize:4
OverallDifficulty:8.5
ApproachRate:9.2
SliderMultiplier:2.4
SliderTickRate:1

[Events]
//Background and Video events
0,0,"2 mekakushi code.jpg",0,0
//Break Periods
//Storyboard Layer 0 (Background)
//Storyboard Layer 1 (Fail)
//Storyboard Layer 2 (Pass)
//Storyboard Layer 3 (Foreground)
//Storyboard Layer 4 (Overlay)
//Storyboard Sound Samples

[TimingPoints]
253,324.324324324324,4,2,1,60,1,0
577,-133.333333333333,4,2,1,60,0,0
5442,-100,4,2,1,60,0,0
5766,-133.333333333333,4,2,1,60,0,0
8036,-133.333333333333,4,2,1,70,0,0
9982,-133.333333333333,4,2,1,80,0,0
10631,-83.3333333333333,4,2,1,80,0,0
10955,-111.111111111111,4,2,1,80,0,0
11928,-90.9090909090908,4,2,1,80,0,0
12577,-66.6666666666667,4,2,1,80,0,0
12901,-83.3333333333333,4,2,1,80,0,0
13550,-111.111111111111,4,2,1,80,0,0
14523,-90.9090909090908,4,2,1,80,0,0
15171,-66.6666666666667,4,2,1,80,0,0
16144,-100,4,2,1,80,0,0
17117,-90.9090909090909,4,2,1,80,0,0
17766,-66.6666666666667,4,2,1,80,0,0
18415,-111.111111111111,4,2,1,80,0,0
20361,-66.6666666666667,4,2,1,80,0,0
20685,-100,4,2,1,80,0,0
21009,-250,4,2,1,70,0,0
21334,-83.3333333333333,4,2,1,70,0,0
22469,-133.333333333333,4,2,1,70,0,0
23928,-83.3333333333333,4,2,1,70,0,0
24252,-133.333333333333,4,2,1,70,0,0
25874,-83.3333333333333,4,2,1,70,0,0
26198,-133.333333333333,4,2,1,70,0,0
26523,-83.3333333333333,4,2,1,70,0,0
27658,-133.333333333333,4,2,1,70,0,0
29117,-83.3333333333333,4,2,1,70,0,0
29442,-133.333333333333,4,2,1,70,0,0
31388,-250,4,2,1,80,0,0
31712,-83.3333333333333,4,2,1,80,0,0
32847,-125,4,2,1,80,0,0
33982,-250,4,2,1,80,0,0
34469,-125,4,2,1,80,0,0
36252,-66.6666666666667,4,2,1,80,0,0
36577,-125,4,2,1,80,0,0
38036,-83.3333333333333,4,2,1,80,0,0
38361,-125,4,2,1,80,0,0
39658,-83.3333333333333,4,2,1,80,0,0
39982,-125,4,2,1,80,0,0
41766,-100,4,2,1,80,0,0
52144,-166.666666666667,4,2,1,85,0,1
52469,-100,4,2,1,85,0,1
53280,-83.3333333333333,4,2,1,85,0,1
54415,-100,4,2,1,85,0,1
57334,-166.666666666667,4,2,1,85,0,1
57658,-100,4,2,1,85,0,1
58144,-66.6666666666667,4,2,1,85,0,1
61063,-100,4,2,1,85,0,1
61550,-66.6666666666667,4,2,1,85,0,1
62523,-166.666666666667,4,2,1,85,0,1
62847,-100,4,2,1,85,0,1
63658,-83.3333333333333,4,2,1,85,0,1
65604,-100,4,2,1,85,0,1
67712,-166.666666666667,4,2,1,85,0,1
68036,-100,4,2,1,85,0,1
68523,-83.3333333333333,4,2,1,85,0,1
70144,-100,4,2,1,85,0,1
70631,-66.6666666666667,4,2,1,85,0,1
71442,-83.3333333333333,4,2,1,85,0,1
71928,-66.6666666666667,4,2,1,85,0,1
73712,-66.6666666666667,4,2,1,5,0,1
73752,-66.6666666666667,4,2,1,10,0,1
73793,-66.6666666666667,4,2,1,20,0,1
73833,-66.6666666666667,4,2,1,25,0,1
73874,-66.6666666666667,4,2,1,30,0,1
73914,-66.6666666666667,4,2,1,40,0,1
73955,-66.6666666666667,4,2,1,50,0,1
73995,-66.6666666666667,4,2,1,60,0,1
74036,-66.6666666666667,4,2,1,70,0,1
74076,-66.6666666666667,4,2,1,75,0,1
74117,-66.6666666666667,4,2,1,80,0,1
74198,-100,4,2,1,85,0,0
74685,-133.333333333333,4,2,1,85,0,0
75334,-100,4,2,1,85,0,0
77280,-133.333333333333,4,2,1,85,0,0
77928,-100,4,2,1,85,0,0
79874,-133.333333333333,4,2,1,85,0,0
80523,-100,4,2,1,85,0,0
84252,-66.6666666666667,4,2,1,85,0,0
84577,-100,4,2,1,85,0,0
85063,-133.333333333333,4,2,1,85,0,0
85712,-100,4,2,1,85,0,0
86117,-100,4,2,1,100,0,0
86198,-100,4,2,1,85,0,0
87658,-133.333333333333,4,2,1,85,0,0
88307,-100,4,2,1,85,0,0
90252,-133.333333333333,4,2,1,85,0,0
90901,-100,4,2,1,85,0,0
94307,-66.6666666666667,4,2,1,85,0,0
94955,-133.333333333333,4,2,1,50,0,0

[Colours]
Combo1 : 255,128,128
Combo2 : 170,255,170
Combo3 : 207,159,255

[HitObjects]
397,149,253,6,0,B|368:124|360:75|360:75|324:123|357:190,1,180,4|0,1:2|2:0,2:0:0:0:
387,203,577,2,0,L|298:190,1,90.0000000000002,6|0,1:2|2:0,2:0:0:0:
51,91,901,1,0,1:0:0:0:
126,75,1063,1,2,2:0:0:0:
202,60,1225,2,0,P|213:100|214:154,1,90.0000000000002,2|2,1:2|2:0,2:0:0:0:
178,231,1550,5,0,1:0:0:0:
105,326,1712,1,2,2:0:0:0:
178,231,1874,2,0,P|134:212|82:210,1,90.0000000000002,2|0,1:2|2:0,2:0:0:0:
76,352,2198,1,0,1:0:0:0:
231,294,2361,1,2,2:0:0:0:
166,142,2523,2,0,L|179:238,1,90.0000000000002,2|0,1:2|2:0,2:0:0:0:
314,322,2847,6,0,L|487:304,1,135,0|0,1:0|2:0,2:0:0:0:
442,326,3171,2,0,P|419:281|412:228,1,90.0000000000002,2|0,1:2|2:0,2:0:0:0:
493,58,3496,1,0,1:0:0:0:
469,178,3658,1,2,2:0:0:0:
329,219,3820,2,0,P|340:166|357:125,1,90.0000000000002,2|2,1:2|2:0,2:0:0:0:
411,35,4144,5,0,1:0:0:0:
405,61,4307,1,2,2:0:0:0:
384,45,4469,2,0,L|291:38,1,90.0000000000002,2|0,1:2|2:0,2:0:0:0:
82,132,4793,2,0,P|64:84|62:41,1,90.0000000000002,2|0,1:2|2:0,2:0:0:0:
163,67,5117,2,0,P|181:115|183:158,1,90.0000000000002,0|2,1:0|2:0,2:0:0:0:
122,201,5361,1,2,2:0:0:0:
170,261,5442,6,0,B|211:215|294:236|294:236|294:267|270:292,1,180,2|0,1:2|2:0,2:0:0:0:
256,283,5766,2,0,L|270:387,1,90.0000000000002,2|2,1:2|2:0,2:0:0:0:
497,230,6090,1,0,1:0:0:0:
425,207,6252,1,2,2:0:0:0:
350,189,6415,2,0,P|334:143|329:90,1,90.0000000000002,2|2,1:2|2:0,2:0:0:0:
140,62,6739,5,0,1:0:0:0:
242,106,6901,1,2,2:0:0:0:
140,62,7063,2,0,P|109:103|92:143,1,90.0000000000002,2|0,1:2|2:0,2:0:0:0:
149,298,7388,1,0,1:0:0:0:
174,155,7550,1,2,2:0:0:0:
10,105,7712,2,0,L|103:142,1,90.0000000000002,2|0,1:2|2:0,2:0:0:0:
247,331,8036,5,2,1:2:0:0:
219,244,8198,1,2,2:0:0:0:
242,354,8361,1,2,1:2:0:0:
279,175,8523,1,2,2:0:0:0:
247,331,8685,5,2,1:2:0:0:
242,354,8766,1,0,1:2:0:0:
237,377,8847,1,2,1:2:0:0:
306,261,9009,1,2,1:2:0:0:
113,308,9171,1,2,1:2:0:0:
113,308,9982,6,0,L|127:198,1,90.0000000000002,8|8,2:0|2:0,2:0:0:0:
111,195,10225,1,8,2:0:0:0:
135,181,10307,1,8,2:0:0:0:
115,162,10388,1,8,2:0:0:0:
139,148,10469,1,8,2:0:0:0:
118,131,10550,1,8,2:0:0:0:
171,82,10631,6,0,P|229:113|399:105,1,216,4|0,1:0|2:0,2:0:0:0:
404,80,10955,2,0,B|385:59|378:37|378:37|365:61|369:92,1,108,10|2,2:0|2:0,2:0:0:0:
488,231,11280,1,2,2:0:0:0:
471,144,11442,1,2,1:2:0:0:
412,300,11604,1,10,2:0:0:0:
284,226,11766,5,2,2:0:0:0:
284,226,11928,2,0,P|346:235|413:175,1,132,0|2,1:0|1:2,2:0:0:0:
220,131,12252,1,10,2:0:0:0:
156,227,12415,5,2,1:2:0:0:
156,227,12496,1,0,1:0:0:0:
156,227,12577,2,0,P|141:266|136:325,1,90,2|0,1:0|2:0,2:0:0:0:
309,254,12739,2,0,P|324:293|329:352,1,90,2|0,1:2|2:0,2:0:0:0:
246,352,12901,6,2,L|228:187,1,144,10|2,2:0|2:0,2:1:0:0:
63,89,13225,6,0,B|63:67|49:49|49:49|112:75|182:67|182:67|155:85|143:113,1,216,2|0,1:2|2:0,2:0:0:0:
137,228,13550,2,0,P|148:171|176:116,1,108,10|0,2:0|2:0,2:0:0:0:
369,156,13874,1,2,2:0:0:0:
240,169,14036,2,0,P|291:144|369:128,1,108,2|10,1:2|2:0,2:0:0:0:
467,311,14361,5,2,2:0:0:0:
467,311,14523,2,0,B|415:336|415:336|335:284,1,132,0|2,1:0|1:2,2:0:0:0:
167,341,14847,2,0,B|229:300|229:300|281:325,1,132,10|2,2:0|1:2,2:0:0:0:
290,248,15090,1,0,2:0:0:0:
363,219,15171,6,0,P|373:173|348:44,1,180,2|2,1:0|1:2,2:0:0:0:
217,129,15415,1,0,2:0:0:0:
296,113,15496,2,2,P|245:111|200:123,1,90,10|0,2:0|2:0,2:1:0:0:
258,199,15658,2,0,P|235:230|209:289,1,90,2|0,2:0|2:0,2:0:0:0:
264,351,15820,5,6,1:2:0:0:
145,213,15982,1,2,2:1:0:0:
305,269,16144,2,0,L|428:253,1,120,10|2,2:0|2:0,2:0:0:0:
132,94,16469,1,2,2:0:0:0:
196,137,16631,2,0,L|73:121,1,120,2|8,1:2|2:0,2:0:0:0:
124,328,16955,5,2,2:0:0:0:
124,328,17117,2,0,B|136:300|159:288|159:288|138:248|146:204,1,132,0|2,1:2|1:2,2:0:0:0:
198,60,17442,1,8,2:0:0:0:
297,159,17604,5,2,1:2:0:0:
297,159,17685,1,0,2:0:0:0:
297,159,17766,2,0,P|338:145|392:141,1,90,2|0,1:0|2:0,2:0:0:0:
384,325,17928,2,0,P|425:339|479:343,1,90,2|0,1:2|2:0,2:0:0:0:
512,245,18090,6,2,B|493:250|468:268|468:268|454:245|412:209|351:228,1,180,10|2,2:0|2:0,2:1:0:0:
144,295,18415,6,0,B|200:315|200:315|299:269,1,162,6|0,1:2|2:0,2:0:0:0:
262,259,18739,2,0,P|247:302|241:373,1,108,10|2,2:0|2:0,2:0:0:0:
45,233,19063,1,2,2:0:0:0:
122,190,19225,2,0,P|137:233|143:304,1,108,2|8,1:2|2:0,2:0:0:0:
61,381,19550,1,2,2:0:0:0:
212,187,19712,5,0,1:2:0:0:
207,154,19793,1,0,1:2:0:0:
202,121,19874,1,0,1:2:0:0:
197,88,19955,1,0,1:2:0:0:
167,75,20036,1,0,1:2:0:0:
323,173,20198,5,0,1:2:0:0:
323,173,20280,1,0,1:2:0:0:
323,173,20361,2,0,B|364:178|384:213|384:213|421:169|390:107,1,180,0|0,1:2|1:2,2:0:0:0:
287,77,20604,5,2,2:0:0:0:
287,77,20685,2,0,L|314:267,1,180,12|0,2:0|2:0,2:0:0:0:
159,338,21009,6,0,P|193:339|218:301,1,72,6|0,1:2|2:0,2:0:0:0:
189,188,21334,6,0,P|149:165|175:251,1,216,10|0,2:0|2:0,2:0:0:0:
239,240,21658,1,2,2:0:0:0:
298,280,21820,1,2,1:2:0:0:
435,302,21982,1,10,2:0:0:0:
376,262,22144,1,2,2:0:0:0:
351,331,22307,5,2,1:2:0:0:
395,187,22469,2,0,L|375:86,1,90.0000000000002,2|10,2:0|2:0,2:0:0:0:
307,46,22793,2,0,B|261:62|216:58|216:58|261:68|301:113,1,180,2|2,2:0|1:2,2:0:0:0:
123,153,23280,2,0,P|166:140|229:137,1,90.0000000000002,10|2,2:0|2:0,2:0:0:0:
133,290,23604,1,2,1:2:0:0:
133,290,23766,1,2,2:0:0:0:
372,260,23928,6,0,B|305:291|218:285|218:285|241:297|261:326,1,216,10|0,2:0|2:0,2:0:0:0:
268,349,24252,2,0,P|256:303|252:233,1,90.0000000000002,0|2,2:0|1:2,2:0:0:0:
397,102,24577,1,10,2:0:0:0:
385,178,24739,1,2,2:0:0:0:
325,129,24901,1,2,1:2:0:0:
459,152,25063,6,0,P|473:197|481:256,1,90.0000000000002,2|8,2:0|2:0,2:0:0:0:
374,358,25388,2,0,P|381:313|394:270,1,90.0000000000002,0|0,2:0|2:0,2:0:0:0:
505,80,25712,1,0,1:2:0:0:
318,228,25874,2,0,L|281:219,6,36,12|0|0|0|0|0|0,2:0|2:0|2:0|2:0|2:0|2:0|2:0,2:0:0:0:
273,299,26198,6,0,P|247:253|163:252,1,135,0|0,1:0|2:0,2:0:0:0:
199,324,26523,6,0,B|180:165|180:165|211:113,1,216,10|0,2:0|2:0,2:0:0:0:
148,68,26847,1,2,2:0:0:0:
75,92,27009,1,2,1:2:0:0:
23,201,27171,1,10,2:0:0:0:
96,225,27334,1,2,2:0:0:0:
116,349,27496,5,2,1:2:0:0:
29,330,27658,2,0,P|75:329|137:311,1,90.0000000000002,2|8,2:0|2:0,2:0:0:0:
332,253,27982,2,0,B|287:224|287:224|165:262,1,180,2|2,2:0|1:2,2:0:0:0:
271,356,28469,1,10,2:0:0:0:
249,268,28631,1,2,2:0:0:0:
271,356,28793,2,0,P|323:373|366:371,1,90.0000000000002,0|2,1:2|2:0,2:0:0:0:
443,287,29117,6,0,B|389:270|332:294|332:294|352:261|350:219|350:219|377:228,1,216,10|0,2:0|2:0,2:0:0:0:
397,207,29442,2,0,L|384:98,1,90.0000000000002,0|2,2:0|1:2,2:0:0:0:
185,167,29766,1,10,2:0:0:0:
205,67,29928,1,10,2:0:0:0:
312,129,30090,5,0,1:0:0:0:
284,134,30252,1,2,1:2:0:0:
107,145,30415,1,10,2:0:0:0:
127,245,30577,1,8,2:0:0:0:
0,207,30739,1,0,1:0:0:0:
28,212,30901,1,0,1:2:0:0:
236,311,31063,5,10,1:2:0:0:
191,316,31144,1,2,2:0:0:0:
146,321,31225,1,2,2:0:0:0:
100,326,31307,1,2,2:0:0:0:
54,331,31388,6,0,L|62:266,1,48,6|2,1:2|2:0,2:0:0:0:
81,56,31712,6,0,B|115:128|57:203|57:203|91:201|118:228,1,216,10|0,2:0|2:0,2:0:0:0:
186,254,32036,1,2,2:0:0:0:
220,180,32198,1,2,1:2:0:0:
351,304,32361,1,10,2:0:0:0:
404,375,32523,1,2,2:0:0:0:
267,278,32685,5,2,1:2:0:0:
447,229,32847,2,0,P|469:279|477:328,1,96,2|8,2:0|2:0,2:0:0:0:
284,180,33171,2,0,B|282:132|304:89|304:89|263:114|209:105,1,192,2|2,1:2|1:2,2:0:0:0:
243,22,33658,1,10,2:0:0:0:
304,89,33820,1,2,2:0:0:0:
387,52,33982,6,0,L|456:41,1,48,0|2,1:2|2:0,2:0:0:0:
358,260,34307,5,10,2:0:0:0:
438,215,34469,2,0,L|423:111,1,96,2|0,1:2|2:0,2:0:0:0:
432,319,34793,1,2,1:2:0:0:
358,260,34955,1,10,2:0:0:0:
299,334,35117,1,2,2:0:0:0:
132,300,35280,6,0,P|179:280|231:275,1,96,2|2,1:2|2:0,2:0:0:0:
118,185,35604,1,8,2:0:0:0:
238,174,35766,2,0,P|191:194|139:199,1,96,0|0,1:2|2:0,2:0:0:0:
80,115,36090,1,0,1:2:0:0:
57,258,36252,2,0,L|49:302,6,45,12|0|0|0|0|0|0,2:0|2:0|2:0|2:0|2:0|2:0|2:0,2:0:0:0:
133,278,36577,6,0,P|146:307|251:335,1,144,6|0,1:2|2:0,2:0:0:0:
214,254,36901,5,10,2:0:0:0:
218,206,36982,1,2,2:0:0:0:
223,158,37063,1,2,2:0:0:0:
228,110,37144,1,2,2:0:0:0:
233,62,37225,2,0,P|283:53|344:56,1,96,2|0,2:0|1:0,2:0:0:0:
505,122,37550,2,0,P|457:130|409:130,1,96,10|2,2:0|2:0,2:0:0:0:
446,25,37874,5,2,1:2:0:0:
477,217,38036,2,0,B|454:270|451:348|451:348|442:299|394:279,1,216,2|0,2:0|2:0,2:0:0:0:
278,328,38361,2,0,P|327:337|373:361,1,96,2|0,1:2|2:0,2:0:0:0:
223,147,38685,1,2,1:2:0:0:
300,168,38847,2,0,P|319:215|328:270,1,96,10|2,2:0|2:0,2:0:0:0:
167,351,39171,5,2,1:2:0:0:
207,274,39334,1,2,2:0:0:0:
33,140,39496,1,10,2:0:0:0:
94,89,39658,6,0,B|104:118|127:130|127:130|64:204|119:279,1,216,2|0,1:2|2:0,2:0:0:0:
112,290,39982,2,0,L|225:270,1,96,2|10,1:2|2:0,2:0:0:0:
411,157,40307,5,2,1:2:0:0:
411,157,40631,1,2,1:2:0:0:
458,255,40793,1,10,2:0:0:0:
360,302,40955,2,0,L|339:256,1,48,2|0,1:2|1:2,2:0:0:0:
313,204,41117,2,0,L|267:225,1,48,2|0,1:2|1:2,2:0:0:0:
215,251,41280,2,0,L|236:297,1,48,0|0,1:2|1:2,2:0:0:0:
262,349,41442,2,0,L|349:308,1,96,10|0,2:0|1:0,2:0:0:0:
199,24,41766,6,0,P|225:83|220:160,1,120,14|0,2:0|2:0,2:0:0:0:
111,204,42090,2,0,P|87:264|29:315,1,120,8|2,2:0|2:0,2:0:0:0:
199,384,42415,6,0,P|225:325|220:248,1,120,10|2,2:0|1:2,2:0:0:0:
111,204,42739,2,0,P|87:143|29:92,1,120,10|2,2:0|1:2,2:0:0:0:
311,63,43063,6,0,P|370:64|424:89,1,120,10|2,2:0|1:2,2:0:0:0:
412,297,43388,2,0,P|455:256|511:235,1,120,10|2,2:0|2:0,2:0:0:0:
163,223,43712,6,0,P|217:198|276:196,1,120,8|0,2:0|1:0,2:0:0:0:
300,215,43955,1,0,1:0:0:0:
316,299,44036,2,0,P|336:243|377:199,1,120,10|2,2:0|1:2,2:0:0:0:
184,117,44361,6,0,P|124:118|70:143,1,120,10|0,2:0|2:0,2:0:0:0:
269,384,44685,2,0,P|328:382|382:357,1,120,8|2,2:0|2:0,2:0:0:0:
171,327,45009,6,0,P|146:272|144:213,1,120,8|2,2:0|1:2,2:0:0:0:
384,14,45334,2,0,P|408:68|410:127,1,120,10|2,2:0|1:2,2:0:0:0:
232,250,45658,6,0,P|287:275|346:277,1,120,8|2,2:0|1:2,2:0:0:0:
248,69,45982,2,0,P|269:125|309:168,1,120,8|2,2:0|2:0,2:0:0:0:
64,347,46307,6,0,P|84:291|125:247,1,120,8|0,2:0|1:2,2:0:0:0:
151,239,46550,1,0,1:2:0:0:
161,138,46631,2,0,P|101:140|47:165,1,120,12|0,1:2|1:0,2:0:0:0:
361,96,46955,6,0,P|301:93|247:68,1,120,14|0,2:0|2:0,2:0:0:0:
333,209,47280,2,0,P|336:149|361:95,1,120,8|2,2:0|2:0,2:0:0:0:
361,322,47604,6,0,P|301:325|247:350,1,120,8|2,2:0|1:2,2:0:0:0:
333,209,47928,2,0,P|336:269|361:323,1,120,10|2,2:0|1:2,2:0:0:0:
9,205,48252,6,0,P|69:208|123:233,1,120,10|2,2:0|1:2,2:0:0:0:
216,162,48577,2,0,P|161:188|122:232,1,120,10|2,2:0|2:0,2:0:0:0:
490,96,48901,6,0,P|430:99|376:124,1,120,8|2,2:0|1:2,2:0:0:0:
352,137,49144,1,0,1:0:0:0:
283,53,49225,2,0,P|337:79|376:123,1,120,10|2,2:0|1:2,2:0:0:0:
406,343,49550,6,0,P|409:283|434:229,1,120,8|2,2:0|2:0,2:0:0:0:
106,343,49874,2,0,P|103:283|78:229,1,120,10|2,2:0|2:0,2:0:0:0:
437,114,50198,6,0,P|381:134|337:175,1,120,8|2,2:0|1:2,2:0:0:0:
74,114,50523,2,0,P|130:134|175:175,1,120,10|10,2:0|2:0,2:0:0:0:
264,284,51009,5,0,1:0:0:0:
280,317,51090,1,0,1:0:0:0:
248,333,51171,1,0,1:0:0:0:
232,300,51252,1,0,1:0:0:0:
264,284,51334,1,0,1:0:0:0:
280,317,51415,1,0,1:0:0:0:
248,333,51496,1,0,1:0:0:0:
256,145,51658,1,0,1:0:0:0:
429,235,51820,6,0,L|290:210,1,120,8|0,1:2|2:0,2:0:0:0:
149,269,52063,1,0,2:0:0:0:
149,269,52144,6,0,P|122:302|102:368,1,108,4|0,1:0|2:0,2:0:0:0:
54,238,52469,6,0,B|18:206|18:206|-9:142|9:68,1,180,10|0,2:0|2:0,2:0:0:0:
209,81,52793,6,0,B|155:108|155:108|78:107,1,120,2|0,2:0|1:0,2:0:0:0:
134,21,53117,1,8,2:0:0:0:
125,195,53280,6,0,L|421:220,1,288,2|0,1:2|1:2,2:0:0:0:
472,155,53766,5,10,2:0:0:0:
508,273,53928,1,2,1:2:0:0:
417,357,54090,1,2,1:2:0:0:
423,333,54171,1,0,1:0:0:0:
429,310,54252,1,0,1:0:0:0:
224,336,54415,2,0,P|280:306|344:316,1,120,10|2,2:0|2:0,2:0:0:0:
152,271,54739,5,2,1:2:0:0:
65,306,54901,1,2,2:0:0:0:
0,135,55063,1,10,2:0:0:0:
87,170,55225,2,0,B|145:186|145:186|282:133,1,180,2|0,1:2|2:0,2:0:0:0:
289,129,55550,1,2,1:2:0:0:
477,301,55712,1,10,2:0:0:0:
383,339,55874,1,2,1:2:0:0:
397,237,56036,5,2,1:2:0:0:
256,283,56198,1,2,1:2:0:0:
280,280,56280,1,0,1:0:0:0:
303,277,56361,1,10,2:0:0:0:
487,196,56523,1,0,1:0:0:0:
409,134,56685,1,0,1:2:0:0:
495,51,56847,1,0,1:2:0:0:
499,74,56928,1,0,1:0:0:0:
503,97,57009,1,8,2:0:0:0:
319,174,57171,1,0,2:0:0:0:
139,118,57334,6,0,P|181:102|251:101,1,108,2|0,1:2|2:0,2:0:0:0:
184,224,57658,6,0,B|136:241|136:241|60:219,1,120,10|0,2:0|2:0,2:0:0:0:
245,289,57982,1,2,1:2:0:0:
483,309,58144,6,0,P|419:249|300:249,1,180,2|8,1:2|2:0,2:0:0:0:
330,266,58388,1,2,2:0:0:0:
372,342,58469,6,0,B|403:293|403:293|377:53,1,270,2|0,1:2|2:0,2:0:0:0:
399,55,58793,5,2,1:2:0:0:
439,229,58955,1,10,2:0:0:0:
307,150,59117,1,2,1:2:0:0:
191,290,59280,1,2,1:2:0:0:
46,114,59442,5,2,1:2:0:0:
56,92,59523,1,0,1:0:0:0:
66,70,59604,1,10,2:0:0:0:
153,94,59766,1,2,2:0:0:0:
31,270,59928,5,2,1:2:0:0:
31,270,60009,1,2,2:0:0:0:
31,270,60090,2,0,P|69:254|137:253,1,90,2|0,2:0|2:0,2:0:0:0:
102,355,60252,2,0,P|140:371|208:372,1,90,10|0,2:0|2:0,2:0:0:0:
357,308,60415,2,0,B|311:271|311:271|166:295,1,180,2|0,2:0|1:0,2:0:0:0:
259,325,60739,1,2,1:2:0:0:
455,185,60901,1,10,2:0:0:0:
363,97,61063,6,0,L|380:230,1,120,2|0,1:2|2:0,2:0:0:0:
85,137,61388,5,2,1:2:0:0:
85,137,61469,1,2,1:2:0:0:
85,137,61550,2,0,P|63:88|64:26,1,90,2|0,1:2|2:0,2:0:0:0:
169,207,61712,2,0,P|191:158|190:96,1,90,0|0,1:2|2:0,2:0:0:0:
65,246,61874,1,0,1:2:0:0:
344,365,62036,5,0,1:2:0:0:
344,365,62117,1,0,1:0:0:0:
344,365,62198,2,0,P|322:316|323:254,1,90,12|0,2:0|2:0,2:0:0:0:
371,131,62361,5,2,2:0:0:0:
402,205,62442,1,2,2:0:0:0:
378,216,62523,6,0,B|336:193|294:193|294:193|261:216,1,108,6|0,1:2|2:0,2:0:0:0:
79,182,62847,6,0,B|137:148|195:170|195:170|209:139|250:125,1,180,10|0,2:0|2:0,2:0:0:0:
180,362,63171,6,0,B|154:304|154:304|162:230,1,120,2|0,2:0|1:2,2:0:0:0:
239,285,63496,1,10,2:0:0:0:
78,345,63658,6,0,L|40:57,1,288,2|2,1:2|1:2,2:0:0:0:
151,31,64144,5,10,2:0:0:0:
94,159,64307,1,2,1:2:0:0:
202,244,64469,1,2,1:2:0:0:
164,112,64631,1,0,1:0:0:0:
187,114,64712,1,0,1:0:0:0:
210,116,64793,1,10,2:0:0:0:
337,62,64955,1,2,2:0:0:0:
415,176,65117,5,2,1:2:0:0:
385,292,65280,1,2,2:0:0:0:
232,360,65442,1,10,2:0:0:0:
202,244,65604,2,0,P|149:206|24:192,1,180,2|0,1:2|2:0,2:0:0:0:
10,202,65928,1,2,1:2:0:0:
57,286,66090,1,10,2:0:0:0:
205,143,66252,1,2,1:2:0:0:
42,88,66415,5,2,1:2:0:0:
120,39,66577,1,2,1:2:0:0:
129,61,66658,1,0,1:0:0:0:
133,84,66739,1,10,2:0:0:0:
149,218,66901,1,0,1:2:0:0:
296,147,67063,1,0,1:0:0:0:
218,98,67225,1,0,1:0:0:0:
209,120,67307,1,0,1:0:0:0:
205,143,67388,1,8,2:0:0:0:
216,276,67550,1,0,1:0:0:0:
344,278,67712,6,0,P|397:260|466:261,1,108,2|0,1:2|2:0,2:0:0:0:
393,341,68036,6,0,B|355:364|355:364|310:358|281:330|281:330|257:353|222:365,1,180,10|0,2:0|2:0,2:0:0:0:
204,356,68361,1,2,1:2:0:0:
306,140,68523,6,0,P|330:198|344:288,1,144,2|8,1:2|2:0,2:0:0:0:
203,239,68847,2,0,B|168:135|168:135|223:27,1,216,2|0,1:2|2:0,2:0:0:0:
242,57,69171,5,2,1:2:0:0:
87,77,69334,1,10,2:0:0:0:
232,171,69496,1,2,1:2:0:0:
88,295,69658,1,2,1:2:0:0:
268,359,69820,1,0,1:2:0:0:
268,359,69901,1,0,1:0:0:0:
268,359,69982,1,10,2:0:0:0:
213,258,70144,6,0,L|342:269,1,120,2|2,2:0|1:2,2:0:0:0:
417,294,70388,1,2,2:0:0:0:
412,270,70469,1,2,2:0:0:0:
407,246,70550,1,0,2:0:0:0:
402,222,70631,6,0,P|418:183|425:115,1,90,10|0,2:0|2:0,2:0:0:0:
365,11,70793,2,0,B|323:46|323:46|344:188,1,180,2|0,1:2|2:0,2:0:0:0:
175,369,71117,1,2,1:2:0:0:
213,258,71280,1,10,2:0:0:0:
80,161,71442,6,0,P|117:245|327:265,1,288,2|0,1:2|1:2,2:0:0:0:
386,265,71847,5,0,1:0:0:0:
386,265,71928,2,0,P|365:308|357:350,1,90,8|0,2:0|2:0,2:0:0:0:
462,211,72090,2,0,P|482:251|490:295,1,90,0|0,1:0|1:0,2:0:0:0:
384,164,72252,1,0,1:0:0:0:
482,50,72415,5,0,1:0:0:0:
482,50,72496,1,0,1:0:0:0:
482,50,72577,2,0,P|443:75|384:80,1,90,0|0,1:0|2:0,2:0:0:0:
324,48,72739,2,0,P|285:23|226:18,1,90,0|0,1:0|1:0,2:0:0:0:
168,56,72901,1,0,1:2:0:0:
51,116,73712,6,0,L|99:105,10,45,2|2|2|2|2|2|2|2|2|2|2,2:3|2:3|2:3|2:3|2:3|2:3|2:3|2:3|2:3|2:3|2:3,2:0:0:0:
162,158,74198,6,0,P|160:211|128:284,1,120,4|0,1:0|2:0,2:0:0:0:
51,221,74523,1,8,2:0:0:0:
241,291,74685,2,0,L|450:280,1,180,0|0,2:0|1:0,2:0:0:0:
476,200,75171,1,8,2:0:0:0:
362,374,75334,6,0,P|328:327|321:241,1,120,0|0,1:0|2:0,2:0:0:0:
411,32,75658,1,0,1:0:0:0:
416,55,75739,1,0,1:0:0:0:
422,78,75820,1,8,2:0:0:0:
172,85,75982,2,0,P|276:95|399:178,1,240,0|0,1:0|1:0,2:0:0:0:
228,267,76469,1,8,2:0:0:0:
245,168,76631,1,0,2:0:0:0:
131,296,76793,6,0,P|69:289|-2:307,1,120,0|0,1:0|2:0,2:0:0:0:
39,191,77117,1,8,2:0:0:0:
228,267,77280,2,0,B|284:280|284:280|341:247|400:285,1,180,0|2,2:0|1:2,2:0:0:0:
340,353,77766,1,8,2:0:0:0:
475,235,77928,6,0,L|454:114,1,120,0|0,1:0|2:0,2:0:0:0:
314,154,78252,1,0,1:0:0:0:
337,161,78334,1,0,1:0:0:0:
360,164,78415,1,8,2:0:0:0:
354,70,78577,1,0,1:0:0:0:
222,184,78739,1,0,1:0:0:0:
269,316,78901,1,0,1:0:0:0:
278,293,78982,1,0,1:0:0:0:
280,269,79063,2,0,L|119:287,1,120,8|0,2:0|2:0,2:0:0:0:
24,93,79388,6,0,P|70:106|130:148,1,120,0|0,1:0|2:0,2:0:0:0:
76,228,79712,1,10,2:0:0:0:
110,27,79874,2,0,B|169:56|169:56|295:34,1,180,0|0,2:0|1:0,2:0:0:0:
486,135,80361,1,8,2:0:0:0:
341,186,80523,6,0,P|373:137|388:69,1,120,0|0,1:0|2:0,2:0:0:0:
224,145,80847,1,0,1:0:0:0:
387,77,81009,1,8,2:0:0:0:
448,245,81171,2,0,B|418:287|418:287|285:332,1,180,0|0,1:0|2:0,2:0:0:0:
269,336,81496,1,0,1:0:0:0:
309,112,81658,2,0,P|337:180|342:237,1,120,8|0,2:0|2:0,2:0:0:0:
171,303,81982,5,0,1:0:0:0:
148,296,82063,1,0,1:0:0:0:
124,289,82144,1,0,1:0:0:0:
101,282,82225,1,0,1:0:0:0:
77,275,82307,1,8,1:2:0:0:
0,350,82469,1,0,1:0:0:0:
150,193,82631,2,0,L|129:69,1,120,0|0,1:0|1:0,2:0:0:0:
45,44,82955,1,0,1:0:0:0:
241,128,83117,6,0,P|291:180|459:181,1,240,8|8,2:0|2:0,2:0:0:0:
410,114,83523,1,8,2:0:0:0:
410,114,83604,2,0,L|400:39,1,60,8|8,2:0|2:0,2:0:0:0:
512,251,83766,1,8,2:0:0:0:
372,344,83928,1,8,2:0:0:0:
441,197,84090,1,0,1:0:0:0:
430,218,84171,1,0,1:0:0:0:
433,241,84252,2,0,L|451:336,1,90,8|0,2:0|2:0,2:0:0:0:
294,327,84415,2,0,L|285:378,2,45,0|0|0,1:0|2:0|2:0,2:0:0:0:
338,243,84577,6,0,P|275:208|218:210,1,120,4|0,1:2|2:0,2:0:0:0:
54,255,84901,1,8,2:0:0:0:
143,288,85063,2,0,B|152:235|152:235|144:218|144:218|152:172|152:172|166:158|166:158|173:113,1,180,0|0,2:0|1:0,2:0:0:0:
123,35,85550,1,8,2:0:0:0:
268,168,85712,6,0,P|330:148|384:142,1,120,0|0,1:0|2:0,2:0:0:0:
386,361,86036,1,0,1:0:0:0:
391,337,86117,1,0,1:0:0:0:
408,319,86198,1,8,2:0:0:0:
499,272,86361,2,0,P|430:233|257:268,1,240,0|0,1:0|1:0,2:0:0:0:
167,356,86847,1,8,2:0:0:0:
194,252,87009,1,0,2:0:0:0:
26,221,87171,6,0,P|71:267|134:289,1,120,0|0,1:0|2:0,2:0:0:0:
219,144,87496,1,8,2:0:0:0:
142,37,87658,2,0,B|106:65|106:65|115:199,1,180,0|0,2:0|1:0,2:0:0:0:
44,352,88144,1,8,2:0:0:0:
236,313,88307,6,0,P|177:288|119:287,1,120,0|0,1:0|2:0,2:0:0:0:
314,263,88631,1,0,1:0:0:0:
337,257,88712,1,0,1:0:0:0:
358,245,88793,1,8,2:0:0:0:
492,349,88955,1,0,1:0:0:0:
405,324,89117,1,0,1:0:0:0:
392,161,89280,1,0,1:0:0:0:
414,169,89361,1,0,1:0:0:0:
434,181,89442,1,8,2:0:0:0:
464,263,89604,1,0,2:0:0:0:
306,171,89766,6,0,B|281:116|281:116|292:44,1,120,0|0,1:0|2:0,2:0:0:0:
375,22,90090,1,8,2:0:0:0:
198,89,90252,2,0,B|159:109|159:109|122:167|162:256,1,180,0|0,2:0|1:0,2:0:0:0:
85,360,90739,1,8,2:0:0:0:
51,248,90901,6,0,L|183:275,1,120,0|0,1:0|2:0,2:0:0:0:
321,215,91225,1,0,1:0:0:0:
168,272,91388,1,8,2:0:0:0:
312,362,91550,2,0,B|405:377|488:348|488:348|419:319,1,240,0|0,1:0|1:0,2:0:0:0:
412,224,92036,1,8,2:0:0:0:
437,40,92198,1,0,1:0:0:0:
491,126,92361,5,0,1:0:0:0:
472,141,92442,1,0,1:0:0:0:
448,138,92523,1,0,1:0:0:0:
424,135,92604,1,0,1:0:0:0:
400,132,92685,1,8,1:2:0:0:
211,152,92847,5,0,1:0:0:0:
234,148,92928,1,0,1:0:0:0:
257,144,93009,1,0,1:0:0:0:
280,140,93090,1,0,1:0:0:0:
296,157,93171,1,0,1:0:0:0:
312,174,93252,1,0,1:0:0:0:
329,191,93334,1,8,1:2:0:0:
268,352,93496,5,0,1:0:0:0:
268,352,93577,1,0,1:0:0:0:
268,352,93658,2,0,L|251:216,1,120,0|0,1:0|1:0,2:0:0:0:
44,87,93982,1,8,2:0:0:0:
128,31,94144,5,0,1:0:0:0:
128,31,94225,1,0,2:0:0:0:
128,31,94307,2,0,P|142:74|149:127,1,90,8|0,2:0|2:0,2:0:0:0:
69,175,94469,2,0,P|55:218|48:271,1,90,0|0,1:0|2:0,2:0:0:0:
118,340,94631,1,8,2:0:0:0:
118,340,94712,1,0,2:0:0:0:
118,340,94793,1,0,1:0:0:0:
391,316,94955,6,0,L|338:303,16,45.0000000000001,2|2|2|2|2|2|2|2|2|2|2|2|2|2|2|2|2,2:0|2:0|2:0|2:0|2:0|2:0|2:0|2:0|2:0|2:0|2:0|2:0|2:0|2:0|2:0|2:0|2:0,2:0:0:0:
