osu file format v14

[General]
AudioFilename: audio.mp3
AudioLeadIn: 0
PreviewTime: 52075
Countdown: 0
SampleSet: Soft
StackLeniency: 0.4
Mode: 0
LetterboxInBreaks: 0
WidescreenStoryboard: 0

[Editor]
Bookmarks: 10575,20953,31332,41710,52088,53224,62467,78751,177926,179061,188305
DistanceSpacing: 1
BeatDivisor: 4
GridSize: 4
TimelineZoom: 4.999997

[Metadata]
Title:Mekakushi Code (Cut Ver.)
TitleUnicode:メカクシコード (Cut Ver.)
Artist:JIN feat. Yasagure Koneko
ArtistUnicode:じん feat. やさぐれ子猫
Creator:Nevo
Version:Kagerou
Source:カゲロウプロジェクト
Tags:vocaloid Mekakucity Actors 自然の敵P Shizen no Teki P Teki-P TekiP Blindfold daze kagerou project メカクシティアクターズ japanese pop jpop jrock rock anime utaite cover captin1 frontier -_frontier_- lit120 agatsu -Hakurei-
BeatmapID:2172300
BeatmapSetID:1039223

[Difficulty]
HPDrainRate:6
CircleSize:4.4
OverallDifficulty:9
ApproachRate:9.3
SliderMultiplier:1.7
SliderTickRate:1

[Events]
//Background and Video events
0,0,"2 mekakushi code.jpg",0,0
//Break Periods
//Storyboard Layer 0 (Background)
//Storyboard Layer 1 (Fail)
//Storyboard Layer 2 (Pass)
//Storyboard Layer 3 (Foreground)
//Storyboard Layer 4 (Overlay)
//Storyboard Sound Samples

[TimingPoints]
253,324.324324324324,4,2,1,50,1,0
496,-100,4,2,1,5,0,0
577,-100,4,2,1,50,0,0
1144,-100,4,2,1,5,0,0
1225,-100,4,2,1,50,0,0
5685,-100,4,2,1,5,0,0
5766,-100,4,2,1,50,0,0
6333,-100,4,2,1,5,0,0
6414,-100,4,2,1,50,0,0
9982,-100,4,2,1,65,0,0
10631,-100,4,2,1,85,0,0
13468,-100,4,2,1,5,0,0
13550,-100,4,2,1,85,0,0
20928,-100,4,2,1,5,0,0
21009,-133.333333333333,4,2,1,65,0,0
22712,-133.333333333333,4,2,1,5,0,0
22793,-133.333333333333,4,2,1,65,0,0
26117,-133.333333333333,4,2,1,5,0,0
26198,-133.333333333333,4,2,1,65,0,0
30982,-133.333333333333,4,2,1,5,0,0
31063,-133.333333333333,4,2,1,65,0,0
31306,-133.333333333333,4,2,1,5,0,0
31388,-100,4,2,1,75,0,0
36495,-100,4,2,1,5,0,0
36577,-100,4,2,1,75,0,0
36820,-100,4,2,1,5,0,0
36901,-100,4,2,1,75,0,0
52144,-83.3333333333333,4,2,1,85,0,1
52387,-83.3333333333333,4,2,1,5,0,1
52469,-83.3333333333333,4,2,1,85,0,1
57252,-83.3333333333333,4,2,1,5,0,1
57334,-83.3333333333333,4,2,1,85,0,1
62766,-83.3333333333333,4,2,1,5,0,1
62847,-83.3333333333333,4,2,1,85,0,1
67955,-83.3333333333333,4,2,1,5,0,1
68036,-83.3333333333333,4,2,1,85,0,1
72901,-83.3333333333333,4,2,1,85,0,1
73712,-83.3333333333333,4,2,1,5,0,1
73752,-83.3333333333333,4,2,1,5,0,1
73793,-83.3333333333333,4,2,1,10,0,1
73833,-83.3333333333333,4,2,1,10,0,1
73874,-83.3333333333333,4,2,1,15,0,1
73914,-83.3333333333333,4,2,1,20,0,1
73955,-83.3333333333333,4,2,1,25,0,1
73995,-83.3333333333333,4,2,1,30,0,1
74036,-83.3333333333333,4,2,1,35,0,1
74076,-83.3333333333333,4,2,1,40,0,1
74117,-83.3333333333333,4,2,1,45,0,1
74157,-83.3333333333333,4,2,1,50,0,1
74198,-100,4,2,1,85,0,0
74523,-100,4,2,1,85,0,0
94955,-100,4,2,1,20,0,0

[Colours]
Combo1 : 255,128,128
Combo2 : 170,255,170
Combo3 : 207,159,255

[HitObjects]
372,254,253,6,0,P|330:224|238:233,1,127.5,6|0,3:2|0:0,0:0:0:0:
207,285,577,2,0,L|218:200,1,85,2|2,3:2|0:2,0:0:0:0:
0,127,901,2,0,P|48:145|134:112,1,127.5,0|0,3:2|0:0,0:0:0:0:
151,54,1225,2,0,L|162:146,1,85,2|2,3:2|0:2,0:0:0:0:
393,110,1550,6,0,P|342:70|226:93,1,170,0|2,3:2|3:2,0:0:0:0:
269,309,2198,2,0,B|310:258|310:258|302:143,1,170,2|2,3:2|3:2,0:0:0:0:
29,252,2847,6,0,L|38:354,1,85,2|0,3:2|0:0,0:0:0:0:
116,216,3171,2,0,L|125:318,1,85,2|2,3:2|0:2,0:0:0:0:
45,158,3496,1,0,3:2:0:0:
201,246,3820,1,2,3:2:0:0:
371,165,4144,6,0,P|311:145|266:149,1,85,0|2,3:2|0:2,0:0:0:0:
382,253,4469,2,0,P|353:196|319:167,1,85,2|2,3:2|0:2,0:0:0:0:
346,328,4793,1,2,3:2:0:0:
459,192,5117,1,2,3:2:0:0:
278,17,5442,6,0,L|289:145,1,127.5,2|0,3:2|0:0,0:0:0:0:
288,144,5766,2,0,L|202:123,1,85,2|2,3:2|0:2,0:0:0:0:
207,350,6090,6,0,L|218:222,1,127.5,0|0,3:2|0:0,0:0:0:0:
217,222,6414,2,0,L|130:243,1,85,2|2,3:2|0:2,0:0:0:0:
8,111,6739,6,0,P|71:156|176:110,1,170,0|2,3:2|3:2,0:0:0:0:
365,237,7388,2,0,P|287:263|216:221,1,170,2|2,3:2|3:2,0:0:0:0:
383,69,8036,6,0,L|393:159,1,85,2|2,3:2|0:2,0:0:0:0:
504,239,8361,2,0,L|494:329,1,85,2|2,3:2|0:2,0:0:0:0:
308,353,8685,1,2,3:2:0:0:
308,353,8766,1,0,3:2:0:0:
308,353,8847,1,2,3:2:0:0:
384,284,9009,1,2,0:2:0:0:
219,331,9171,1,2,3:2:0:0:
219,331,9982,2,0,L|229:234,1,85,10|2,0:2|3:2,0:0:0:0:
280,182,10225,1,0,3:2:0:0:
278,150,10307,1,10,0:2:0:0:
275,113,10388,1,2,0:2:0:0:
273,81,10469,1,2,0:2:0:0:
270,44,10550,1,2,0:2:0:0:
267,9,10631,6,0,P|186:60|108:27,1,170,2|10,3:2|0:2,0:0:0:0:
197,100,11117,1,0,0:0:0:0:
61,194,11280,2,0,P|58:236|73:275,1,85,2|2,0:2|3:2,0:0:0:0:
180,301,11604,1,8,0:2:0:0:
15,331,11766,6,0,B|81:321|81:321|108:333|108:333|187:321,1,170,2|0,0:2|0:0,0:0:0:0:
331,271,12252,1,8,0:2:0:0:
249,230,12415,1,2,3:2:0:0:
315,364,12577,2,0,L|405:351,1,85,2|2,0:2|3:2,0:0:0:0:
508,281,12901,2,0,L|418:268,1,85,10|2,0:2|0:2,0:0:0:0:
420,51,13225,6,0,P|458:121|467:181,1,127.5,2|0,3:2|0:0,0:0:0:0:
480,195,13550,2,0,P|492:133|490:93,1,85,10|0,0:2|0:0,0:0:0:0:
287,108,13874,1,2,0:2:0:0:
371,144,14036,1,2,3:2:0:0:
219,176,14198,1,8,0:2:0:0:
388,279,14361,6,0,P|319:267|215:268,1,170,2|0,0:2|0:0,0:0:0:0:
41,297,14847,1,8,0:2:0:0:
117,228,15009,1,2,3:2:0:0:
30,110,15171,2,0,P|22:179|29:211,1,85,2|2,0:2|3:2,0:0:0:0:
209,25,15496,2,0,P|217:94|210:126,1,85,10|0,0:2|0:0,0:0:0:0:
21,20,15820,6,0,L|204:6,1,170,6|10,3:2|0:2,0:0:0:0:
360,122,16307,1,0,0:0:0:0:
398,17,16469,1,0,0:0:0:0:
345,140,16631,1,2,3:2:0:0:
497,129,16793,1,8,0:2:0:0:
280,58,16955,6,0,P|290:114|304:236,1,170,2|0,0:2|0:0,0:0:0:0:
168,367,17442,2,0,P|165:306|169:263,1,85,8|2,0:2|3:2,0:0:0:0:
342,337,17766,2,0,L|253:323,1,85,2|2,0:2|3:2,0:0:0:0:
466,247,18090,2,0,L|374:258,1,85,10|0,0:2|0:0,0:0:0:0:
72,234,18415,6,0,P|170:244|225:165,1,170,2|10,3:2|0:2,0:0:0:0:
242,83,18901,1,0,0:0:0:0:
129,167,19063,1,0,0:0:0:0:
57,40,19226,1,2,3:2:0:0:
216,197,19388,1,8,0:2:0:0:
329,120,19550,5,2,0:2:0:0:
150,82,19712,1,2,3:2:0:0:
120,80,19793,1,0,3:2:0:0:
90,82,19874,1,2,3:2:0:0:
61,85,19955,1,0,3:2:0:0:
31,91,20036,1,10,0:2:0:0:
216,197,20198,1,10,0:2:0:0:
216,197,20280,1,8,0:2:0:0:
216,197,20361,1,10,0:2:0:0:
221,14,20523,1,2,3:2:0:0:
99,181,20685,2,0,L|118:310,1,127.5,10|0,0:2|0:0,0:0:0:0:
86,380,21009,6,0,P|137:348|216:342,1,127.500004863739,4|10,3:2|0:2,0:0:0:0:
202,340,21658,2,0,L|196:252,1,63.7500024318696,2|2,0:2|3:2,0:0:0:0:
288,220,21982,2,0,L|282:308,1,63.7500024318696,10|2,0:2|0:2,0:0:0:0:
236,142,22307,5,2,3:2:0:0:
236,142,22469,2,0,P|298:125|344:141,1,95.6250036478044,2|0,0:2|0:0,0:0:0:0:
373,202,22793,2,0,L|371:289,1,63.7500024318696,2|0,0:2|0:0,0:0:0:0:
472,366,23117,1,2,3:2:0:0:
449,289,23280,1,10,0:2:0:0:
383,344,23442,1,2,0:2:0:0:
271,258,23604,6,0,P|231:252|181:264,1,63.7500024318696,2|2,3:2|0:2,0:0:0:0:
171,169,23928,2,0,B|161:172|161:172|155:187|155:187|139:194|139:194|123:211|123:211|120:232,1,63.7500024318696,10|2,0:2|0:2,0:0:0:0:
81,351,24252,2,0,L|70:281,1,63.7500024318696,0|2,0:0|3:2,0:0:0:0:
39,175,24577,1,10,0:2:0:0:
0,245,24739,1,2,0:2:0:0:
115,126,24901,5,2,3:2:0:0:
20,64,25063,2,0,P|61:82|151:57,1,127.500004863739,2|0,0:2|0:0,0:0:0:0:
231,23,25550,1,0,0:0:0:0:
299,99,25712,1,0,3:2:0:0:
391,49,25874,2,2,B|417:36|417:36|430:44|442:44|432:40|458:31|496:64,1,95.6250036478044,10|0,0:2|0:0,0:0:0:0:
512,136,26198,5,0,3:2:0:0:
507,152,26523,2,0,B|484:149|484:149|470:153|470:153|458:157|458:157|428:148,1,63.7500024318696,10|0,0:2|0:0,0:0:0:0:
308,221,26847,2,0,L|382:213,1,63.7500024318696,2|2,0:2|3:2,0:0:0:0:
234,171,27171,1,10,0:2:0:0:
207,248,27334,1,2,0:2:0:0:
174,93,27496,1,2,3:2:0:0:
139,180,27658,2,0,P|90:182|58:162,1,63.7500024318696,2|8,0:2|0:2,0:0:0:0:
234,171,27982,6,0,L|224:318,1,127.500004863739,2|2,0:2|3:2,0:0:0:0:
322,371,28469,1,10,0:2:0:0:
322,371,28631,2,0,L|313:287,1,63.7500024318696,2|0,0:2|3:2,0:0:0:0:
394,174,28955,1,2,0:2:0:0:
455,301,29117,2,0,B|437:289|437:289|426:295|426:295|405:287|405:287|383:283,1,63.7500024318696,10|0,0:2|0:0,0:0:0:0:
291,220,29442,1,0,0:0:0:0:
214,309,29604,1,2,3:2:0:0:
214,309,29766,1,10,0:2:0:0:
98,218,29928,2,0,L|90:135,1,63.7500024318696,8|0,0:2|3:2,0:0:0:0:
31,72,30252,1,2,3:2:0:0:
159,145,30415,5,10,0:2:0:0:
5,158,30577,1,8,0:2:0:0:
127,53,30739,1,0,3:2:0:0:
242,185,30901,6,0,L|286:182,1,31.8750012159348,2|0,3:2|0:0,0:0:0:0:
352,128,31063,2,2,B|377:136|377:136|401:133|401:133|412:141|412:141|432:143|432:143|443:135|443:135|459:139,1,95.6250036478044,10|0,0:2|0:0,0:0:0:0:
488,203,31388,6,0,P|498:256|494:296,1,85,6|2,3:2|0:2,0:0:0:0:
375,361,31712,2,0,P|324:343|291:319,1,85,10|0,0:2|0:0,0:0:0:0:
336,137,32036,1,2,0:2:0:0:
382,244,32198,1,2,3:2:0:0:
219,192,32361,1,10,0:2:0:0:
422,160,32523,1,2,0:2:0:0:
261,297,32685,5,2,3:2:0:0:
261,297,32847,2,0,L|174:286,1,85,2|8,0:2|0:2,0:0:0:0:
25,350,33171,2,0,L|112:339,1,85,2|0,0:2|0:0,0:0:0:0:
68,172,33496,1,2,3:2:0:0:
68,172,33658,2,0,P|54:227|64:266,1,85,10|2,0:2|0:2,0:0:0:0:
153,134,33982,6,0,L|140:44,1,85,2|2,3:2|0:2,0:0:0:0:
270,156,34307,1,10,0:2:0:0:
226,227,34469,1,2,0:2:0:0:
372,303,34631,1,0,0:0:0:0:
317,241,34793,1,2,3:2:0:0:
406,132,34955,2,0,L|403:228,1,85,10|2,0:2|0:2,0:0:0:0:
302,351,35280,5,2,3:2:0:0:
467,353,35442,2,0,P|404:336|301:351,1,170,2|0,0:2|0:0,0:0:0:0:
207,298,35928,1,0,0:0:0:0:
102,340,36090,1,2,3:2:0:0:
22,262,36252,2,2,B|12:215|12:215|33:200|33:200|15:123,1,127.5,10|0,0:2|0:0,0:0:0:0:
11,70,36577,6,0,P|46:106|140:113,1,127.5,2|0,3:2|0:0,0:0:0:0:
156,101,36901,2,0,P|206:87|255:97,1,85,10|0,0:2|0:0,0:0:0:0:
383,161,37225,1,2,0:2:0:0:
351,59,37388,1,2,3:2:0:0:
283,175,37550,2,0,L|296:285,1,85,10|2,0:2|0:2,0:0:0:0:
237,379,37874,5,2,3:2:0:0:
360,315,38036,2,0,P|426:302|469:302,1,85,2|8,0:2|0:2,0:0:0:0:
201,265,38361,2,0,P|81:248|15:244,1,170,2|2,0:2|3:2,0:0:0:0:
108,93,38847,2,0,P|131:143|132:184,1,85,10|2,0:2|0:2,0:0:0:0:
30,55,39171,5,2,3:2:0:0:
108,10,39334,1,2,0:2:0:0:
198,114,39496,1,10,0:2:0:0:
277,84,39658,2,0,B|353:68|353:68|382:81|382:81|452:82,1,170,2|2,0:2|3:2,0:0:0:0:
342,240,40144,1,10,0:2:0:0:
342,240,40307,6,0,P|331:192|339:154,1,85,2|0,3:2|0:0,0:0:0:0:
414,305,40631,1,2,3:2:0:0:
240,226,40793,1,10,0:2:0:0:
423,203,40955,1,2,3:2:0:0:
423,203,41036,1,0,3:2:0:0:
423,203,41117,2,0,L|475:196,3,42.5,2|0|0|0,3:2|3:2|3:2|3:2,0:0:0:0:
337,157,41442,1,10,0:2:0:0:
73,109,41766,6,0,L|163:98,1,85,14|0,0:2|0:0,0:0:0:0:
64,126,42090,2,0,L|154:115,1,85,8|2,0:2|0:2,0:0:0:0:
55,143,42415,2,0,L|145:132,1,85,8|2,0:2|3:2,0:0:0:0:
46,160,42739,2,0,L|136:149,1,85,10|2,0:2|3:2,0:0:0:0:
274,229,43063,6,0,L|184:218,1,85,10|2,0:2|3:2,0:0:0:0:
283,246,43387,2,0,L|193:235,1,85,10|2,0:2|0:2,0:0:0:0:
292,263,43712,2,0,L|202:252,1,85,8|2,0:2|3:2,0:0:0:0:
301,280,44036,2,0,L|211:269,1,85,10|2,0:2|3:2,0:0:0:0:
327,101,44361,6,0,P|346:144|361:195,1,85,10|0,0:2|0:0,0:0:0:0:
402,65,44685,2,0,P|421:108|436:159,1,85,8|2,0:2|0:2,0:0:0:0:
246,53,45009,2,0,P|227:96|212:147,1,85,8|2,0:2|3:2,0:0:0:0:
171,17,45334,1,10,0:2:0:0:
171,17,45496,6,0,P|152:60|137:111,1,85,2|8,3:2|0:2,0:0:0:0:
82,187,45820,1,2,3:2:0:0:
32,118,45982,1,10,0:2:0:0:
13,262,46144,2,0,P|60:235|175:244,1,170,2|0,0:2|3:2,0:0:0:0:
179,247,46550,1,0,3:2:0:0:
179,247,46631,2,0,L|274:234,1,85,8|0,0:2|3:2,0:0:0:0:
394,331,46955,6,0,P|358:299|337:260,1,85,10|0,0:2|0:0,0:0:0:0:
326,384,47280,2,0,P|292:351|269:313,1,85,8|2,0:2|0:2,0:0:0:0:
314,105,47604,2,0,P|316:153|304:195,1,85,8|2,0:2|3:2,0:0:0:0:
399,115,47929,2,0,P|399:162|389:205,1,85,10|2,0:2|3:2,0:0:0:0:
69,140,48252,6,0,L|162:123,1,85,10|2,0:2|3:2,0:0:0:0:
22,67,48577,1,10,0:2:0:0:
22,67,48739,2,0,L|115:50,1,85,2|8,0:2|0:2,0:0:0:0:
281,74,49063,1,2,3:2:0:0:
281,74,49144,1,0,3:2:0:0:
281,74,49225,1,10,0:2:0:0:
186,121,49388,1,2,3:2:0:0:
276,278,49550,6,0,P|325:259|344:229,1,85,8|2,0:2|0:2,0:0:0:0:
373,81,49874,2,0,P|364:132|381:164,1,85,10|2,0:2|0:2,0:0:0:0:
496,264,50198,2,0,P|455:231|419:229,1,85,8|2,0:2|3:2,0:0:0:0:
259,192,50523,1,10,0:2:0:0:
270,362,50685,6,0,L|277:262,1,85,2|0,3:2|0:0,0:0:0:0:
4,246,51009,1,0,3:2:0:0:
25,282,51090,1,0,3:2:0:0:
60,305,51171,1,0,3:2:0:0:
102,309,51252,1,0,3:2:0:0:
142,295,51334,2,0,L|152:241,1,42.5,0|0,3:2|3:2,0:0:0:0:
210,173,51496,2,0,L|219:215,1,42.5,0|0,3:2|0:0,0:0:0:0:
132,129,51658,2,0,L|140:87,1,42.5,0|0,3:2|3:0,0:0:0:0:
201,24,51820,5,8,0:2:0:0:
210,11,52144,6,0,P|286:-1|355:43,1,152.999995330811,6|0,3:2|0:0,0:0:0:0:
405,95,52469,2,0,L|398:201,1,101.999996887207,10|0,0:2|0:0,0:0:0:0:
501,309,52793,2,0,B|455:272|395:300|395:300|341:326|271:290,1,203.999993774414,2|10,0:2|0:2,0:0:0:0:
227,225,53280,2,0,P|279:297|186:360,1,203.999993774414,2|2,3:2|3:2,0:0:0:0:
41,262,53766,1,10,0:2:0:0:
235,141,53928,1,2,3:2:0:0:
22,62,54090,2,0,L|41:171,1,101.999996887207,2|0,0:2|3:2,0:0:0:0:
374,163,54415,2,0,L|393:54,1,101.999996887207,10|2,0:2|0:2,0:0:0:0:
139,3,54739,5,2,3:2:0:0:
293,75,54901,1,2,0:2:0:0:
39,162,55063,1,10,0:2:0:0:
246,267,55225,2,0,P|311:201|429:240,1,203.999993774414,2|2,0:2|3:2,0:0:0:0:
353,384,55712,2,0,L|334:277,1,101.999996887207,10|2,0:2|3:2,0:0:0:0:
308,109,56036,5,2,0:2:0:0:
260,355,56198,1,2,3:2:0:0:
70,243,56361,2,0,P|36:149|115:92,1,203.999993774414,10|0,0:2|3:0,0:0:0:0:
181,257,56847,1,0,3:2:0:0:
224,161,57009,2,0,L|111:174,1,101.999996887207,8|0,0:2|0:0,0:0:0:0:
224,60,57334,6,0,P|262:73|328:129,1,101.999996887207,2|0,3:2|0:0,0:0:0:0:
469,7,57658,2,0,P|421:19|366:67,1,101.999996887207,10|0,0:2|0:0,0:0:0:0:
459,209,57982,1,2,0:2:0:0:
459,209,58144,2,0,P|469:136|459:100,1,101.999996887207,2|8,3:2|0:2,0:0:0:0:
299,304,58469,6,0,B|395:294|395:294|416:310|416:310|505:301,1,203.999993774414,2|2,3:2|3:2,0:0:0:0:
247,226,58955,2,0,P|207:283|209:325,1,101.999996887207,10|2,0:2|3:2,0:0:0:0:
332,203,59280,2,0,L|319:85,1,101.999996887207,2|2,0:2|3:2,0:0:0:0:
193,153,59604,1,10,0:2:0:0:
395,37,59766,6,0,P|441:22|513:24,1,101.999996887207,2|0,0:2|3:2,0:0:0:0:
445,225,60090,1,2,0:2:0:0:
277,2,60252,1,10,0:2:0:0:
200,295,60415,2,0,P|149:294|100:278,1,101.999996887207,2|0,0:2|3:2,0:0:0:0:
262,178,60739,1,2,3:2:0:0:
379,375,60901,1,10,0:2:0:0:
433,123,61063,6,0,L|447:247,1,101.999996887207,2|0,3:2|0:0,0:0:0:0:
208,87,61388,1,2,3:2:0:0:
208,87,61469,1,2,0:2:0:0:
208,87,61550,1,10,0:2:0:0:
463,25,61712,1,0,3:2:0:0:
102,84,61874,1,8,0:2:0:0:
349,136,62036,1,0,3:2:0:0:
125,303,62198,2,0,P|105:255|107:193,1,101.999996887207,8|0,0:2|0:0,0:0:0:0:
427,320,62523,6,0,L|245:309,1,152.999995330811,6|0,3:2|0:0,0:0:0:0:
256,299,62847,2,0,L|374:283,1,101.999996887207,10|0,0:2|0:0,0:0:0:0:
337,105,63171,2,0,P|303:149|297:206,1,101.999996887207,2|0,0:2|3:2,0:0:0:0:
432,244,63496,1,10,0:2:0:0:
383,17,63658,6,0,B|296:20|296:20|272:44|272:44|182:49,1,203.999993774414,2|2,3:2|3:2,0:0:0:0:
52,0,64144,2,0,P|92:38|104:94,1,101.999996887207,10|2,0:2|3:2,0:0:0:0:
24,257,64469,2,0,L|30:140,1,101.999996887207,2|0,0:2|3:2,0:0:0:0:
238,279,64793,1,10,0:2:0:0:
118,324,64955,1,2,0:2:0:0:
224,173,65117,5,2,3:2:0:0:
317,355,65280,1,2,0:2:0:0:
140,227,65442,1,10,0:2:0:0:
340,126,65604,2,0,L|326:272,1,101.999996887207,2|0,0:2|0:0,0:0:0:0:
201,372,65928,1,2,3:2:0:0:
441,186,66090,1,10,0:2:0:0:
121,123,66252,1,2,3:2:0:0:
356,29,66415,5,2,0:2:0:0:
238,279,66577,1,2,3:2:0:0:
27,80,66739,2,0,P|102:95|205:18,1,203.999993774414,10|0,0:2|3:2,0:0:0:0:
121,123,67225,1,0,3:2:0:0:
121,123,67388,2,0,P|116:199|122:246,1,101.999996887207,8|0,0:2|0:0,0:0:0:0:
250,351,67712,6,0,L|266:184,1,152.999995330811,2|0,3:2|0:0,0:0:0:0:
293,124,68036,2,0,L|303:250,1,101.999996887207,10|0,0:2|0:0,0:0:0:0:
484,170,68361,1,2,0:2:0:0:
351,42,68523,2,0,P|297:27|233:48,1,101.999996887207,2|8,3:2|0:2,0:0:0:0:
91,153,68847,6,0,L|304:122,1,203.999993774414,2|2,3:2|3:2,0:0:0:0:
118,267,69334,2,0,L|15:255,1,101.999996887207,10|2,0:2|3:2,0:0:0:0:
192,168,69658,2,0,P|215:233|202:303,1,101.999996887207,2|2,0:2|3:2,0:0:0:0:
101,353,69982,1,10,0:2:0:0:
327,384,70144,6,0,L|318:271,1,101.999996887207,2|0,0:2|3:2,0:0:0:0:
380,70,70469,1,2,0:2:0:0:
192,168,70631,1,10,0:2:0:0:
431,309,70793,6,0,L|439:207,1,101.999996887207,2|0,0:2|3:2,0:0:0:0:
255,66,71117,1,2,3:2:0:0:
497,58,71280,1,10,0:2:0:0:
316,173,71442,6,0,P|251:181|186:167,1,101.999996887207,2|0,3:2|0:0,0:0:0:0:
128,22,71766,2,0,L|138:137,1,101.999996887207,0|8,3:2|0:2,0:0:0:0:
171,298,72090,1,0,3:2:0:0:
171,298,72171,1,0,3:2:0:0:
171,298,72252,1,8,0:2:0:0:
58,203,72415,1,0,3:2:0:0:
401,252,72577,1,8,0:2:0:0:
40,333,72739,1,0,3:2:0:0:
40,333,72820,1,0,3:2:0:0:
40,333,72901,1,0,3:2:0:0:
389,344,73712,6,0,L|384:369,12,25.4999992218018,0|0|0|0|0|0|0|0|0|0|0|0|6,3:0|3:0|3:0|3:0|3:0|3:0|3:0|3:0|3:0|3:0|3:0|3:0|3:2,0:0:0:0:
262,228,74523,2,0,L|91:253,1,170,10|0,0:2|0:0,0:0:0:0:
90,337,75009,1,2,3:2:0:0:
167,196,75171,1,10,0:2:0:0:
234,321,75334,6,0,B|284:335|328:301|328:301|371:303|394:338,1,170,2|2,3:2|3:2,0:0:0:0:
262,228,75820,2,0,P|250:175|259:130,1,85,10|2,0:2|3:2,0:0:0:0:
298,0,76144,2,0,P|310:53|301:98,1,85,0|2,0:0|3:2,0:0:0:0:
138,58,76469,2,0,L|257:44,1,85,10|0,0:2|0:0,0:0:0:0:
418,154,76793,6,0,B|362:142|362:142|308:158|308:158|234:140,1,170,2|10,3:2|0:2,0:0:0:0:
166,205,77280,1,2,0:2:0:0:
36,88,77442,2,0,P|25:147|35:185,1,85,0|2,0:0|3:2,0:0:0:0:
179,224,77766,1,10,0:2:0:0:
0,339,77928,6,0,P|66:316|188:319,1,170,2|2,3:2|3:2,0:0:0:0:
260,373,78415,2,0,L|244:277,1,85,10|2,0:2|3:2,0:0:0:0:
355,228,78739,2,0,L|339:324,1,85,0|2,3:2|3:2,0:0:0:0:
233,142,79063,1,10,0:2:0:0:
241,128,79388,6,0,P|311:109|354:113,1,85,2|0,3:2|0:0,0:0:0:0:
419,42,79712,2,0,P|376:37|337:22,1,85,10|2,0:2|0:2,0:0:0:0:
498,0,80036,2,0,L|507:108,1,85,0|2,0:0|3:2,0:0:0:0:
362,158,80361,1,10,0:2:0:0:
512,229,80523,6,0,P|468:192|331:204,1,170,2|2,3:2|3:2,0:0:0:0:
265,242,81009,1,10,0:2:0:0:
400,369,81171,2,0,L|407:261,1,85,2|0,3:2|0:0,0:0:0:0:
362,158,81496,1,2,3:2:0:0:
309,322,81658,2,0,P|241:331|196:311,1,85,10|0,0:2|0:0,0:0:0:0:
126,239,81982,5,2,3:2:0:0:
126,239,82063,1,2,0:2:0:0:
126,239,82144,2,0,L|67:247,2,42.5,2|2|10,0:2|0:2|0:2,0:0:0:0:
244,143,82469,1,2,0:2:0:0:
92,149,82631,1,0,3:2:0:0:
213,60,82793,1,2,3:2:0:0:
215,240,82955,1,10,0:2:0:0:
29,71,83117,6,0,L|147:55,1,85,2|0,3:2|0:0,0:0:0:0:
296,15,83442,1,2,3:2:0:0:
325,18,83523,1,2,0:2:0:0:
355,21,83604,1,10,0:2:0:0:
384,24,83685,1,2,0:2:0:0:
414,28,83766,1,2,3:2:0:0:
372,193,83928,2,0,P|350:153|343:110,1,85,8|2,0:2|3:2,0:0:0:0:
482,191,84252,2,0,P|473:232|453:269,1,85,10|2,0:2|0:2,0:0:0:0:
361,352,84577,6,0,B|305:340|305:340|251:356|251:356|177:338,1,170,6|10,3:2|0:2,0:0:0:0:
34,299,85064,1,2,0:2:0:0:
34,299,85226,2,0,L|125:282,1,85,0|2,0:0|3:2,0:0:0:0:
231,213,85550,1,10,0:2:0:0:
75,37,85712,6,0,B|38:79|38:79|64:222,1,170,2|2,3:2|3:2,0:0:0:0:
217,296,86199,2,0,L|230:212,1,85,10|2,0:2|3:2,0:0:0:0:
134,106,86523,2,0,L|147:189,1,85,0|2,0:0|3:2,0:0:0:0:
287,61,86847,2,0,P|233:43|191:50,1,85,10|0,0:2|0:0,0:0:0:0:
344,131,87171,6,0,B|410:120|410:120|452:137|452:137|525:126,1,170,2|10,3:2|0:2,0:0:0:0:
287,61,87658,1,2,0:2:0:0:
287,61,87820,2,0,P|257:106|249:156,1,85,0|2,0:0|3:2,0:0:0:0:
342,232,88144,1,10,0:2:0:0:
222,342,88307,6,0,P|146:327|23:333,1,170,2|2,3:2|3:2,0:0:0:0:
150,283,88793,2,0,P|163:216|144:166,1,85,10|2,0:2|3:2,0:0:0:0:
17,139,89117,2,0,P|4:72|23:22,1,85,0|2,3:2|3:2,0:0:0:0:
182,102,89442,2,0,L|80:86,1,85,10|2,0:2|0:2,0:0:0:0:
257,28,89766,5,2,3:2:0:0:
243,178,89928,1,0,0:0:0:0:
396,95,90090,2,0,L|313:109,1,85,10|2,0:2|0:2,0:0:0:0:
351,273,90415,2,0,P|367:214|361:165,1,85,0|2,0:0|3:2,0:0:0:0:
313,109,90739,1,10,0:2:0:0:
206,268,90901,6,0,L|121:259,1,85,2|0,3:2|0:0,0:0:0:0:
78,136,91225,1,2,3:2:0:0:
170,183,91388,1,10,0:2:0:0:
48,310,91550,2,0,P|33:254|38:219,1,85,2|0,3:2|0:0,0:0:0:0:
160,84,91874,2,0,P|174:28|169:-6,1,85,2|10,3:2|0:2,0:0:0:0:
78,136,92198,5,0,0:0:0:0:
258,59,92361,1,2,3:2:0:0:
295,40,92442,1,2,3:2:0:0:
337,32,92523,1,2,3:2:0:0:
379,36,92604,1,2,3:2:0:0:
419,51,92685,1,10,0:2:0:0:
497,132,92847,1,2,3:2:0:0:
362,302,93009,5,0,3:2:0:0:
356,259,93090,1,0,3:2:0:0:
351,217,93171,1,2,3:2:0:0:
346,175,93252,1,0,3:2:0:0:
341,133,93334,2,0,L|286:149,1,42.5,10|0,0:2|3:0,0:0:0:0:
221,208,93496,2,0,L|166:192,1,42.5,2|0,3:2|3:2,0:0:0:0:
63,121,93658,5,0,3:2:0:0:
173,281,93820,1,2,3:2:0:0:
180,85,93982,1,10,0:2:0:0:
32,230,94144,1,2,3:2:0:0:
217,352,94307,2,0,P|277:352|319:336,1,85,8|2,0:2|3:2,0:0:0:0:
385,224,94631,2,0,P|325:224|283:240,1,85,10|0,0:2|3:2,0:0:0:0:
427,341,94955,6,0,L|474:352,16,42.5,2|2|2|2|2|2|2|2|2|2|2|2|2|2|2|2|2,0:2|0:2|0:2|0:2|0:2|0:2|0:2|0:2|0:2|0:2|0:2|0:2|0:2|0:2|0:2|0:2|0:2,0:0:0:0:
