osu file format v14

[General]
AudioFilename: audio.mp3
AudioLeadIn: 0
PreviewTime: 60119
Countdown: 0
SampleSet: Soft
StackLeniency: 0.4
Mode: 0
LetterboxInBreaks: 0
WidescreenStoryboard: 1

[Editor]
Bookmarks: 150198,180198,187698
DistanceSpacing: 1.1
BeatDivisor: 4
GridSize: 4
TimelineZoom: 2.4

[Metadata]
Title:Kagerou Days
TitleUnicode:カゲロウデイズ
Artist:JIN feat. Shouichi Taguchi (Sentimental Vector)
ArtistUnicode:じん feat. 田口囁一(感傷ベクトル)
Creator:Nevo
Version:Kagerou
Source:メカクシティアクターズ
Tags:vocaloid Mekakucity Actors reload project カゲロウプロジェ 自然の敵P Shizen no Teki P Teki-P TekiP じん Blindfold daze カゲロウプロジェクト kagerou defy kansyo shoichi Vector illusionB rizen japanese rock jrock j-rock anime
BeatmapID:3477913
BeatmapSetID:1702088

[Difficulty]
HPDrainRate:6
CircleSize:4
OverallDifficulty:9
ApproachRate:9.3
SliderMultiplier:1.7
SliderTickRate:1

[Events]
//Background and Video events
0,0,"Konachan.com - 125507 sample.jpg",0,0
Video,-850,"sdadadsa.mp4"
//Break Periods
2,80440,89686
//Storyboard Layer 0 (Background)
//Storyboard Layer 1 (Fail)
//Storyboard Layer 2 (Pass)
//Storyboard Layer 3 (Foreground)
//Storyboard Layer 4 (Overlay)
//Storyboard Sound Samples

[TimingPoints]
225,312.5,4,2,1,50,1,0
1475,-111.111111111111,4,2,1,50,0,0
1787,-100,4,2,1,50,0,0
1797,-100,4,2,1,35,0,0
2881,-100,4,2,1,50,0,0
3975,-111.111111111111,4,2,1,50,0,0
4287,-100,4,2,1,50,0,0
4297,-100,4,2,1,35,0,0
4912,-100,4,2,1,50,0,0
6475,-111.111111111111,4,2,1,50,0,0
6787,-100,4,2,1,50,0,0
6797,-100,4,2,1,35,0,0
7412,-100,4,2,1,50,0,0
9287,-83.3333333333333,4,2,1,50,0,0
9912,-111.111111111111,4,2,1,50,0,0
10240,312.5,4,2,1,50,1,0
10396,-111.111111111111,4,2,1,60,0,0
11177,-90.9090909090909,4,2,1,60,0,0
19615,-83.3333333333333,4,2,1,60,0,0
19927,-100,4,2,1,60,0,0
20708,-100,4,2,1,55,0,0
40240,-125,4,2,1,55,0,0
40250,-125,4,2,1,50,0,0
49849,-125,4,2,1,35,0,0
49927,-125,4,2,1,40,0,0
50005,-125,4,2,1,45,0,0
50161,-125,4,2,1,50,0,0
50240,-125,4,2,1,55,0,0
50250,-125,4,2,1,60,0,0
57896,-125,4,2,1,70,0,0
58365,-125,4,2,1,75,0,0
58833,-125,4,2,1,80,0,0
59302,-125,4,2,1,85,0,0
60240,-71.4285714285714,4,2,1,90,0,1
60250,-71.4285714285714,4,2,1,90,0,1
60865,-80,4,2,1,90,0,1
69849,-80,4,2,1,90,0,1
69927,-80,4,2,1,90,0,1
70005,-80,4,2,1,90,0,1
70083,-80,4,2,1,90,0,1
70161,-80,4,2,1,90,0,1
70240,-83.3333333333333,4,2,1,90,0,1
70250,-83.3333333333333,4,2,1,80,0,1
79146,-83.3333333333333,4,2,1,70,0,1
80240,-83.3333333333333,4,2,1,70,0,0
90240,-100,4,2,1,60,0,0
100240,-100,4,2,1,50,0,0
100250,-100,4,2,1,55,0,0
110240,-125,4,2,1,55,0,0
110250,-125,4,2,1,50,0,0
120250,-125,4,2,1,60,0,0
127896,-125,4,2,1,70,0,0
128365,-125,4,2,1,75,0,0
128833,-125,4,2,1,80,0,0
129302,-125,4,2,1,85,0,0
129771,-125,4,2,1,90,0,0
130240,-83.3333333333333,4,2,1,90,0,1
150240,-83.3333333333333,4,2,1,70,0,0
150552,-100,4,2,1,70,0,0
160240,-83.3333333333333,4,2,1,70,0,0
169615,-105.263157894737,4,2,1,70,0,0
179615,-166.666666666667,4,2,1,70,0,0
179625,-166.666666666667,4,2,1,60,0,0
180240,-181.818181818181,4,2,1,60,0,0
186490,-133.333333333333,4,2,1,60,0,0
188921,-133.333333333333,4,2,1,5,0,0
190083,-133.333333333333,4,2,1,60,0,0
190240,-68.9655172413793,4,2,1,90,0,1
190250,-68.9655172413793,4,2,1,90,0,1
192115,-80,4,2,1,90,0,1
199849,-80,4,2,1,90,0,1
199927,-79.9999999999999,4,2,1,90,0,1
199937,-79.9999999999999,4,2,1,90,0,1
200083,-79.9999999999999,4,2,1,90,0,1
200093,-79.9999999999999,4,2,1,90,0,1
200240,-79.9999999999999,4,2,1,90,0,1
200250,-79.9999999999999,4,2,1,90,0,1
209146,-79.9999999999999,4,2,1,90,0,1
210240,-79.9999999999999,4,2,1,70,0,0
210552,-100,4,2,1,60,0,0
215240,-90.9090909090909,4,2,1,60,0,0
215865,-100,4,2,1,60,0,0
220240,-111.111111111111,4,2,1,60,0,0
220562,-111.111111111111,4,2,1,55,0,0
230240,-100,4,2,1,55,0,0
230865,-111.111111111111,4,2,1,55,0,0
239615,-166.666666666667,4,2,1,55,0,0
240239,-166.666666666667,4,2,1,5,0,0

[Colours]
Combo1 : 225,225,225
Combo2 : 230,0,34
Combo3 : 64,136,255

[HitObjects]
172,78,225,5,2,0:0:0:0:
236,150,381,2,1,P|231:192|212:229,1,85,2|0,0:0|0:0,0:0:0:0:
93,330,693,1,2,0:0:0:0:
93,330,850,2,1,L|-1:319,2,85,2|2|0,0:0|0:0|0:0,0:0:0:0:
184,380,1318,1,2,0:0:0:0:
352,295,1475,6,1,B|361:255|361:255|342:153,1,114.749996498108,2|0,0:0|0:0,0:0:0:0:
343,88,1787,2,1,L|320:202,1,85,2|2,0:3|0:3,0:0:0:0:
263,46,2100,2,1,L|240:160,1,85,2|2,0:3|0:3,0:0:0:0:
183,12,2412,2,1,L|160:126,1,85,2|2,0:3|0:3,0:0:0:0:
291,290,2725,5,2,0:0:0:0:
398,228,2881,2,1,P|442:206|495:205,1,85,2|0,0:0|0:0,0:0:0:0:
388,335,3193,1,2,0:0:0:0:
301,199,3350,1,2,0:0:0:0:
301,199,3506,1,2,0:0:0:0:
190,339,3662,1,0,0:0:0:0:
118,266,3818,1,2,0:0:0:0:
66,364,3975,6,1,L|214:344,1,114.749996498108,2|0,0:0|0:0,0:0:0:0:
269,281,4287,2,1,P|221:241|214:188,1,85,2|2,0:3|0:3,0:0:0:0:
381,202,4600,2,1,P|318:207|276:175,1,85,2|2,0:3|0:3,0:0:0:0:
441,45,4912,2,1,B|435:80|435:80|405:113|352:118,1,127.5,2|0,0:0|0:0,0:0:0:0:
254,56,5225,5,2,0:0:0:0:
90,112,5381,2,1,L|72:195,1,85,2|0,0:0|0:0,0:0:0:0:
217,333,5693,1,2,0:0:0:0:
217,333,5850,2,1,P|232:278|221:224,2,85,2|2|0,0:0|0:0|0:0,0:0:0:0:
180,170,6318,1,2,0:0:0:0:
305,172,6475,6,1,L|161:159,1,114.749996498108,2|0,0:0|0:0,0:0:0:0:
287,88,6787,2,1,L|308:190,1,85,2|2,0:3|0:3,0:0:0:0:
369,49,7100,2,1,L|390:151,1,85,2|2,0:3|0:3,0:0:0:0:
452,4,7412,2,1,B|464:36|464:36|463:63|463:63|483:145,1,127.5,2|0,0:0|0:0,0:0:0:0:
504,229,7725,5,2,0:0:0:0:
381,331,7881,2,1,P|301:302|265:301,1,85,2|0,0:0|0:0,0:0:0:0:
157,235,8193,1,2,0:0:0:0:
88,360,8350,1,2,0:0:0:0:
88,360,8506,1,2,0:0:0:0:
63,180,8662,1,0,0:0:0:0:
152,251,8818,1,2,0:0:0:0:
273,124,8975,6,1,P|341:92|418:108,1,127.5,2|0,0:0|0:0,0:0:0:0:
381,224,9287,2,1,P|322:202|373:187,1,152.999995330811,2|0,0:0|0:0,0:0:0:0:
411,311,9600,2,1,B|373:338|330:327|330:327|291:319|234:339,1,152.999995330811,2|0,0:0|0:0,0:0:0:0:
109,378,9912,6,1,P|64:312|70:258,1,114.749996498108,8|0,3:0|0:0,0:0:0:0:
120,159,10240,5,6,3:2:0:0:
154,294,10396,1,2,0:0:0:0:
249,114,10552,1,10,0:0:0:0:
46,69,10708,1,10,0:0:0:0:
259,127,10865,1,2,0:0:0:0:
109,170,11021,1,2,3:2:0:0:
252,3,11177,2,1,P|306:15|346:47,1,93.5000028533936,10|2,0:0|0:0,0:0:0:0:
408,202,11490,5,2,3:2:0:0:
447,104,11646,1,2,3:2:0:0:
308,183,11802,1,10,0:0:0:0:
345,297,11958,1,10,0:0:0:0:
505,228,12115,2,1,L|394:214,1,93.5000028533936,2|2,0:0|3:2,0:0:0:0:
242,321,12427,2,1,L|353:307,1,93.5000028533936,10|2,0:0|0:0,0:0:0:0:
98,204,12740,6,1,B|71:253|71:253|86:350,1,140.25000428009,2|0,3:2|0:0,0:0:0:0:
168,270,13052,1,10,0:0:0:0:
9,187,13208,1,10,0:0:0:0:
186,83,13365,1,2,0:0:0:0:
74,102,13521,1,2,3:2:0:0:
218,179,13677,2,1,L|320:169,1,93.5000028533936,10|2,0:0|0:0,0:0:0:0:
487,79,13990,5,2,3:2:0:0:
448,229,14146,1,2,3:2:0:0:
346,42,14302,1,10,0:0:0:0:
430,149,14458,1,10,0:0:0:0:
246,119,14615,1,2,0:0:0:0:
364,246,14771,1,2,3:2:0:0:
196,246,14927,1,10,0:0:0:0:
383,330,15083,1,2,0:0:0:0:
97,329,15240,6,1,P|75:285|83:208,1,93.5000028533936,6|2,3:2|0:0,0:0:0:0:
195,38,15552,1,10,0:0:0:0:
196,246,15708,1,10,0:0:0:0:
113,80,15865,1,2,0:0:0:0:
285,58,16021,1,2,3:2:0:0:
135,172,16177,2,1,L|32:148,1,93.5000028533936,10|2,0:0|0:0,0:0:0:0:
286,149,16490,5,2,3:2:0:0:
316,254,16646,1,2,3:2:0:0:
176,328,16802,1,10,0:0:0:0:
207,223,16958,1,10,0:0:0:0:
304,361,17115,2,1,P|349:355|411:328,1,93.5000028533936,2|2,0:0|3:2,0:0:0:0:
455,150,17427,2,1,P|410:156|348:183,1,93.5000028533936,10|2,0:0|0:0,0:0:0:0:
483,371,17740,6,1,P|485:307|420:245,1,140.25000428009,2|0,3:2|0:0,0:0:0:0:
314,246,18052,1,10,0:0:0:0:
189,360,18208,1,10,0:0:0:0:
146,195,18365,1,2,0:0:0:0:
216,263,18521,1,2,3:2:0:0:
266,131,18677,1,10,0:0:0:0:
135,283,18833,1,2,0:0:0:0:
149,106,18990,5,2,3:2:0:0:
219,280,19146,1,2,3:2:0:0:
314,31,19302,1,10,0:0:0:0:
346,224,19458,1,10,0:0:0:0:
176,11,19615,6,1,P|91:28|61:112,1,152.999995330811,2|0,0:0|0:0,0:0:0:0:
133,231,19927,2,1,B|151:72,1,127.5,10|0,0:0|0:0,0:0:0:0:
148,105,20240,5,6,3:2:0:0:
360,335,20552,1,2,1:2:0:0:
394,245,20708,1,2,1:2:0:0:
299,264,20865,1,2,0:0:0:0:
445,319,21021,1,2,3:2:0:0:
272,353,21177,2,1,P|228:336|167:339,1,85,10|0,0:0|0:0,0:0:0:0:
43,246,21490,6,1,P|103:263|175:201,1,127.5,2|0,3:2|0:0,0:0:0:0:
235,192,21802,1,2,1:2:0:0:
190,334,21958,1,2,1:2:0:0:
38,267,22115,2,1,P|118:276|181:232,1,127.5,2|0,0:0|0:0,0:0:0:0:
235,192,22427,2,1,L|250:98,1,85,10|2,0:0|0:0,0:0:0:0:
61,10,22740,6,1,L|94:198,1,170,2|0,3:2|1:0,0:0:0:0:
248,108,23208,1,2,1:2:0:0:
152,34,23365,2,1,L|170:137,1,85,2|0,0:0|3:0,0:0:0:0:
253,283,23677,2,1,P|311:256|356:255,1,85,8|2,0:0|0:0,0:0:0:0:
495,368,23990,6,1,L|309:339,1,170,2|0,3:2|1:0,0:0:0:0:
425,265,24458,1,2,1:2:0:0:
378,157,24615,1,2,0:0:0:0:
331,253,24771,1,0,3:0:0:0:
384,147,24927,1,8,0:0:0:0:
372,332,25083,1,2,0:0:0:0:
279,164,25240,6,1,P|280:107|363:59,1,127.5,2|0,3:2|0:0,0:0:0:0:
329,61,25552,1,0,1:0:0:0:
331,253,25708,2,1,P|282:270|229:255,1,85,0|0,1:0|0:0,0:0:0:0:
169,205,26021,1,0,3:0:0:0:
27,267,26177,2,1,L|0:365,1,85,8|0,0:0|0:0,0:0:0:0:
81,184,26490,6,1,L|75:58,1,85,0|0,3:0|0:0,0:0:0:0:
23,10,26802,1,0,1:0:0:0:
163,88,26958,1,2,1:2:0:0:
163,88,27115,2,1,P|217:91|269:70,1,85,0|2,0:0|3:2,0:0:0:0:
387,11,27427,2,1,P|333:8|281:29,1,85,10|2,0:0|0:0,0:0:0:0:
343,234,27740,6,1,L|356:81,1,127.5,2|0,3:2|0:0,0:0:0:0:
353,106,28052,1,0,1:0:0:0:
241,203,28208,2,1,L|256:316,1,85,0|0,1:0|0:0,0:0:0:0:
376,354,28521,1,0,3:0:0:0:
431,289,28677,2,1,P|484:275|523:285,1,85,8|0,0:0|0:0,0:0:0:0:
366,365,28990,6,1,L|208:350,1,127.5,0|0,3:0|0:0,0:0:0:0:
161,376,29302,1,0,1:0:0:0:
25,252,29458,1,0,1:0:0:0:
62,337,29615,2,1,P|104:293|116:256,1,85,0|0,0:0|3:0,0:0:0:0:
72,349,29927,2,1,P|124:292|140:218,1,127.5,8|0,0:0|0:0,0:0:0:0:
78,166,30240,6,1,L|61:39,1,127.5,6|0,3:2|0:0,0:0:0:0:
102,84,30552,2,1,P|153:94|195:84,1,85,2|2,1:2|1:2,0:0:0:0:
228,179,30865,2,1,P|271:150|293:113,1,85,2|0,0:0|3:0,0:0:0:0:
379,33,31177,2,1,L|408:154,1,85,10|0,0:0|0:0,0:0:0:0:
451,239,31490,6,1,P|395:211|317:239,1,127.5,2|0,3:2|0:0,0:0:0:0:
260,279,31802,1,2,1:2:0:0:
228,179,31958,1,2,1:2:0:0:
458,228,32115,2,1,P|402:200|323:225,1,127.5,2|0,0:0|0:0,0:0:0:0:
260,279,32427,2,1,L|241:366,1,85,10|2,0:0|0:0,0:0:0:0:
65,272,32740,6,1,P|54:181|65:99,1,170,2|0,3:2|1:0,0:0:0:0:
214,82,33208,1,2,1:2:0:0:
150,233,33365,2,1,P|144:173|151:129,1,85,2|0,0:0|3:0,0:0:0:0:
303,43,33677,2,1,L|392:32,1,85,8|2,0:0|0:0,0:0:0:0:
437,207,33990,6,1,L|263:188,1,170,2|0,3:2|1:0,0:0:0:0:
338,360,34458,1,2,1:2:0:0:
393,298,34615,1,2,0:0:0:0:
333,375,34771,1,2,3:2:0:0:
268,267,34927,1,10,0:0:0:0:
437,207,35083,1,2,0:0:0:0:
191,207,35240,6,1,P|173:267|204:337,1,127.5,2|0,3:2|0:0,0:0:0:0:
194,326,35552,1,0,1:0:0:0:
252,133,35708,2,1,P|212:111|158:116,1,85,0|0,1:0|0:0,0:0:0:0:
92,159,36021,1,0,3:0:0:0:
0,37,36177,2,1,L|91:24,1,85,8|0,0:0|0:0,0:0:0:0:
59,249,36490,6,1,P|17:222|-6:169,1,85,0|0,3:0|0:0,0:0:0:0:
159,236,36802,1,0,1:0:0:0:
82,350,36958,1,2,1:2:0:0:
82,350,37115,2,1,L|-16:326,1,85,2|2,0:0|3:2,0:0:0:0:
175,319,37427,2,1,L|289:307,1,85,8|2,0:0|0:0,0:0:0:0:
365,174,37740,6,1,B|337:203|337:203|323:287,1,85,2|0,3:2|0:0,0:0:0:0:
473,205,38052,1,2,1:2:0:0:
473,205,38208,1,2,1:2:0:0:
381,84,38365,2,1,B|340:84|340:84|271:134,1,85,2|2,0:0|3:2,0:0:0:0:
497,110,38677,1,10,0:0:0:0:
462,16,38833,1,2,0:0:0:0:
365,174,38990,6,1,L|383:258,1,85,2|0,1:2|1:0,0:0:0:0:
276,240,39302,2,1,L|294:324,1,85,8|2,3:0|1:2,0:0:0:0:
293,323,39536,1,0,1:0:0:0:
293,323,39615,2,1,P|243:312|184:317,1,85,10|8,0:0|3:0,0:0:0:0:
109,356,39927,1,2,3:2:0:0:
18,194,40083,1,2,3:2:0:0:
129,124,40240,6,1,L|117:280,3,136,6|2|2|2,3:2|3:0|3:0|3:0,0:0:0:0:
138,29,41490,5,2,3:0:0:0:
215,81,41646,1,2,0:0:0:0:
215,81,41802,2,1,P|269:82|301:66,1,68,2|2,3:0|0:0,0:0:0:0:
366,102,42115,2,1,P|417:87|448:92,1,68,2|2,3:0|0:0,0:0:0:0:
504,143,42427,2,1,L|491:231,1,68,2|2,3:0|0:0,0:0:0:0:
456,337,42740,6,1,P|439:284|356:254,1,136,2|2,3:0|3:0,0:0:0:0:
236,356,43365,2,1,P|273:371|384:330,1,136,2|2,3:0|3:0,0:0:0:0:
148,277,43990,5,2,3:0:0:0:
52,317,44146,1,2,0:0:0:0:
52,317,44302,2,1,P|35:282|33:242,1,68,2|0,3:0|0:0,0:0:0:0:
88,190,44615,2,1,P|103:159|108:126,1,68,2|2,3:0|0:0,0:0:0:0:
58,57,44927,1,2,3:0:0:0:
58,57,45083,1,2,0:0:0:0:
185,76,45240,6,1,L|292:62,1,102,2|0,3:0|0:0,0:0:0:0:
298,69,45552,2,1,P|290:102|264:133,1,68,2|0,3:0|0:0,0:0:0:0:
326,191,45865,2,1,P|297:208|256:212,1,68,2|0,3:0|0:0,0:0:0:0:
186,170,46177,1,2,3:0:0:0:
186,170,46333,1,2,0:0:0:0:
87,248,46490,6,1,L|68:355,1,102,2|0,3:0|0:0,0:0:0:0:
65,360,46802,1,2,3:0:0:0:
158,322,46958,1,2,0:0:0:0:
241,370,47115,2,1,L|317:355,1,68,2|0,3:0|0:0,0:0:0:0:
380,296,47427,1,2,3:0:0:0:
380,296,47583,1,2,0:0:0:0:
442,358,47740,5,2,3:0:0:0:
291,283,47896,1,2,0:0:0:0:
463,275,48052,1,2,3:0:0:0:
463,275,48208,2,1,P|474:197|478:129,1,136,2|0,0:0|0:0,0:0:0:0:
323,36,48677,2,1,L|345:123,1,68,2|0,3:0|0:0,0:0:0:0:
356,208,48990,5,2,3:0:0:0:
262,152,49146,1,0,0:0:0:0:
173,227,49302,2,1,L|81:213,1,68,2|0,3:0|0:0,0:0:0:0:
92,89,49615,2,1,L|4:107,1,68,2|0,3:0|1:0,0:0:0:0:
25,102,49849,1,0,1:0:0:0:
25,102,49927,1,0,1:0:0:0:
62,105,50005,1,0,1:0:0:0:
101,108,50083,1,8,0:0:0:0:
141,112,50161,1,8,0:0:0:0:
180,115,50240,6,1,P|185:64|122:-2,1,136,4|0,3:2|3:0,0:0:0:0:
46,270,50865,2,1,P|119:234|203:228,1,136,0|0,3:0|3:0,0:0:0:0:
353,273,51490,5,0,3:0:0:0:
271,324,51646,1,2,0:0:0:0:
271,324,51802,2,1,L|259:248,1,68,2|2,3:2|0:0,0:0:0:0:
429,227,52115,2,1,L|441:151,1,68,0|2,3:0|0:0,0:0:0:0:
414,60,52427,2,1,P|382:86|344:99,1,68,2|2,3:2|0:0,0:0:0:0:
206,21,52740,6,1,L|352:9,1,136,2|0,3:2|3:0,0:0:0:0:
311,187,53365,2,1,L|165:175,1,136,0|0,3:0|3:0,0:0:0:0:
50,338,53990,5,0,3:0:0:0:
130,277,54146,1,2,0:0:0:0:
130,277,54302,2,1,P|149:323|155:355,1,68,2|0,3:2|0:0,0:0:0:0:
50,188,54615,2,1,P|31:234|25:266,1,68,2|2,3:2|0:0,0:0:0:0:
128,119,54927,1,2,3:2:0:0:
128,119,55083,1,2,0:0:0:0:
13,33,55240,6,1,L|137:22,1,102,6|0,3:2|0:0,0:0:0:0:
124,15,55552,2,1,L|207:27,1,68,2|0,3:2|0:0,0:0:0:0:
264,132,55865,2,1,P|330:124|371:78,1,102,2|0,3:2|0:0,0:0:0:0:
364,87,56177,1,2,3:2:0:0:
288,36,56333,1,2,0:0:0:0:
465,56,56490,6,1,L|459:148,1,68,2|0,3:2|0:0,0:0:0:0:
512,227,56802,1,2,3:2:0:0:
404,314,56958,2,1,L|390:178,1,136,2|0,0:0|0:0,0:0:0:0:
374,45,57427,1,6,3:2:0:0:
374,45,57583,1,2,0:0:0:0:
304,248,57740,5,10,0:0:0:0:
69,189,57896,1,8,0:0:0:0:
63,202,58208,5,10,0:0:0:0:
229,139,58365,1,10,0:0:0:0:
236,149,58677,5,10,0:0:0:0:
8,81,58833,1,10,0:0:0:0:
2,95,59146,5,8,0:0:0:0:
310,32,59302,1,10,0:0:0:0:
258,337,59615,5,2,3:2:0:0:
258,337,60240,6,1,L|234:141,1,178.499994552612,6|0,3:2|0:0,0:0:0:0:
217,56,60552,1,8,0:0:0:0:
341,144,60708,1,2,3:2:0:0:
145,267,60865,2,1,P|67:280|6:233,1,159.375,10|0,0:0|0:0,0:0:0:0:
6,132,61177,1,8,0:0:0:0:
61,323,61333,1,2,3:2:0:0:
211,173,61490,5,10,0:0:0:0:
95,190,61646,1,2,3:2:0:0:
247,262,61802,1,10,0:0:0:0:
318,111,61958,1,2,3:2:0:0:
318,111,62036,1,0,0:0:0:0:
318,111,62115,2,1,P|333:49|336:3,1,106.25,10|0,0:0|3:0,0:0:0:0:
142,95,62427,1,10,0:0:0:0:
302,190,62583,1,2,3:2:0:0:
124,287,62740,6,1,L|0:264,1,106.25,10|0,0:0|3:0,0:0:0:0:
219,141,63052,1,10,0:0:0:0:
256,333,63208,1,2,3:2:0:0:
427,160,63365,2,1,P|421:212|402:262,1,106.25,10|0,0:0|3:0,0:0:0:0:
109,110,63677,2,1,P|115:162|134:211,1,106.25,10|0,0:0|3:0,0:0:0:0:
330,41,63990,5,10,0:0:0:0:
305,229,64146,1,2,3:2:0:0:
166,21,64302,1,10,0:0:0:0:
208,203,64458,1,2,3:2:0:0:
426,21,64615,5,10,0:0:0:0:
237,94,64771,1,0,3:0:0:0:
403,188,64927,2,1,B|524:160|524:160|457:137,1,159.375,8|0,0:0|0:0,0:0:0:0:
317,123,65240,6,1,L|302:252,1,106.25,6|0,3:2|0:0,0:0:0:0:
166,21,65552,1,10,0:0:0:0:
438,105,65708,1,2,3:2:0:0:
186,176,65865,1,10,0:0:0:0:
450,115,66021,1,2,3:2:0:0:
232,94,66177,1,10,0:0:0:0:
477,21,66333,1,2,3:2:0:0:
276,209,66490,6,1,L|288:314,1,106.25,10|0,0:0|3:0,0:0:0:0:
139,94,66802,1,8,0:0:0:0:
53,277,66958,1,2,3:2:0:0:
53,277,67036,1,0,0:0:0:0:
53,277,67115,1,10,0:0:0:0:
17,50,67271,1,2,3:2:0:0:
140,197,67427,1,10,0:0:0:0:
220,15,67583,1,2,3:2:0:0:
326,279,67740,6,1,L|314:384,1,106.25,10|0,0:0|3:0,0:0:0:0:
430,65,68052,1,10,0:0:0:0:
210,149,68208,1,2,3:2:0:0:
430,226,68365,1,10,0:0:0:0:
140,197,68521,1,2,3:2:0:0:
465,141,68677,1,10,0:0:0:0:
257,29,68833,1,2,3:2:0:0:
172,293,68990,6,1,L|53:273,1,106.25,10|0,0:0|3:0,0:0:0:0:
360,158,69302,2,1,L|479:138,1,106.25,10|0,0:0|3:0,0:0:0:0:
132,76,69615,1,14,0:0:0:0:
256,364,69771,5,0,1:0:0:0:
280,319,69849,1,0,1:0:0:0:
280,269,69927,1,10,0:0:0:0:
255,225,70005,1,8,0:0:0:0:
231,181,70083,1,8,3:0:0:0:
231,131,70161,1,0,3:0:0:0:
256,87,70240,6,1,L|238:-28,1,101.999996887207,6|0,3:2|0:0,0:0:0:0:
145,187,70552,1,10,0:0:0:0:
424,211,70708,1,2,3:2:0:0:
342,29,70865,1,10,0:0:0:0:
306,279,71021,1,2,3:2:0:0:
419,109,71177,1,10,0:0:0:0:
434,358,71333,1,2,3:2:0:0:
210,265,71490,5,10,0:0:0:0:
465,285,71646,1,2,3:2:0:0:
182,355,71802,1,10,0:0:0:0:
374,210,71958,1,2,3:2:0:0:
374,210,72036,1,0,0:0:0:0:
374,210,72115,2,1,P|308:179|259:191,1,101.999996887207,10|0,0:0|3:0,0:0:0:0:
80,296,72427,1,8,0:0:0:0:
14,121,72583,1,2,3:2:0:0:
139,45,72740,6,1,P|127:103|113:219,1,152.999995330811,10|0,0:0|0:0,0:0:0:0:
172,309,73052,1,10,0:0:0:0:
250,133,73208,1,0,3:0:0:0:
398,300,73365,2,1,L|506:280,1,101.999996887207,10|0,0:0|3:0,0:0:0:0:
289,353,73677,2,1,L|181:333,1,101.999996887207,10|0,0:0|3:0,0:0:0:0:
336,231,73990,5,10,0:0:0:0:
98,259,74146,1,2,3:2:0:0:
345,222,74302,1,10,0:0:0:0:
83,173,74458,1,2,3:2:0:0:
83,173,74536,1,0,0:0:0:0:
83,173,74615,1,10,0:0:0:0:
189,306,74771,1,0,3:0:0:0:
287,134,74927,2,1,P|303:87|300:34,1,101.999996887207,8|0,0:0|3:0,0:0:0:0:
52,74,75240,6,1,B|97:91|97:91|224:75,1,152.999995330811,6|0,3:2|0:0,0:0:0:0:
112,0,75552,1,10,0:0:0:0:
421,97,75708,1,2,3:2:0:0:
100,138,75865,1,10,0:0:0:0:
361,159,76021,1,2,3:2:0:0:
93,260,76177,1,10,0:0:0:0:
322,240,76333,1,2,3:2:0:0:
191,383,76490,6,1,P|188:311|198:210,1,152.999995330811,10|0,0:0|0:0,0:0:0:0:
242,147,76802,1,10,0:0:0:0:
309,341,76958,1,2,3:2:0:0:
318,76,77115,1,10,0:0:0:0:
215,300,77271,1,2,3:2:0:0:
418,57,77427,1,10,0:0:0:0:
157,227,77583,1,2,3:2:0:0:
427,312,77740,6,1,L|457:186,1,101.999996887207,10|0,0:0|3:0,0:0:0:0:
256,373,78052,2,1,L|256:271,1,101.999996887207,10|0,0:0|3:0,0:0:0:0:
85,312,78365,2,1,L|55:186,1,101.999996887207,10|0,0:0|3:0,0:0:0:0:
221,123,78677,1,10,0:0:0:0:
33,72,78833,1,2,3:2:0:0:
292,58,78990,5,8,3:0:0:0:
112,133,79146,1,0,3:0:0:0:
301,50,79302,1,0,3:0:0:0:
102,144,79458,1,8,0:0:0:0:
350,246,79615,6,1,L|367:145,1,101.999996887207,8|0,0:0|3:0,0:0:0:0:
367,145,79849,1,0,3:0:0:0:
367,145,79927,2,1,P|285:174|193:135,1,152.999995330811,12|0,0:0|0:0,0:0:0:0:
155,71,80240,5,4,3:2:0:0:
310,343,90240,6,1,P|398:314|412:255,1,127.5,6|0,3:2|0:0,0:0:0:0:
387,196,90552,2,1,L|404:286,1,85,2|2,1:2|1:2,0:0:0:0:
263,166,90865,2,1,L|247:249,1,85,2|0,0:0|3:0,0:0:0:0:
314,86,91177,2,1,B|274:68|274:68|225:80,1,85,10|0,0:0|0:0,0:0:0:0:
96,237,91490,6,1,P|31:223|19:140,1,127.5,2|0,3:2|0:0,0:0:0:0:
9,171,91802,1,2,1:2:0:0:
138,130,91958,1,2,1:2:0:0:
2,43,92115,2,1,L|85:56,1,85,2|0,0:0|3:0,0:0:0:0:
199,1,92427,1,10,0:0:0:0:
199,1,92583,1,2,0:0:0:0:
301,160,92740,6,1,L|218:174,1,85,2|0,3:2|0:0,0:0:0:0:
317,75,93052,1,0,1:0:0:0:
379,211,93208,1,2,1:2:0:0:
464,178,93365,2,1,P|501:137|501:91,1,85,2|0,0:0|3:0,0:0:0:0:
407,25,93677,2,1,L|421:131,1,85,8|2,0:0|0:0,0:0:0:0:
493,276,93990,6,1,B|438:263|438:263|406:274|406:274|306:254,1,170,2|0,3:2|1:0,0:0:0:0:
242,325,94458,1,2,1:2:0:0:
242,325,94615,2,1,P|206:307|153:311,1,85,2|2,0:0|3:2,0:0:0:0:
58,238,94927,2,1,P|100:239|137:220,1,85,8|2,0:0|0:0,0:0:0:0:
88,66,95240,6,1,L|75:158,1,85,2|0,3:2|0:0,0:0:0:0:
76,150,95474,1,0,0:0:0:0:
76,150,95552,1,0,1:0:0:0:
290,68,95708,1,0,1:0:0:0:
300,79,96021,5,0,3:0:0:0:
194,22,96177,2,1,L|215:168,1,127.5,8|0,0:0|0:0,0:0:0:0:
249,233,96490,6,1,P|299:196|351:187,1,85,0|0,3:0|0:0,0:0:0:0:
415,292,96802,2,1,L|310:277,1,85,0|2,1:0|1:2,0:0:0:0:
105,345,97115,2,1,B|137:339|137:339|154:345|154:345|240:332,1,127.5,2|0,0:0|0:0,0:0:0:0:
244,346,97427,2,1,L|328:358,1,85,10|2,0:0|0:0,0:0:0:0:
175,155,97740,6,1,P|148:229|158:269,1,85,2|0,3:2|0:0,0:0:0:0:
148,233,97974,1,0,0:0:0:0:
148,233,98052,1,0,1:0:0:0:
264,120,98208,1,0,1:0:0:0:
131,73,98365,2,1,L|12:56,1,85,0|0,0:0|3:0,0:0:0:0:
175,155,98677,1,8,0:0:0:0:
175,155,98833,1,0,0:0:0:0:
218,23,98990,5,0,3:0:0:0:
356,82,99146,1,0,3:0:0:0:
356,82,99224,1,0,0:0:0:0:
356,82,99302,1,0,1:0:0:0:
264,120,99458,1,0,0:0:0:0:
264,120,99536,1,0,1:0:0:0:
264,120,99615,2,1,L|279:235,1,85,8|0,0:0|3:0,0:0:0:0:
236,285,99849,1,0,0:0:0:0:
236,285,99927,2,1,P|190:256|86:265,1,127.5,8|0,0:0|0:0,0:0:0:0:
67,361,100240,6,1,L|175:347,1,85,6|0,3:2|0:0,0:0:0:0:
288,371,100552,1,2,1:2:0:0:
288,371,100708,1,2,1:2:0:0:
207,207,100865,2,1,P|222:268|240:289,1,85,2|2,0:0|3:2,0:0:0:0:
380,229,101177,2,1,B|336:211|336:211|293:215,1,85,10|0,0:0|0:0,0:0:0:0:
432,324,101490,6,1,L|410:137,1,170,2|2,3:2|1:2,0:0:0:0:
490,62,101958,1,2,1:2:0:0:
510,268,102115,2,1,L|495:149,1,85,2|0,0:0|3:0,0:0:0:0:
401,48,102427,1,10,0:0:0:0:
493,79,102583,1,2,0:0:0:0:
329,144,102740,6,1,B|277:164|232:150|232:150|183:135|125:162,1,170,2|0,3:2|1:0,0:0:0:0:
197,241,103208,1,2,1:2:0:0:
77,116,103365,2,1,P|71:144|93:210,1,85,2|0,0:0|3:0,0:0:0:0:
169,333,103677,2,1,L|265:318,1,85,8|2,0:0|0:0,0:0:0:0:
489,349,103990,6,1,B|448:375|448:375|308:361,1,170,2|0,3:2|1:0,0:0:0:0:
397,207,104458,1,2,1:2:0:0:
397,207,104615,2,1,P|417:250|423:289,1,85,2|2,0:0|3:2,0:0:0:0:
290,196,104927,2,1,P|297:154|315:116,1,85,10|2,0:0|0:0,0:0:0:0:
388,78,105161,1,8,3:0:0:0:
388,78,105240,6,1,L|239:67,1,127.5,2|0,3:2|0:0,0:0:0:0:
249,58,105552,1,0,1:0:0:0:
67,106,105708,1,0,1:0:0:0:
58,117,106021,5,0,3:0:0:0:
156,184,106177,2,1,P|162:246|134:302,1,127.5,8|0,0:0|0:0,0:0:0:0:
48,334,106490,6,1,L|155:316,1,85,0|0,3:0|0:0,0:0:0:0:
247,249,106802,2,1,L|354:267,1,85,0|2,1:0|1:2,0:0:0:0:
441,335,107115,2,1,L|415:178,1,127.5,2|0,0:0|0:0,0:0:0:0:
420,209,107427,1,8,0:0:0:0:
502,131,107583,1,2,0:0:0:0:
332,73,107740,6,1,B|322:102|322:102|341:162,1,85,2|0,3:2|0:0,0:0:0:0:
421,22,108052,1,2,1:2:0:0:
421,22,108208,1,2,1:2:0:0:
188,100,108365,2,1,B|201:127|201:127|257:156,1,85,2|2,0:0|3:2,0:0:0:0:
203,13,108677,1,10,0:0:0:0:
203,13,108833,1,2,0:0:0:0:
60,207,108990,6,1,L|153:188,1,85,2|0,1:2|1:0,0:0:0:0:
267,281,109224,1,8,0:0:0:0:
267,281,109302,2,1,L|174:262,1,85,8|2,3:0|1:2,0:0:0:0:
51,356,109536,1,0,1:0:0:0:
51,356,109614,2,1,L|144:337,1,85,10|8,0:0|3:0,0:0:0:0:
213,380,109849,1,0,0:0:0:0:
213,380,109927,1,2,3:2:0:0:
373,290,110083,1,2,3:2:0:0:
373,290,110161,1,0,0:0:0:0:
373,290,110240,6,1,P|401:177|404:140,3,136,6|2|2|2,3:2|3:0|3:0|3:0,0:0:0:0:
255,52,111490,5,2,3:0:0:0:
178,110,111646,1,2,0:0:0:0:
178,110,111802,2,1,L|163:184,1,68,2|2,3:0|0:0,0:0:0:0:
71,173,112115,2,1,L|77:245,1,68,2|2,3:0|0:0,0:0:0:0:
183,272,112427,1,2,3:0:0:0:
183,272,112583,1,2,0:0:0:0:
106,372,112740,6,1,P|78:259|75:222,3,136,2|2|2|2,3:0|3:0|3:0|3:0,0:0:0:0:
257,382,113990,5,2,3:0:0:0:
322,310,114146,1,2,0:0:0:0:
322,310,114302,2,1,P|355:299|391:297,1,68,2|2,3:0|0:0,0:0:0:0:
190,310,114615,2,1,P|157:299|121:297,1,68,2|2,3:0|0:0,0:0:0:0:
124,296,114849,1,0,0:0:0:0:
124,296,114927,1,2,3:0:0:0:
256,229,115083,1,2,0:0:0:0:
138,65,115240,6,1,L|155:151,1,68,2|0,3:0|0:0,0:0:0:0:
55,105,115552,2,1,P|46:72|47:38,1,68,2|0,3:0|0:0,0:0:0:0:
207,0,115865,2,1,P|224:29|233:61,1,68,2|0,3:0|0:0,0:0:0:0:
175,210,116177,1,2,3:0:0:0:
175,210,116333,1,2,0:0:0:0:
327,268,116490,6,1,L|396:250,1,68,2|0,3:0|0:0,0:0:0:0:
459,187,116802,1,2,3:0:0:0:
459,187,116958,1,2,0:0:0:0:
512,332,117115,2,1,L|443:314,1,68,2|0,3:0|0:0,0:0:0:0:
374,376,117427,1,2,3:0:0:0:
374,376,117583,1,2,0:0:0:0:
252,304,117740,5,2,3:0:0:0:
406,250,117896,1,2,0:0:0:0:
306,218,118052,1,2,3:0:0:0:
246,314,118208,2,1,P|199:318|130:243,1,136,2|0,0:0|0:0,0:0:0:0:
225,163,118677,2,1,L|215:252,1,68,2|0,3:0|0:0,0:0:0:0:
146,115,118990,5,2,3:0:0:0:
297,91,119146,2,1,L|441:73,1,136,8|0,0:0|0:0,0:0:0:0:
225,163,119615,1,2,3:0:0:0:
174,29,119771,2,1,L|87:16,1,68,12|0,0:0|3:0,0:0:0:0:
106,18,120005,1,8,0:0:0:0:
79,39,120083,1,8,0:0:0:0:
65,69,120161,1,8,0:0:0:0:
66,103,120240,6,1,P|87:170|93:241,3,136,4|0|0|0,3:2|3:0|3:0|3:0,0:0:0:0:
255,311,121490,5,0,3:0:0:0:
338,259,121646,1,2,0:0:0:0:
338,259,121802,2,1,L|409:243,1,68,2|2,3:2|0:0,0:0:0:0:
463,334,122115,2,1,L|396:348,1,68,2|2,3:2|0:0,0:0:0:0:
493,253,122427,1,2,3:2:0:0:
493,253,122583,1,2,0:0:0:0:
365,126,122740,6,1,P|344:193|338:264,1,136,2|0,3:2|3:0,0:0:0:0:
472,20,123365,2,1,P|497:82|504:150,1,136,0|0,3:0|3:0,0:0:0:0:
254,53,123990,5,0,3:0:0:0:
171,98,124146,1,2,0:0:0:0:
171,98,124302,2,1,P|126:96|89:78,1,68,2|2,3:2|0:0,0:0:0:0:
0,172,124615,2,1,P|32:161|66:161,1,68,2|2,3:2|0:0,0:0:0:0:
154,220,124927,1,2,3:2:0:0:
154,220,125083,1,2,0:0:0:0:
54,330,125240,6,1,L|45:247,1,68,6|0,3:2|0:0,0:0:0:0:
201,371,125552,2,1,L|210:288,1,68,2|0,3:2|0:0,0:0:0:0:
353,207,125865,2,1,P|299:245|273:245,1,68,2|0,3:2|0:0,0:0:0:0:
318,121,126177,1,2,3:2:0:0:
318,121,126333,1,2,0:0:0:0:
457,159,126490,6,1,L|447:226,1,68,2|0,3:2|0:0,0:0:0:0:
378,363,126802,1,2,3:2:0:0:
481,310,126958,1,2,0:0:0:0:
362,374,127115,2,1,P|304:368|244:331,1,102,2|0,3:2|0:0,0:0:0:0:
256,336,127427,2,1,L|171:354,1,68,6|2,3:2|0:0,0:0:0:0:
108,59,127740,5,10,0:0:0:0:
209,261,127896,1,8,0:0:0:0:
202,274,128208,5,10,0:0:0:0:
241,137,128365,1,10,0:0:0:0:
234,126,128677,5,10,0:0:0:0:
362,361,128833,1,10,0:0:0:0:
356,374,129146,5,8,0:0:0:0:
407,223,129302,1,10,0:0:0:0:
395,216,129615,5,2,3:2:0:0:
452,315,129771,1,0,0:0:0:0:
452,315,129849,1,0,0:0:0:0:
452,315,129927,2,1,L|325:297,1,102,0|0,0:0|0:0,0:0:0:0:
261,238,130240,6,1,P|198:228|98:280,1,152.999995330811,6|0,3:2|0:0,0:0:0:0:
18,306,130552,2,1,L|39:188,1,101.999996887207,8|2,0:0|3:2,0:0:0:0:
237,49,130865,1,10,0:0:0:0:
96,89,131021,1,2,3:2:0:0:
272,147,131177,1,8,0:0:0:0:
83,99,131333,1,2,3:2:0:0:
319,4,131490,6,1,P|370:-1|433:29,1,101.999996887207,10|2,0:0|3:2,0:0:0:0:
496,213,131802,1,10,0:0:0:0:
359,96,131958,1,2,3:2:0:0:
359,96,132036,1,0,0:0:0:0:
359,96,132115,2,1,L|379:214,1,101.999996887207,10|0,0:0|3:0,0:0:0:0:
342,343,132427,1,10,0:0:0:0:
505,227,132583,1,2,3:2:0:0:
330,355,132740,6,1,P|268:364|191:290,1,152.999995330811,10|0,0:0|0:0,0:0:0:0:
197,201,133052,1,10,0:0:0:0:
75,323,133208,1,2,3:2:0:0:
21,148,133365,2,1,L|0:33,1,101.999996887207,10|0,0:0|3:0,0:0:0:0:
121,126,133599,1,0,0:0:0:0:
121,126,133677,2,1,L|100:241,1,101.999996887207,10|0,0:0|3:0,0:0:0:0:
106,26,133990,5,10,0:0:0:0:
309,70,134146,1,2,3:2:0:0:
204,91,134302,1,10,0:0:0:0:
377,1,134458,1,2,3:2:0:0:
377,1,134536,1,0,0:0:0:0:
377,1,134615,1,10,0:0:0:0:
276,163,134771,1,0,3:0:0:0:
411,303,134927,2,1,P|433:251|423:189,1,101.999996887207,8|0,0:0|3:0,0:0:0:0:
135,178,135240,6,1,L|152:301,1,101.999996887207,6|0,3:2|0:0,0:0:0:0:
366,148,135552,5,10,0:0:0:0:
171,51,135708,1,2,3:2:0:0:
377,1,135865,1,10,0:0:0:0:
215,128,136021,1,2,3:2:0:0:
429,206,136177,1,10,0:0:0:0:
135,178,136333,1,2,3:2:0:0:
326,340,136490,6,1,L|343:217,1,101.999996887207,10|0,0:0|3:0,0:0:0:0:
191,368,136802,5,8,0:0:0:0:
425,309,136958,1,2,3:2:0:0:
425,309,137036,1,0,0:0:0:0:
425,309,137115,1,10,0:0:0:0:
234,204,137271,1,2,3:2:0:0:
467,124,137427,1,10,0:0:0:0:
339,238,137583,1,2,3:2:0:0:
181,115,137740,6,1,L|167:13,1,101.999996887207,10|0,0:0|3:0,0:0:0:0:
384,155,138052,1,10,0:0:0:0:
110,229,138208,1,2,3:2:0:0:
429,267,138365,1,10,0:0:0:0:
278,131,138521,1,2,3:2:0:0:
138,321,138677,1,10,0:0:0:0:
249,37,138833,1,2,3:2:0:0:
329,281,138990,6,1,L|454:263,1,101.999996887207,10|0,0:0|3:0,0:0:0:0:
176,110,139302,2,1,L|51:92,1,101.999996887207,10|0,0:0|3:0,0:0:0:0:
249,37,139615,1,14,0:0:0:0:
275,81,139693,1,8,0:0:0:0:
278,131,139771,1,8,0:0:0:0:
259,178,139849,1,8,0:0:0:0:
220,210,139927,1,10,0:0:0:0:
193,254,140005,1,8,0:0:0:0:
190,303,140083,1,8,3:0:0:0:
209,351,140161,1,0,3:0:0:0:
248,383,140240,6,1,L|377:361,1,101.999996887207,6|0,3:2|0:0,0:0:0:0:
419,129,140552,1,10,0:0:0:0:
291,285,140708,1,2,3:2:0:0:
186,110,140865,1,10,0:0:0:0:
382,236,141021,1,2,3:2:0:0:
411,11,141177,1,10,0:0:0:0:
210,218,141333,1,0,3:0:0:0:
494,262,141490,5,10,0:0:0:0:
296,143,141646,1,2,3:2:0:0:
255,370,141802,1,10,0:0:0:0:
445,156,141958,1,2,3:2:0:0:
445,156,142036,1,0,0:0:0:0:
445,156,142115,1,10,0:0:0:0:
477,367,142271,1,0,3:0:0:0:
242,268,142427,1,8,0:0:0:0:
512,206,142583,1,2,3:2:0:0:
187,186,142740,6,1,L|69:174,1,101.999996887207,10|0,0:0|3:0,0:0:0:0:
274,103,143052,1,10,0:0:0:0:
325,296,143208,1,2,3:2:0:0:
391,162,143365,2,1,P|453:152|495:159,1,101.999996887207,10|0,0:0|3:0,0:0:0:0:
512,282,143599,1,0,0:0:0:0:
512,282,143677,2,1,P|462:288|412:278,1,101.999996887207,10|0,0:0|3:0,0:0:0:0:
203,143,143990,5,10,0:0:0:0:
159,329,144146,1,2,3:2:0:0:
296,116,144302,1,10,0:0:0:0:
343,343,144458,1,2,3:2:0:0:
140,237,144615,1,10,0:0:0:0:
400,142,144771,1,0,3:0:0:0:
242,47,144927,2,1,B|134:27|134:27|86:59,1,152.999995330811,8|0,0:0|0:0,0:0:0:0:
9,163,145240,6,1,L|32:282,1,101.999996887207,6|0,3:2|0:0,0:0:0:0:
231,369,145552,1,10,0:0:0:0:
263,191,145708,1,2,3:2:0:0:
125,353,145865,1,10,0:0:0:0:
352,265,146021,1,2,3:2:0:0:
138,201,146177,1,10,0:0:0:0:
402,190,146333,1,2,3:2:0:0:
351,30,146490,6,1,L|328:149,1,101.999996887207,10|0,0:0|3:0,0:0:0:0:
201,283,146802,1,10,0:0:0:0:
130,111,146958,1,2,3:2:0:0:
130,111,147036,1,0,0:0:0:0:
130,111,147115,1,10,0:0:0:0:
268,209,147271,1,2,3:2:0:0:
104,276,147427,1,10,0:0:0:0:
352,265,147583,1,2,3:2:0:0:
38,190,147740,6,1,L|18:89,1,101.999996887207,10|0,0:0|3:0,0:0:0:0:
256,105,148052,2,1,L|256:3,1,101.999996887207,10|0,0:0|3:0,0:0:0:0:
474,190,148365,2,1,L|493:89,1,101.999996887207,10|0,0:0|3:0,0:0:0:0:
324,239,148677,1,10,0:0:0:0:
493,320,148833,1,2,3:2:0:0:
261,342,148990,5,8,3:0:0:0:
403,276,149146,1,0,3:0:0:0:
254,357,149302,1,0,3:0:0:0:
417,285,149458,1,8,0:0:0:0:
188,127,149615,6,1,L|221:252,1,101.999996887207,8|0,0:0|3:0,0:0:0:0:
168,302,149849,1,0,3:0:0:0:
168,302,149927,2,1,P|233:252|322:274,1,152.999995330811,12|0,0:0|0:0,0:0:0:0:
365,360,150240,5,4,3:2:0:0:
502,131,150552,6,1,B|479:133|479:133|450:147|450:147|356:140,1,127.5,8|0,0:0|0:0,0:0:0:0:
366,134,150865,1,2,3:2:0:0:
284,210,151021,1,2,3:2:0:0:
156,107,151177,5,10,0:0:0:0:
156,107,151255,1,2,0:0:0:0:
156,107,151333,2,1,L|257:93,1,85,2|0,3:2|0:0,0:0:0:0:
85,183,151646,1,2,3:2:0:0:
56,152,151724,1,2,0:0:0:0:
43,112,151802,1,10,0:0:0:0:
49,70,151880,1,2,0:0:0:0:
72,35,151958,6,1,L|173:21,1,85,2|0,0:0|3:0,0:0:0:0:
252,106,152271,1,2,3:2:0:0:
224,204,152427,1,8,0:0:0:0:
103,315,152583,5,2,0:0:0:0:
103,315,152661,1,2,0:0:0:0:
103,315,152740,1,2,3:2:0:0:
234,218,152896,1,2,0:0:0:0:
319,283,153052,1,10,0:0:0:0:
319,283,153130,1,2,0:0:0:0:
319,283,153208,1,2,0:0:0:0:
120,164,153365,5,2,3:2:0:0:
394,202,153521,1,2,3:2:0:0:
267,29,153677,1,10,0:0:0:0:
267,29,153755,1,2,0:0:0:0:
267,29,153833,1,2,3:2:0:0:
234,218,153990,5,2,0:0:0:0:
313,176,154146,1,2,3:2:0:0:
362,38,154302,1,8,0:0:0:0:
463,277,154458,2,1,B|431:258|431:258|306:269,1,127.5,2|0,0:0|0:0,0:0:0:0:
262,308,154771,2,1,P|284:337|313:356,1,42.5,2|0,3:2|0:0,0:0:0:0:
500,165,154927,1,10,0:0:0:0:
493,175,155240,6,1,L|396:168,1,85,2|2,3:2|0:0,0:0:0:0:
234,123,155552,1,8,0:0:0:0:
193,110,155630,1,2,0:0:0:0:
151,116,155708,1,2,0:0:0:0:
116,138,155786,1,2,0:0:0:0:
93,174,155864,1,2,3:2:0:0:
86,215,155942,1,2,0:0:0:0:
98,256,156020,1,2,3:2:0:0:
62,233,156099,1,2,0:0:0:0:
37,199,156177,1,10,0:0:0:0:
26,158,156255,1,2,0:0:0:0:
30,116,156333,1,2,3:2:0:0:
48,78,156411,1,2,0:0:0:0:
79,49,156490,5,2,0:0:0:0:
185,211,156646,1,2,3:2:0:0:
246,0,156802,1,8,0:0:0:0:
257,291,156958,2,1,P|313:262|376:249,1,127.5,2|0,0:0|0:0,0:0:0:0:
455,291,157271,1,2,3:2:0:0:
312,221,157427,1,10,0:0:0:0:
201,358,157583,1,2,0:0:0:0:
131,301,157740,6,1,P|178:276|248:271,1,85,2|2,3:2|3:2,0:0:0:0:
284,302,157974,1,2,0:0:0:0:
309,316,158052,1,8,0:0:0:0:
192,180,158208,1,0,0:0:0:0:
218,168,158286,1,2,0:0:0:0:
246,160,158364,1,2,3:2:0:0:
62,148,158521,1,2,3:2:0:0:
73,121,158599,1,2,0:0:0:0:
87,96,158677,1,8,0:0:0:0:
241,6,158833,5,2,0:0:0:0:
241,6,158911,1,8,0:0:0:0:
241,6,158990,1,12,0:0:0:0:
112,226,159146,1,8,3:0:0:0:
310,242,159302,1,2,3:2:0:0:
339,212,159380,1,8,0:0:0:0:
352,172,159458,1,8,0:0:0:0:
346,130,159536,1,2,0:0:0:0:
322,96,159614,1,8,3:0:0:0:
235,357,159771,5,0,3:0:0:0:
281,361,159849,1,8,0:0:0:0:
327,353,159927,1,8,0:0:0:0:
369,334,160005,1,8,0:0:0:0:
405,304,160083,1,0,3:0:0:0:
432,266,160161,1,0,3:0:0:0:
449,223,160240,6,1,L|467:55,1,152.999995330811,6|0,3:2|0:0,0:0:0:0:
426,139,160552,2,1,L|406:11,1,101.999996887207,10|0,0:0|0:0,0:0:0:0:
247,172,160865,1,0,3:0:0:0:
308,306,161021,1,2,3:2:0:0:
317,70,161177,1,8,0:0:0:0:
143,169,161333,6,1,B|144:209|144:209|184:268,1,101.999996887207,0|0,3:0|0:0,0:0:0:0:
216,72,161646,1,0,3:0:0:0:
53,245,161802,1,8,0:0:0:0:
5,45,161958,1,2,0:0:0:0:
5,45,162036,1,8,0:0:0:0:
5,45,162115,1,0,3:0:0:0:
143,169,162271,1,2,3:2:0:0:
284,10,162427,1,8,0:0:0:0:
79,104,162583,1,2,0:0:0:0:
284,223,162740,5,2,3:2:0:0:
214,113,162896,1,2,0:0:0:0:
189,317,163052,1,10,0:0:0:0:
363,270,163208,1,2,0:0:0:0:
71,238,163365,5,2,3:2:0:0:
122,383,163521,1,2,3:2:0:0:
223,125,163677,1,10,0:0:0:0:
33,60,163833,1,2,3:2:0:0:
176,250,163990,5,2,0:0:0:0:
365,116,164146,1,2,3:2:0:0:
365,116,164224,1,0,0:0:0:0:
365,116,164302,2,1,L|288:103,1,50.9999984436036,8|0,0:0|0:0,0:0:0:0:
120,98,164458,2,1,L|345:75,1,203.999993774414,2|2,0:0|3:2,0:0:0:0:
375,15,164849,1,0,0:0:0:0:
375,15,164927,2,1,L|477:29,1,101.999996887207,10|2,0:0|0:0,0:0:0:0:
370,364,165240,6,1,B|340:346|340:346|318:273,1,101.999996887207,6|2,3:2|0:0,0:0:0:0:
320,281,165474,1,0,0:0:0:0:
320,281,165552,1,10,0:0:0:0:
491,127,165708,1,2,0:0:0:0:
491,127,165786,1,2,0:0:0:0:
491,127,165865,1,2,3:2:0:0:
448,284,166021,1,2,3:2:0:0:
338,195,166177,1,10,0:0:0:0:
169,356,166333,6,1,B|142:377|142:377|76:379|47:293,1,152.999995330811,2|0,3:2|0:0,0:0:0:0:
67,220,166646,1,2,3:2:0:0:
263,296,166802,1,10,0:0:0:0:
332,109,166958,1,2,0:0:0:0:
332,109,167036,1,8,0:0:0:0:
332,109,167115,1,2,3:2:0:0:
216,219,167271,1,2,3:2:0:0:
145,24,167427,1,10,0:0:0:0:
329,232,167583,1,2,0:0:0:0:
104,188,167740,5,6,3:2:0:0:
257,119,167896,1,2,0:0:0:0:
160,114,168052,1,10,0:0:0:0:
393,177,168208,1,2,0:0:0:0:
308,188,168365,1,2,3:2:0:0:
497,106,168521,1,2,3:2:0:0:
212,42,168677,1,14,0:0:0:0:
436,0,168833,1,2,0:0:0:0:
340,274,168990,6,0,P|289:273|243:251,1,101.999996887207,2|0,3:2|0:0,0:0:0:0:
192,187,169224,1,8,0:0:0:0:
192,187,169302,2,0,P|126:194|79:228,1,101.999996887207,8|0,0:0|3:0,0:0:0:0:
61,287,169536,5,0,3:0:0:0:
61,287,169615,2,1,L|74:359,2,53.8333318958283,0|0|0,3:2|3:2|3:2,0:0:0:0:
0,216,169927,2,1,L|12:149,2,53.8333318958283,0|0|0,3:2|3:2|3:2,0:0:0:0:
87,104,170240,5,4,3:2:0:0:
406,329,172740,5,2,0:0:0:0:
112,247,175240,5,2,0:0:0:0:
434,182,177740,5,2,0:0:0:0:
173,105,179615,6,1,L|133:95,3,25.4999992218018,2|2|2|2,0:3|0:3|0:3|0:3,0:0:0:0:
85,55,179927,1,2,0:3:0:0:
80,216,180240,6,1,P|86:246|105:272,1,46.7500014266968,6|0,3:2|0:0,0:0:0:0:
42,325,180552,2,1,P|68:342|99:347,1,46.7500014266968,0|2,3:2|0:0,0:0:0:0:
169,302,180865,2,1,L|219:294,1,46.7500014266968,2|2,3:2|0:0,0:0:0:0:
289,346,181177,2,1,L|339:354,1,46.7500014266968,2|2,3:2|0:0,0:0:0:0:
435,327,181490,5,2,3:2:0:0:
442,341,181646,1,2,0:0:0:0:
367,246,181802,1,2,3:2:0:0:
372,233,181958,1,2,0:0:0:0:
435,164,182115,2,1,L|424:102,1,46.7500014266968,2|0,3:2|0:0,0:0:0:0:
339,59,182427,1,2,3:2:0:0:
426,28,182583,1,2,0:0:0:0:
263,118,182740,6,1,P|223:130|166:106,1,93.5000028533936,2|0,3:2|3:2,0:0:0:0:
90,51,183208,1,2,0:0:0:0:
25,120,183365,2,1,P|30:155|48:180,1,46.7500014266968,2|2,3:2|0:0,0:0:0:0:
112,237,183677,2,1,P|117:202|135:177,1,46.7500014266968,2|2,3:2|0:0,0:0:0:0:
213,239,183990,5,2,3:2:0:0:
199,244,184146,1,2,0:0:0:0:
303,186,184302,1,2,3:2:0:0:
317,191,184458,1,2,0:0:0:0:
406,272,184615,2,1,P|423:325|416:371,1,93.5000028533936,2|0,3:2|3:2,0:0:0:0:
161,165,185240,6,1,L|144:60,1,93.5000028533936,2|0,3:2|3:2,0:0:0:0:
261,16,185708,1,2,0:0:0:0:
261,16,185865,2,1,L|254:78,1,46.7500014266968,2|2,3:2|0:0,0:0:0:0:
333,121,186177,2,1,L|340:183,1,46.7500014266968,2|2,3:2|0:0,0:0:0:0:
347,285,186490,6,1,P|306:266|246:272,1,95.6250036478044,2|0,3:2|0:0,0:0:0:0:
171,309,186802,2,1,P|134:318|107:316,1,63.7500024318696,2|0,3:2|0:0,0:0:0:0:
132,211,187115,1,2,3:2:0:0:
135,227,187271,1,2,0:0:0:0:
36,159,187427,1,2,3:2:0:0:
42,145,187583,1,2,0:0:0:0:
198,56,187740,5,6,3:2:0:0:
256,192,187818,12,1,188990,0:0:0:0:
256,192,189068,12,1,190083,0:0:0:0:
413,327,190240,6,1,B|447:302|447:302|364:252|274:325,1,184.875005641937,6|0,3:2|0:0,0:0:0:0:
224,363,190552,1,8,0:0:0:0:
365,248,190708,1,2,3:2:0:0:
156,175,190865,1,10,0:0:0:0:
237,258,191021,1,0,3:0:0:0:
318,91,191177,1,8,0:0:0:0:
252,174,191333,1,2,3:2:0:0:
250,30,191490,5,10,0:0:0:0:
442,140,191646,1,2,3:2:0:0:
252,174,191802,1,10,0:0:0:0:
403,62,191958,1,2,3:2:0:0:
403,62,192036,1,0,0:0:0:0:
403,62,192115,2,1,P|471:62|513:100,1,106.25,10|0,0:0|3:0,0:0:0:0:
335,263,192427,2,1,L|316:67,1,159.375,10|0,0:0|0:0,0:0:0:0:
212,179,192740,6,1,B|182:192|182:192|81:166,1,106.25,10|0,0:0|3:0,0:0:0:0:
253,55,193052,1,10,0:0:0:0:
185,280,193208,1,2,3:2:0:0:
26,109,193365,2,1,P|82:76|129:79,1,106.25,10|0,0:0|3:0,0:0:0:0:
306,155,193677,1,10,0:0:0:0:
110,173,193833,1,2,3:2:0:0:
323,247,193990,5,10,0:0:0:0:
377,72,194146,1,2,3:2:0:0:
435,261,194302,1,10,0:0:0:0:
221,218,194458,1,2,3:2:0:0:
462,149,194615,1,10,0:0:0:0:
204,226,194771,1,0,3:0:0:0:
425,367,194927,2,1,L|437:241,1,106.25,8|0,0:0|3:0,0:0:0:0:
234,340,195240,6,1,P|142:325|95:232,1,159.375,6|0,3:2|0:0,0:0:0:0:
63,171,195552,1,10,0:0:0:0:
127,358,195708,1,2,3:2:0:0:
261,168,195865,1,10,0:0:0:0:
81,271,196021,1,2,3:2:0:0:
341,249,196177,1,10,0:0:0:0:
167,153,196333,1,2,3:2:0:0:
370,84,196490,6,1,L|350:278,1,159.375,10|0,0:0|0:0,0:0:0:0:
230,269,196802,1,8,0:0:0:0:
202,69,196958,1,2,3:2:0:0:
47,199,197115,1,10,0:0:0:0:
140,0,197271,1,2,3:2:0:0:
240,183,197427,1,10,0:0:0:0:
338,0,197583,1,2,3:2:0:0:
35,90,197740,6,1,B|102:81|102:81|141:87|141:87|222:77,1,159.375,10|0,0:0|0:0,0:0:0:0:
356,99,198052,1,10,0:0:0:0:
138,175,198208,1,2,3:2:0:0:
340,251,198365,1,10,0:0:0:0:
69,233,198521,1,2,3:2:0:0:
259,127,198677,1,10,0:0:0:0:
25,79,198833,1,2,3:2:0:0:
356,99,198990,6,1,L|331:225,1,106.25,10|0,0:0|3:0,0:0:0:0:
149,22,199302,2,1,L|174:148,1,106.25,10|0,0:0|3:0,0:0:0:0:
302,304,199615,1,14,0:0:0:0:
354,307,199693,1,0,0:0:0:0:
401,284,199771,1,0,1:0:0:0:
431,240,199849,1,0,1:0:0:0:
435,188,199927,2,1,L|417:130,1,53.125,10|8,0:0|0:0,0:0:0:0:
206,267,200083,2,1,L|190:317,1,53.125,8|0,3:0|3:0,0:0:0:0:
69,184,200240,6,1,P|141:233|266:169,1,212.5,6|10,3:2|0:0,0:0:0:0:
337,28,200708,1,2,3:2:0:0:
164,132,200865,1,10,0:0:0:0:
436,181,201021,1,2,3:2:0:0:
230,11,201177,1,10,0:0:0:0:
281,247,201333,1,2,3:2:0:0:
499,54,201490,5,10,0:0:0:0:
253,135,201646,1,2,3:2:0:0:
471,310,201802,1,10,0:0:0:0:
391,97,201958,1,2,3:2:0:0:
235,322,202115,2,1,B|204:353|204:353|69:332,1,159.375,10|0,0:0|0:0,0:0:0:0:
0,269,202427,1,8,0:0:0:0:
257,223,202583,1,2,3:2:0:0:
57,59,202740,6,1,P|100:125|191:138,1,159.375,10|0,0:0|0:0,0:0:0:0:
293,83,203052,1,10,0:0:0:0:
186,0,203208,1,0,3:0:0:0:
0,269,203365,2,1,P|86:236|151:233,1,106.25,10|0,0:0|3:0,0:0:0:0:
383,131,203677,2,1,P|467:168|515:212,1,106.25,10|0,0:0|3:0,0:0:0:0:
245,325,203990,5,10,0:0:0:0:
186,109,204146,1,2,3:2:0:0:
254,339,204302,1,10,0:0:0:0:
307,72,204458,1,2,3:2:0:0:
401,304,204615,1,10,0:0:0:0:
177,192,204771,1,0,3:0:0:0:
334,226,204927,1,8,0:0:0:0:
129,334,205083,1,0,3:0:0:0:
102,127,205240,6,1,B|139:92|139:92|192:86|251:111,1,159.375,6|0,3:2|0:0,0:0:0:0:
377,142,205552,1,10,0:0:0:0:
194,267,205708,1,2,3:2:0:0:
426,227,205865,1,10,0:0:0:0:
215,61,206021,1,2,3:2:0:0:
276,284,206177,1,10,0:0:0:0:
407,52,206333,1,2,3:2:0:0:
440,306,206490,6,1,B|403:271|403:271|350:265|291:290,1,159.375,14|0,0:0|0:0,0:0:0:0:
164,361,206802,1,10,0:0:0:0:
108,191,206958,1,2,3:2:0:0:
108,191,207036,1,0,0:0:0:0:
108,191,207115,1,10,0:0:0:0:
289,275,207271,1,2,3:2:0:0:
277,39,207427,1,10,0:0:0:0:
172,239,207583,1,2,3:2:0:0:
483,141,207740,6,1,L|329:122,1,106.25,14|0,0:0|3:0,0:0:0:0:
55,246,208052,2,1,L|209:227,1,106.25,10|0,0:0|3:0,0:0:0:0:
474,365,208365,2,1,L|320:346,1,106.25,10|0,0:0|3:0,0:0:0:0:
156,120,208677,1,10,0:0:0:0:
221,279,208833,1,2,3:2:0:0:
363,131,208990,5,8,3:0:0:0:
138,223,209146,1,0,3:0:0:0:
434,208,209302,1,0,3:0:0:0:
231,11,209458,1,8,0:0:0:0:
225,221,209615,2,1,P|279:183|290:125,1,106.25,8|0,0:0|3:0,0:0:0:0:
205,143,209849,1,0,3:0:0:0:
205,143,209927,2,1,L|228:339,1,159.375,12|0,0:0|0:0,0:0:0:0:
239,384,210240,5,6,3:2:0:0:
112,140,210552,6,1,L|1:128,1,85,10|10,0:0|0:0,0:0:0:0:
245,34,210865,2,1,L|160:43,1,85,2|2,0:0|3:2,0:0:0:0:
338,145,211177,2,1,L|227:133,1,85,10|2,0:0|0:0,0:0:0:0:
403,77,211490,5,2,3:2:0:0:
430,160,211646,1,2,3:2:0:0:
318,233,211802,1,10,0:0:0:0:
338,145,211958,1,10,0:0:0:0:
399,277,212115,5,2,0:0:0:0:
255,298,212271,1,2,3:2:0:0:
337,342,212427,1,10,0:0:0:0:
189,368,212583,1,2,0:0:0:0:
67,293,212740,6,1,P|57:219|83:133,1,127.5,2|0,3:2|0:0,0:0:0:0:
99,75,213052,1,10,0:0:0:0:
176,138,213208,1,10,0:0:0:0:
89,65,213365,2,1,L|-6:81,1,85,2|2,0:0|3:2,0:0:0:0:
217,33,213677,2,1,L|312:49,1,85,10|2,0:0|0:0,0:0:0:0:
410,161,213990,5,2,3:2:0:0:
449,79,214146,1,2,3:2:0:0:
475,218,214302,1,10,0:0:0:0:
325,174,214458,1,10,0:0:0:0:
371,301,214615,2,1,P|368:343|357:384,1,85,2|2,0:0|3:2,0:0:0:0:
202,380,214927,2,1,P|239:359|270:330,1,85,10|2,0:0|0:0,0:0:0:0:
173,142,215240,6,1,P|168:217|189:291,1,140.25000428009,6|0,3:2|0:0,0:0:0:0:
270,330,215552,1,10,0:0:0:0:
313,225,215708,1,10,0:0:0:0:
183,279,215865,2,1,L|99:263,1,85,2|2,0:0|3:2,0:0:0:0:
3,166,216177,2,1,L|86:150,1,85,10|2,0:0|0:0,0:0:0:0:
203,61,216490,5,2,3:2:0:0:
181,135,216646,1,2,3:2:0:0:
289,46,216802,1,10,0:0:0:0:
267,120,216958,1,10,0:0:0:0:
354,104,217115,1,2,0:0:0:0:
332,178,217271,1,2,3:2:0:0:
441,87,217427,1,10,0:0:0:0:
419,161,217583,1,2,0:0:0:0:
494,271,217740,6,1,P|441:249|378:271,1,127.5,2|0,3:2|0:0,0:0:0:0:
295,348,218052,2,1,P|239:348|199:322,1,85,10|10,0:0|0:0,0:0:0:0:
123,207,218365,2,1,P|161:223|189:255,1,85,2|2,0:0|3:2,0:0:0:0:
39,246,218677,1,10,0:0:0:0:
82,132,218833,1,2,0:0:0:0:
217,136,218990,5,8,0:0:0:0:
31,61,219146,1,2,3:2:0:0:
31,61,219224,1,0,3:0:0:0:
31,61,219302,1,2,3:2:0:0:
147,0,219458,1,8,0:0:0:0:
123,207,219615,1,8,3:0:0:0:
155,234,219693,1,0,3:0:0:0:
195,249,219771,1,0,3:0:0:0:
237,250,219849,1,0,0:0:0:0:
277,238,219927,1,8,0:0:0:0:
445,25,220240,6,1,P|403:39|376:111,1,114.749996498108,6|0,3:2|0:0,0:0:0:0:
451,182,220552,2,1,L|462:85,1,76.4999976654053,2|2,1:2|1:2,0:0:0:0:
374,238,220865,2,1,L|382:314,1,76.4999976654053,2|2,0:0|3:2,0:0:0:0:
294,158,221177,2,1,L|149:140,1,114.749996498108,10|0,0:0|0:0,0:0:0:0:
79,105,221490,6,1,P|148:109|199:80,1,114.749996498108,2|0,3:2|0:0,0:0:0:0:
204,14,221802,1,2,1:2:0:0:
122,17,221958,1,2,1:2:0:0:
95,190,222115,2,1,P|35:180|-1:151,1,76.4999976654053,2|0,0:0|3:0,0:0:0:0:
180,143,222427,1,10,0:0:0:0:
180,143,222583,1,2,0:0:0:0:
78,287,222740,6,1,P|155:253|245:261,1,152.999995330811,2|0,3:2|1:0,0:0:0:0:
313,313,223208,1,2,1:2:0:0:
406,250,223365,2,1,P|447:188|406:104,1,152.999995330811,2|8,0:0|0:0,0:0:0:0:
344,2,223833,1,2,0:0:0:0:
284,101,223990,6,1,L|455:74,1,152.999995330811,2|0,3:2|1:0,0:0:0:0:
232,172,224458,1,2,1:2:0:0:
232,172,224615,2,1,P|194:134|183:85,1,76.4999976654053,2|0,0:0|3:0,0:0:0:0:
96,135,224927,2,1,P|95:81|123:39,1,76.4999976654053,8|2,0:0|0:0,0:0:0:0:
283,101,225240,6,1,L|268:248,1,114.749996498108,2|0,3:2|0:0,0:0:0:0:
264,302,225552,1,0,1:0:0:0:
437,261,225708,1,0,1:0:0:0:
445,275,226021,5,0,3:0:0:0:
253,314,226177,2,1,L|119:296,1,114.749996498108,8|0,0:0|0:0,0:0:0:0:
62,257,226490,6,1,P|49:314|62:352,1,76.4999976654053,0|0,3:0|0:0,0:0:0:0:
143,218,226802,1,0,1:0:0:0:
90,156,226958,1,2,1:2:0:0:
90,156,227115,2,1,L|-11:167,1,76.4999976654053,0|2,0:0|3:2,0:0:0:0:
141,82,227427,2,1,L|217:90,1,76.4999976654053,10|2,0:0|0:0,0:0:0:0:
338,203,227740,6,1,P|394:201|441:138,1,114.749996498108,2|0,3:2|0:0,0:0:0:0:
466,83,228052,1,0,1:0:0:0:
283,46,228208,1,0,1:0:0:0:
269,58,228521,5,0,3:0:0:0:
382,2,228677,2,1,L|365:105,1,76.4999976654053,8|0,0:0|0:0,0:0:0:0:
244,189,228990,6,1,P|180:195|138:182,1,76.4999976654053,0|0,3:0|0:0,0:0:0:0:
128,280,229302,2,1,P|78:238|57:200,1,76.4999976654053,0|0,1:0|1:0,0:0:0:0:
220,322,229615,2,1,P|278:285|354:281,1,114.749996498108,0|0,0:0|0:0,0:0:0:0:
401,351,229927,2,1,L|421:207,1,114.749996498108,8|0,0:0|0:0,0:0:0:0:
465,174,230240,6,1,L|449:84,1,85,6|0,3:2|0:0,0:0:0:0:
387,24,230552,1,2,1:2:0:0:
321,114,230708,1,2,1:2:0:0:
321,114,230865,2,1,P|267:119|236:112,1,76.4999976654053,2|0,0:0|3:0,0:0:0:0:
195,33,231177,2,1,P|141:28|110:35,1,76.4999976654053,10|0,0:0|0:0,0:0:0:0:
3,173,231490,6,1,L|133:152,1,114.749996498108,2|0,3:2|0:0,0:0:0:0:
188,196,231802,1,2,1:2:0:0:
157,273,231958,1,2,1:2:0:0:
19,144,232115,2,1,L|110:130,1,76.4999976654053,2|0,0:0|3:0,0:0:0:0:
180,84,232427,1,10,0:0:0:0:
180,84,232583,1,2,0:0:0:0:
282,191,232740,6,1,P|342:200|407:127,1,152.999995330811,2|0,3:2|1:0,0:0:0:0:
396,48,233208,1,2,1:2:0:0:
500,151,233365,2,1,L|483:296,1,114.749996498108,2|0,0:0|0:0,0:0:0:0:
436,344,233677,2,1,P|387:320|348:317,1,76.4999976654053,8|2,0:0|0:0,0:0:0:0:
251,355,233990,6,1,B|216:371|176:352|176:352|133:338|101:350,1,152.999995330811,2|0,3:2|1:0,0:0:0:0:
12,299,234458,1,2,1:2:0:0:
136,253,234615,1,2,0:0:0:0:
136,253,234771,1,2,3:2:0:0:
43,140,234927,2,1,L|61:240,1,76.4999976654053,10|2,0:0|0:0,0:0:0:0:
214,98,235240,6,1,P|159:103|110:60,1,114.749996498108,2|0,3:2|0:0,0:0:0:0:
114,68,235552,1,2,1:2:0:0:
297,36,235708,1,2,1:2:0:0:
309,46,236021,5,2,3:2:0:0:
230,172,236177,2,1,L|207:69,1,76.4999976654053,8|2,0:0|0:0,0:0:0:0:
349,174,236490,6,1,P|333:232|311:256,1,76.4999976654053,2|2,3:2|0:0,0:0:0:0:
412,336,236802,2,1,P|359:365|327:367,1,76.4999976654053,2|2,1:2|1:2,0:0:0:0:
60,264,237115,2,1,P|118:248|150:255,1,76.4999976654053,2|2,0:0|3:2,0:0:0:0:
168,129,237427,2,1,P|219:159|237:186,1,76.4999976654053,8|2,0:0|0:0,0:0:0:0:
139,351,237740,5,2,3:2:0:0:
139,351,237896,1,0,0:0:0:0:
241,287,238052,2,1,L|331:272,1,76.4999976654053,2|2,1:2|1:2,0:0:0:0:
465,215,238365,2,1,L|375:200,1,76.4999976654053,2|2,0:0|3:2,0:0:0:0:
258,111,238677,1,8,0:0:0:0:
258,111,238833,1,2,3:2:0:0:
285,372,238990,5,8,3:0:0:0:
384,276,239302,1,2,3:2:0:0:
164,212,239458,1,2,3:2:0:0:
164,212,239536,1,0,3:0:0:0:
164,212,239615,2,1,B|101:196|101:196|54:201|54:201|0:188|0:188|51:183,1,203.999993774414,4|0,0:0|0:0,0:0:0:0:
