osu file format v14

[General]
AudioFilename: audio.mp3
AudioLeadIn: 0
PreviewTime:60119
Countdown: 0
SampleSet: Soft
StackLeniency: 0.4
Mode: 0
LetterboxInBreaks: 0
WidescreenStoryboard: 1

[Editor]
Bookmarks: 130161,130240,130318,130396,150198,180198,187698,208365
DistanceSpacing: 1.1
BeatDivisor: 4
GridSize: 4
TimelineZoom: 2.2

[Metadata]
Title:Kagerou Days
TitleUnicode:カゲロウデイズ
Artist:JIN feat. Shouichi Taguchi (Sentimental Vector)
ArtistUnicode:じん feat. 田口囁一(感傷ベクトル)
Creator:Nevo
Version:Collab Insane
Source:メカクシティアクターズ
Tags:vocaloid Mekakucity Actors reload project カゲロウプロジェ 自然の敵P Shizen no Teki P Teki-P TekiP じん Blindfold daze カゲロウプロジェクト kagerou defy kansyo shoichi Vector illusionB rizen japanese rock jrock j-rock anime
BeatmapID:3654525
BeatmapSetID:1702088

[Difficulty]
HPDrainRate:5
CircleSize:4
OverallDifficulty:8.2
ApproachRate:9
SliderMultiplier:1.5
SliderTickRate:1

[Events]
//Background and Video events
0,0,"Konachan.com - 125507 sample.jpg",0,0
Video,-850,"sdadadsa.mp4"
//Break Periods
2,80440,89640
2,170440,172140
2,172940,174640
2,175440,177140
2,177940,179015
//Storyboard Layer 0 (Background)
//Storyboard Layer 1 (Fail)
//Storyboard Layer 2 (Pass)
//Storyboard Layer 3 (Foreground)
//Storyboard Layer 4 (Overlay)
//Storyboard Sound Samples

[TimingPoints]
225,312.5,4,2,1,50,1,0
1475,-111.111111111111,4,2,1,50,0,0
1787,-100,4,2,1,50,0,0
1797,-100,4,2,1,35,0,0
2881,-100,4,2,1,50,0,0
3975,-111.111111111111,4,2,1,50,0,0
4287,-100,4,2,1,50,0,0
4297,-100,4,2,1,35,0,0
4912,-100,4,2,1,50,0,0
6475,-111.111111111111,4,2,1,50,0,0
6787,-100,4,2,1,50,0,0
6797,-100,4,2,1,35,0,0
7412,-100,4,2,1,50,0,0
9912,-111.111111111111,4,2,1,50,0,0
10240,312.5,4,2,1,50,1,0
10240,-111.111111111111,4,2,1,50,0,0
10396,-111.111111111111,4,2,1,60,0,0
19927,-100,4,2,1,60,0,0
20708,-100,4,2,1,55,0,0
40250,-100,4,2,1,50,0,0
41802,-125,4,2,1,50,0,0
49849,-125,4,2,1,35,0,0
49927,-125,4,2,1,40,0,0
50005,-125,4,2,1,45,0,0
50161,-125,4,2,1,50,0,0
50240,-125,4,2,1,55,0,0
50250,-125,4,2,1,60,0,0
57896,-125,4,2,1,70,0,0
58365,-125,4,2,1,75,0,0
58833,-125,4,2,1,80,0,0
59302,-125,4,2,1,85,0,0
60240,-83.3333333333333,4,2,1,90,0,1
70250,-83.3333333333333,4,2,1,80,0,1
79146,-83.3333333333333,4,2,1,70,0,1
80240,-83.3333333333333,4,2,1,70,0,0
90240,-100,4,2,1,60,0,0
100240,-100,4,2,1,50,0,0
100250,-100,4,2,1,55,0,0
110250,-100,4,2,1,50,0,0
111802,-125,4,2,1,50,0,0
120250,-125,4,2,1,60,0,0
127896,-125,4,2,1,70,0,0
128365,-125,4,2,1,75,0,0
128833,-125,4,2,1,80,0,0
129302,-125,4,2,1,85,0,0
129771,-125,4,2,1,90,0,0
130240,-83.3333333333333,4,2,1,90,0,1
150240,-83.3333333333333,4,2,1,70,0,0
150552,-100,4,2,1,70,0,0
155865,-83.3333333333333,4,2,1,70,0,0
158052,-90.9090909090909,4,2,1,70,0,0
158365,-100,4,2,1,70,0,0
159615,-83.3333333333333,4,2,1,70,0,0
160240,-100,4,2,1,70,0,0
160552,-83.3333333333333,4,2,1,70,0,0
169615,-105.263157894737,4,2,1,70,0,0
179615,-166.666666666667,4,2,1,70,0,0
179625,-166.666666666667,4,2,1,60,0,0
179927,-100,4,2,1,60,0,0
180240,-181.818181818181,4,2,1,60,0,0
182740,-153.846153846153,4,2,1,60,0,0
185240,-125,4,2,1,60,0,0
186490,-133.333333333333,4,2,1,60,0,0
187740,-100,4,2,1,60,0,0
188921,-100,4,2,1,5,0,0
190083,-100,4,2,1,60,0,0
190240,-76.9230769230769,4,2,1,90,0,1
192115,-80,4,2,1,90,0,1
197740,-76.9230769230769,4,2,1,90,0,1
200240,-74.0740740740741,4,2,1,90,0,1
209615,-79.9999999999999,4,2,1,90,0,1
210240,-79.9999999999999,4,2,1,70,0,0
210552,-100,4,2,1,60,0,0
215240,-90.9090909090909,4,2,1,60,0,0
216177,-100,4,2,1,60,0,0
220552,-111.111111111111,4,2,1,60,0,0
220562,-111.111111111111,4,2,1,55,0,0
230552,-100,4,2,1,55,0,0
231177,-111.111111111111,4,2,1,55,0,0
240239,-111.111111111111,4,2,1,5,0,0

[Colours]
Combo1 : 225,225,225
Combo2 : 230,0,34
Combo3 : 64,136,255

[HitObjects]
329,322,225,5,2,0:0:0:0:
329,322,381,2,1,L|422:310,1,75,2|0,0:0|0:0,0:0:0:0:
264,256,693,1,2,0:0:0:0:
264,256,850,2,1,P|236:304|238:344,1,75,2|2,0:0|0:0,0:0:0:0:
197,183,1162,2,1,P|227:162|264:156,1,75,0|2,0:0|0:0,0:0:0:0:
348,61,1475,6,1,P|292:70|240:47,1,101.249996910095,2|0,0:0|0:0,0:0:0:0:
251,55,1787,2,1,L|172:65,1,75,2|2,0:3|0:3,0:0:0:0:
132,134,2100,2,1,L|57:124,1,75,2|2,0:3|0:3,0:0:0:0:
0,222,2412,2,1,L|74:212,1,75,2|2,0:3|0:3,0:0:0:0:
234,322,2725,5,2,0:0:0:0:
234,322,2881,2,1,P|274:313|313:271,1,75,2|0,0:0|0:0,0:0:0:0:
364,201,3193,1,2,0:0:0:0:
364,201,3350,2,1,L|367:125,1,75,2|2,0:0|0:0,0:0:0:0:
457,144,3662,2,1,L|454:220,1,75,0|2,0:0|0:0,0:0:0:0:
437,334,3975,6,1,P|395:312|314:309,1,101.249996910095,2|0,0:0|0:0,0:0:0:0:
342,304,4287,2,1,P|284:290|269:278,1,75,2|2,0:3|0:3,0:0:0:0:
210,346,4600,2,1,P|178:295|176:275,1,75,2|2,0:3|0:3,0:0:0:0:
250,179,4912,2,1,B|229:198|229:198|119:184,1,112.5,2|0,0:0|0:0,0:0:0:0:
145,187,5225,6,1,P|118:152|113:109,2,75,2|2|0,0:0|0:0|0:0,0:0:0:0:
143,39,5693,1,2,0:0:0:0:
143,39,5850,2,1,P|108:32|65:44,2,75,2|2|0,0:0|0:0|0:0,0:0:0:0:
218,97,6318,1,2,0:0:0:0:
356,29,6475,6,1,L|484:20,1,101.249996910095,2|0,0:0|0:0,0:0:0:0:
457,21,6787,2,1,L|474:119,1,75,2|2,0:3|0:3,0:0:0:0:
389,119,7100,2,1,L|406:217,1,75,2|2,0:3|0:3,0:0:0:0:
494,180,7412,2,1,L|511:278,1,75,2|0,0:0|0:0,0:0:0:0:
452,359,7725,5,2,0:0:0:0:
452,359,7881,2,1,P|408:335|354:336,1,75,2|0,0:0|0:0,0:0:0:0:
260,372,8193,1,2,0:0:0:0:
260,372,8350,2,1,P|202:355|183:339,1,75,2|2,0:0|0:0,0:0:0:0:
192,224,8662,2,1,P|250:241|269:257,1,75,0|2,0:0|0:0,0:0:0:0:
101,283,8975,6,1,L|88:176,1,75,2|0,0:0|0:0,0:0:0:0:
111,117,9287,2,1,B|149:136|149:136|214:128,1,75,2|0,0:0|0:0,0:0:0:0:
263,92,9600,2,1,B|335:77|335:77|391:104,1,112.5,2|0,0:0|0:0,0:0:0:0:
378,104,9912,6,1,L|395:226,1,101.249996910095,8|0,3:0|0:0,0:0:0:0:
391,204,10240,5,6,3:2:0:0:
470,152,10396,1,2,0:0:0:0:
414,291,10552,2,1,P|384:291|336:271,1,67.4999979400635,10|10,0:0|0:0,0:0:0:0:
294,360,10865,2,1,P|272:338|252:290,1,67.4999979400635,2|2,0:0|3:2,0:0:0:0:
168,328,11177,2,1,P|168:298|188:250,1,67.4999979400635,10|2,0:0|0:0,0:0:0:0:
235,146,11490,6,1,L|158:152,1,67.4999979400635,2|2,3:2|3:2,0:0:0:0:
287,70,11802,2,1,L|354:75,1,67.4999979400635,10|10,0:0|0:0,0:0:0:0:
364,219,12115,2,1,L|296:213,1,67.4999979400635,2|2,0:0|3:2,0:0:0:0:
214,305,12427,2,1,L|281:299,1,67.4999979400635,10|2,0:0|0:0,0:0:0:0:
142,241,12740,6,1,B|119:280|119:280|133:384,1,134.999995880127,2|10,3:2|0:0,0:0:0:0:
214,305,13208,1,10,0:0:0:0:
32,288,13365,2,1,L|38:355,1,67.4999979400635,2|2,0:0|3:2,0:0:0:0:
57,212,13677,2,1,P|28:208|-18:225,1,67.4999979400635,10|2,0:0|0:0,0:0:0:0:
142,241,13990,5,2,3:2:0:0:
125,163,14146,1,2,3:2:0:0:
223,93,14302,1,10,0:0:0:0:
209,181,14458,1,10,0:0:0:0:
310,234,14615,2,1,L|289:150,1,67.4999979400635,2|2,0:0|3:2,0:0:0:0:
401,88,14927,2,1,L|385:154,1,67.4999979400635,10|2,0:0|0:0,0:0:0:0:
446,226,15240,6,1,P|486:224|514:213,1,67.4999979400635,6|2,3:2|0:0,0:0:0:0:
426,325,15552,2,1,P|456:314|494:312,1,67.4999979400635,10|10,0:0|0:0,0:0:0:0:
342,284,15865,2,1,P|307:286|273:271,1,67.4999979400635,2|2,0:0|3:2,0:0:0:0:
339,383,16177,2,1,P|299:369|270:370,1,67.4999979400635,10|2,0:0|0:0,0:0:0:0:
169,340,16490,5,2,3:2:0:0:
169,340,16646,1,2,3:2:0:0:
95,251,16802,1,10,0:0:0:0:
95,251,16958,1,10,0:0:0:0:
167,157,17115,2,1,P|179:114|169:61,1,67.4999979400635,2|2,0:0|3:2,0:0:0:0:
90,40,17427,2,1,P|78:83|88:136,1,67.4999979400635,10|2,0:0|0:0,0:0:0:0:
189,246,17740,6,1,L|312:222,1,101.249996910095,2|0,3:2|0:0,0:0:0:0:
288,226,18052,1,10,0:0:0:0:
264,316,18208,1,10,0:0:0:0:
380,234,18365,1,2,0:0:0:0:
327,141,18521,1,2,3:2:0:0:
433,63,18677,2,1,L|417:154,1,67.4999979400635,10|2,0:0|0:0,0:0:0:0:
214,63,18990,5,2,3:2:0:0:
319,48,19146,1,2,3:2:0:0:
237,154,19302,1,10,0:0:0:0:
145,129,19458,1,10,0:0:0:0:
123,298,19615,6,1,P|150:232|150:184,1,101.249996910095,2|0,0:0|0:0,0:0:0:0:
152,203,19927,2,1,B|144:128,1,75,10|0,0:0|0:0,0:0:0:0:
129,18,20240,5,6,3:2:0:0:
370,187,20552,2,1,L|463:171,2,75,2|2|2,1:2|1:2|0:0,0:0:0:0:
301,262,21021,1,2,3:2:0:0:
301,262,21177,2,1,L|197:244,1,75,10|0,0:0|0:0,0:0:0:0:
124,83,21490,6,1,B|166:123|169:175|169:175|133:231,1,150,2|2,3:2|1:2,0:0:0:0:
109,296,21958,1,2,1:2:0:0:
247,379,22115,2,1,B|205:339|202:287|202:287|238:231,1,150,2|10,0:0|0:0,0:0:0:0:
303,183,22583,1,2,0:0:0:0:
401,285,22740,6,1,P|454:282|466:178,1,150,2|0,3:2|1:0,0:0:0:0:
387,135,23208,1,2,1:2:0:0:
485,84,23365,2,1,B|449:111|449:111|324:97,1,150,2|8,0:0|0:0,0:0:0:0:
270,41,23833,1,2,0:0:0:0:
210,164,23990,6,1,L|42:179,1,150,2|0,3:2|1:0,0:0:0:0:
4,244,24458,1,2,1:2:0:0:
65,305,24615,2,1,P|63:342|46:374,1,75,2|0,0:0|3:0,0:0:0:0:
163,315,24927,2,1,P|164:277|181:245,1,75,8|2,0:0|0:0,0:0:0:0:
398,322,25240,6,1,B|351:314|351:314|309:322|309:322|230:301,1,150,2|0,3:2|1:0,0:0:0:0:
401,232,25708,2,1,L|484:246,1,75,0|0,1:0|0:0,0:0:0:0:
334,161,26021,1,0,3:0:0:0:
334,161,26177,2,1,P|306:201|305:240,1,75,8|0,0:0|0:0,0:0:0:0:
423,145,26490,6,1,L|414:40,1,75,0|0,3:0|0:0,0:0:0:0:
347,21,26802,1,0,1:0:0:0:
268,70,26958,1,2,1:2:0:0:
268,70,27115,2,1,P|226:79|189:75,1,75,0|2,0:0|3:2,0:0:0:0:
118,30,27427,2,1,P|76:20|39:24,1,75,10|2,0:0|0:0,0:0:0:0:
23,177,27740,6,1,B|54:214|54:214|72:98,1,150,2|0,3:2|1:0,0:0:0:0:
150,173,28208,2,1,L|137:279,1,75,0|0,1:0|0:0,0:0:0:0:
212,301,28521,1,0,3:0:0:0:
212,301,28677,2,1,P|249:288|298:286,1,75,8|0,0:0|0:0,0:0:0:0:
406,384,28990,6,1,P|369:291|405:241,1,150,0|0,3:0|1:0,0:0:0:0:
472,193,29458,1,0,1:0:0:0:
391,94,29615,2,1,L|382:185,1,75,0|0,0:0|3:0,0:0:0:0:
283,149,29927,2,1,L|293:235,1,75,8|0,0:0|0:0,0:0:0:0:
224,322,30240,6,1,P|165:299|111:310,1,112.5,6|0,3:2|0:0,0:0:0:0:
117,306,30552,2,1,P|73:278|63:250,1,75,2|2,1:2|1:2,0:0:0:0:
12,181,30865,2,1,P|56:152|66:124,1,75,2|0,0:0|3:0,0:0:0:0:
142,47,31177,2,1,L|159:149,1,75,10|0,0:0|0:0,0:0:0:0:
340,196,31490,6,1,L|357:58,1,112.5,2|0,3:2|0:0,0:0:0:0:
354,85,31802,1,2,1:2:0:0:
259,128,31958,1,2,1:2:0:0:
431,154,32115,2,1,L|442:246,1,75,2|0,0:0|0:0,0:0:0:0:
363,281,32427,2,1,L|354:355,1,75,10|2,0:0|0:0,0:0:0:0:
140,299,32740,6,1,P|210:313|263:264,1,150,2|0,3:2|1:0,0:0:0:0:
193,162,33208,1,2,1:2:0:0:
193,162,33365,2,1,B|175:190|175:190|188:244,1,75,2|0,0:0|3:0,0:0:0:0:
98,136,33677,2,1,B|116:108|116:108|103:54,1,75,8|2,0:0|0:0,0:0:0:0:
265,96,33990,6,1,P|306:121|400:100,1,150,2|0,3:2|1:0,0:0:0:0:
473,31,34458,1,2,1:2:0:0:
435,185,34615,1,2,0:0:0:0:
435,185,34771,1,2,3:2:0:0:
332,161,34927,2,1,L|350:263,1,75,10|2,0:0|0:0,0:0:0:0:
463,334,35240,6,1,B|415:312|415:312|307:337,1,150,2|0,3:2|1:0,0:0:0:0:
230,377,35708,2,1,L|136:364,1,75,0|0,1:0|0:0,0:0:0:0:
100,282,36021,1,0,3:0:0:0:
100,282,36177,2,1,L|194:269,1,75,8|0,0:0|0:0,0:0:0:0:
148,118,36490,6,1,P|123:159|125:217,1,75,0|0,3:0|0:0,0:0:0:0:
235,100,36802,1,0,1:0:0:0:
186,26,36958,1,2,1:2:0:0:
186,26,37115,2,1,L|92:33,1,75,2|2,0:0|3:2,0:0:0:0:
73,123,37427,2,1,L|147:117,1,75,8|2,0:0|0:0,0:0:0:0:
293,205,37740,6,1,P|268:167|316:70,1,150,2|2,3:2|1:2,0:0:0:0:
425,136,38208,1,2,1:2:0:0:
425,136,38365,2,1,L|348:147,1,75,2|2,0:0|3:2,0:0:0:0:
438,230,38677,2,1,L|515:241,1,75,10|2,0:0|0:0,0:0:0:0:
399,366,38990,6,1,P|387:330|388:293,1,75,2|0,1:2|1:0,0:0:0:0:
293,205,39302,2,1,P|304:240|303:277,1,75,8|2,3:0|1:2,0:0:0:0:
303,277,39536,1,0,1:0:0:0:
303,277,39615,2,1,L|197:268,1,75,10|8,0:0|3:0,0:0:0:0:
169,164,39927,2,1,L|63:173,1,75,2|2,3:2|3:2,0:0:0:0:
21,228,40240,5,6,3:2:0:0:
205,61,41646,5,2,0:0:0:0:
205,61,41802,2,1,L|212:120,1,60,2|2,3:0|0:0,0:0:0:0:
287,66,42115,2,1,L|294:125,1,60,2|2,3:0|0:0,0:0:0:0:
370,69,42427,2,1,L|377:128,1,60,2|2,3:0|0:0,0:0:0:0:
388,215,42740,5,2,3:0:0:0:
318,357,44146,5,2,0:0:0:0:
318,357,44302,2,1,L|310:297,1,60,2|0,3:0|0:0,0:0:0:0:
236,352,44615,2,1,L|228:292,1,60,2|2,3:0|0:0,0:0:0:0:
153,349,44927,2,1,L|145:289,1,60,2|2,3:0|0:0,0:0:0:0:
73,189,45240,6,1,P|123:209|148:206,1,60,2|0,3:0|0:0,0:0:0:0:
217,177,45552,2,1,P|199:152|192:123,1,60,2|0,3:0|0:0,0:0:0:0:
301,61,45865,2,1,P|281:111|284:136,1,60,2|0,3:0|0:0,0:0:0:0:
328,194,46177,1,2,3:0:0:0:
328,194,46333,1,2,0:0:0:0:
434,130,46490,6,1,L|363:117,1,60,2|0,3:0|0:0,0:0:0:0:
402,233,46802,2,1,L|461:243,1,60,2|2,3:0|0:0,0:0:0:0:
330,325,47115,2,1,L|257:337,1,60,2|0,3:0|0:0,0:0:0:0:
190,367,47427,1,2,3:0:0:0:
190,367,47583,1,2,0:0:0:0:
114,298,47740,6,1,P|96:265|98:222,2,60,2|2|2,3:0|0:0|3:0,0:0:0:0:
147,189,48208,2,1,L|11:200,1,120,2|0,0:0|0:0,0:0:0:0:
54,115,48677,2,1,L|123:110,1,60,2|0,3:0|0:0,0:0:0:0:
257,49,48990,5,2,3:0:0:0:
257,49,49146,1,0,0:0:0:0:
326,100,49302,2,1,P|327:129|320:158,1,60,2|0,3:0|0:0,0:0:0:0:
241,208,49615,2,1,P|239:237|246:266,1,60,2|0,3:0|1:0,0:0:0:0:
333,341,49927,2,1,L|378:345,3,30,0|0|8|8,1:0|1:0|0:0|0:0,0:0:0:0:
324,353,50240,6,1,L|192:362,4,120,4|0|0|0|0,3:2|3:0|3:0|3:0|3:0,0:0:0:0:
419,302,51646,1,2,0:0:0:0:
419,302,51802,2,1,P|431:263|424:224,1,60,2|2,3:2|0:0,0:0:0:0:
347,223,52115,2,1,P|335:184|342:145,1,60,0|2,3:0|0:0,0:0:0:0:
393,100,52427,2,1,P|365:129|327:143,1,60,2|2,3:2|0:0,0:0:0:0:
192,51,52740,6,1,L|311:59,4,120,2|0|0|0|0,3:2|3:0|3:0|3:0|3:0,0:0:0:0:
112,97,54146,1,2,0:0:0:0:
112,97,54302,2,1,P|110:126|116:159,1,60,2|0,3:2|0:0,0:0:0:0:
38,195,54615,2,1,P|57:217|84:236,1,60,2|2,3:2|0:0,0:0:0:0:
61,318,54927,1,2,3:2:0:0:
61,318,55083,1,2,0:0:0:0:
203,276,55240,6,1,L|287:269,1,60,6|0,3:2|0:0,0:0:0:0:
254,360,55552,2,1,L|338:353,1,60,2|0,3:2|0:0,0:0:0:0:
404,284,55865,2,1,L|344:279,1,60,2|0,3:2|0:0,0:0:0:0:
455,200,56177,2,1,L|395:195,1,60,2|2,3:2|0:0,0:0:0:0:
396,59,56490,6,1,P|416:83|428:131,1,60,2|0,3:2|0:0,0:0:0:0:
271,144,56802,1,2,3:2:0:0:
271,144,56958,2,1,B|246:128|246:128|346:116,1,120,2|0,0:0|0:0,0:0:0:0:
282,39,57427,1,6,3:2:0:0:
282,39,57583,1,2,0:0:0:0:
196,200,57740,5,10,0:0:0:0:
114,172,57896,1,8,0:0:0:0:
229,273,58208,5,10,0:0:0:0:
344,251,58365,1,10,0:0:0:0:
200,349,58677,5,10,0:0:0:0:
114,172,58833,1,10,0:0:0:0:
277,379,59146,5,8,0:0:0:0:
344,136,59302,1,10,0:0:0:0:
112,275,59615,5,2,3:2:0:0:
112,275,60240,6,1,P|167:252|236:257,1,89.9999972534181,6|0,3:2|0:0,0:0:0:0:
212,127,60552,2,1,P|267:149|312:201,1,89.9999972534181,8|2,0:0|3:2,0:0:0:0:
415,289,60865,2,1,L|420:98,1,179.999994506836,10|8,0:0|0:0,0:0:0:0:
455,30,61333,1,2,3:2:0:0:
333,87,61490,5,10,0:0:0:0:
265,14,61646,1,2,3:2:0:0:
249,160,61802,1,10,0:0:0:0:
181,88,61958,1,2,3:2:0:0:
181,88,62036,1,0,0:0:0:0:
181,88,62115,2,1,P|130:72|81:73,1,89.9999972534181,10|0,0:0|3:0,0:0:0:0:
53,219,62427,2,1,P|86:188|126:169,1,89.9999972534181,10|2,0:0|3:2,0:0:0:0:
265,266,62740,6,1,L|276:361,1,89.9999972534181,10|0,0:0|3:0,0:0:0:0:
169,254,63052,1,10,0:0:0:0:
169,254,63208,1,2,3:2:0:0:
330,195,63365,2,1,P|354:145|354:110,1,89.9999972534181,10|0,0:0|3:0,0:0:0:0:
462,97,63677,2,1,P|443:44|418:19,1,89.9999972534181,10|0,0:0|3:0,0:0:0:0:
317,22,63990,5,10,0:0:0:0:
354,111,64146,1,2,3:2:0:0:
212,28,64302,1,10,0:0:0:0:
253,105,64458,1,2,3:2:0:0:
73,89,64615,6,1,L|177:104,1,89.9999972534181,10|0,0:0|3:0,0:0:0:0:
156,292,64927,2,1,L|66:304,1,89.9999972534181,8|0,0:0|0:0,0:0:0:0:
223,230,65240,6,1,P|250:276|208:359,1,134.999995880127,6|0,3:2|0:0,0:0:0:0:
223,348,65552,2,1,L|341:332,1,89.9999972534181,10|2,0:0|3:2,0:0:0:0:
411,208,65865,1,10,0:0:0:0:
395,299,66021,1,2,3:2:0:0:
303,159,66177,1,10,0:0:0:0:
319,250,66333,1,2,3:2:0:0:
370,83,66490,6,1,P|310:50|248:71,1,134.999995880127,10|0,0:0|0:0,0:0:0:0:
249,69,66802,2,1,P|190:94|150:84,1,89.9999972534181,8|2,0:0|3:2,0:0:0:0:
166,90,67036,1,0,0:0:0:0:
166,90,67115,1,10,0:0:0:0:
96,35,67271,1,2,3:2:0:0:
0,150,67427,1,10,0:0:0:0:
81,123,67583,1,2,3:2:0:0:
48,263,67740,6,1,L|34:357,1,89.9999972534181,10|0,0:0|3:0,0:0:0:0:
230,242,68052,1,10,0:0:0:0:
144,216,68208,1,2,3:2:0:0:
242,332,68365,1,10,0:0:0:0:
331,277,68521,1,2,3:2:0:0:
445,295,68677,2,1,L|458:384,1,89.9999972534181,10|2,0:0|3:2,0:0:0:0:
510,214,68990,6,1,P|467:191|391:194,1,89.9999972534181,10|0,0:0|3:0,0:0:0:0:
415,65,69302,2,1,P|368:79|316:135,1,89.9999972534181,10|0,0:0|3:0,0:0:0:0:
295,201,69615,1,14,0:0:0:0:
185,192,69771,1,0,1:0:0:0:
185,192,69849,1,0,1:0:0:0:
185,192,69927,1,10,0:0:0:0:
157,157,70005,1,8,0:0:0:0:
153,112,70083,1,8,3:0:0:0:
173,73,70161,1,0,3:0:0:0:
203,49,70240,6,1,L|184:147,1,89.9999972534181,6|0,3:2|0:0,0:0:0:0:
237,273,70552,1,10,0:0:0:0:
332,238,70708,1,2,3:2:0:0:
332,238,70865,2,1,P|397:217|430:221,1,89.9999972534181,10|2,0:0|3:2,0:0:0:0:
344,383,71177,2,1,P|299:381|258:363,1,89.9999972534181,10|2,0:0|3:2,0:0:0:0:
162,223,71490,5,10,0:0:0:0:
117,356,71646,1,2,3:2:0:0:
79,174,71802,1,10,0:0:0:0:
190,311,71958,1,2,3:2:0:0:
190,311,72036,1,0,0:0:0:0:
190,311,72115,2,1,L|278:292,1,89.9999972534181,10|0,0:0|3:0,0:0:0:0:
235,115,72427,2,1,L|147:134,1,89.9999972534181,8|2,0:0|3:2,0:0:0:0:
300,194,72740,6,1,P|343:115|303:34,1,179.999994506836,10|10,0:0|0:0,0:0:0:0:
235,115,73208,1,0,3:0:0:0:
376,90,73365,2,1,L|474:72,1,89.9999972534181,10|0,0:0|3:0,0:0:0:0:
512,190,73677,2,1,L|423:173,1,89.9999972534181,10|0,0:0|3:0,0:0:0:0:
343,288,73990,5,10,0:0:0:0:
432,260,74146,1,2,3:2:0:0:
285,226,74302,1,10,0:0:0:0:
293,359,74458,1,2,3:2:0:0:
293,359,74536,1,0,0:0:0:0:
293,359,74615,1,10,0:0:0:0:
343,288,74771,1,0,3:0:0:0:
198,262,74927,2,1,L|95:243,1,89.9999972534181,8|0,0:0|3:0,0:0:0:0:
3,146,75240,6,1,B|45:168|45:168|196:146,1,179.999994506836,6|10,3:2|0:0,0:0:0:0:
333,62,75708,1,2,3:2:0:0:
358,152,75865,1,10,0:0:0:0:
259,118,76021,1,2,3:2:0:0:
198,262,76177,1,10,0:0:0:0:
283,211,76333,1,2,3:2:0:0:
380,310,76490,6,1,P|462:248|457:178,1,179.999994506836,10|10,0:0|0:0,0:0:0:0:
240,345,76958,1,2,3:2:0:0:
240,345,77115,2,1,P|186:354|135:329,1,89.9999972534181,10|2,0:0|3:2,0:0:0:0:
283,211,77427,2,1,P|337:202|388:227,1,89.9999972534181,10|2,0:0|3:2,0:0:0:0:
198,262,77740,6,1,L|179:138,1,89.9999972534181,10|0,0:0|3:0,0:0:0:0:
274,0,78052,2,1,L|274:90,1,89.9999972534181,10|0,0:0|3:0,0:0:0:0:
369,213,78365,2,1,L|382:124,1,89.9999972534181,10|0,0:0|3:0,0:0:0:0:
264,311,78677,1,10,0:0:0:0:
264,311,78833,1,2,3:2:0:0:
148,328,78990,5,8,3:0:0:0:
362,293,79146,1,0,3:0:0:0:
195,218,79302,1,0,3:0:0:0:
287,204,79458,1,8,0:0:0:0:
233,135,79615,6,1,L|221:44,1,89.9999972534181,8|0,0:0|3:0,0:0:0:0:
221,45,79849,1,0,3:0:0:0:
221,45,79927,2,1,P|158:27|64:58,1,134.999995880127,12|0,0:0|0:0,0:0:0:0:
91,40,80240,5,4,3:2:0:0:
324,324,90240,6,1,P|378:295|388:239,1,112.5,6|0,3:2|0:0,0:0:0:0:
390,249,90552,2,1,L|370:157,1,75,2|2,1:2|1:2,0:0:0:0:
463,197,90865,2,1,L|443:108,1,75,2|0,0:0|3:0,0:0:0:0:
385,70,91177,2,1,P|342:98|309:98,1,75,10|0,0:0|0:0,0:0:0:0:
172,25,91490,6,1,L|334:12,1,150,2|2,3:2|1:2,0:0:0:0:
205,121,91958,1,2,1:2:0:0:
205,121,92115,2,1,L|43:108,1,150,2|10,0:0|0:0,0:0:0:0:
109,243,92583,5,2,0:0:0:0:
109,243,92740,2,1,P|136:309|97:386,1,150,2|0,3:2|1:0,0:0:0:0:
46,311,93208,1,2,1:2:0:0:
167,296,93365,2,1,B|224:289|224:289|314:323,1,150,2|8,0:0|0:0,0:0:0:0:
394,352,93833,1,2,0:0:0:0:
489,219,93990,6,1,P|405:268|354:244,1,150,2|0,3:2|1:0,0:0:0:0:
407,110,94458,1,2,1:2:0:0:
407,110,94615,2,1,B|417:127|417:127|411:199,1,75,2|2,0:0|3:2,0:0:0:0:
287,165,94927,2,1,B|276:147|276:147|283:76,1,75,8|2,0:0|0:0,0:0:0:0:
154,47,95240,6,1,L|174:206,1,150,2|0,3:2|1:0,0:0:0:0:
230,297,95708,2,1,P|194:286|156:288,1,75,0|0,1:0|0:0,0:0:0:0:
23,238,96021,1,0,3:0:0:0:
23,238,96177,2,1,P|60:240|96:229,1,75,8|0,0:0|0:0,0:0:0:0:
212,156,96490,6,1,L|317:168,1,75,0|0,3:0|0:0,0:0:0:0:
299,55,96802,2,1,L|404:67,1,75,0|2,1:0|1:2,0:0:0:0:
410,150,97115,2,1,B|386:183|386:183|405:265,1,112.5,2|0,0:0|0:0,0:0:0:0:
402,252,97427,2,1,L|428:350,1,75,10|2,0:0|0:0,0:0:0:0:
320,383,97740,6,1,P|268:337|193:353,1,150,2|0,3:2|1:0,0:0:0:0:
95,383,98208,2,1,L|104:308,1,75,0|0,1:0|0:0,0:0:0:0:
200,253,98521,1,0,3:0:0:0:
200,253,98677,2,1,L|190:178,1,75,8|0,0:0|0:0,0:0:0:0:
128,77,98990,6,1,P|140:112|258:101,1,150,0|0,3:0|1:0,0:0:0:0:
328,67,99458,1,0,0:0:0:0:
328,67,99536,1,0,1:0:0:0:
328,67,99615,2,1,L|410:81,1,75,8|0,0:0|3:0,0:0:0:0:
371,182,99927,2,1,L|289:196,1,75,8|0,0:0|0:0,0:0:0:0:
173,309,100240,6,1,P|121:300|94:234,1,112.5,6|0,3:2|0:0,0:0:0:0:
92,251,100552,2,1,L|87:164,1,75,2|2,1:2|1:2,0:0:0:0:
187,194,100865,2,1,L|182:107,1,75,2|2,0:0|3:2,0:0:0:0:
29,57,101177,2,1,P|73:84|123:87,1,75,10|0,0:0|0:0,0:0:0:0:
316,25,101490,6,1,L|152:36,1,150,2|2,3:2|1:2,0:0:0:0:
340,116,101958,1,2,1:2:0:0:
340,116,102115,2,1,L|414:126,1,75,2|0,0:0|3:0,0:0:0:0:
281,197,102427,2,1,L|206:186,1,75,10|2,0:0|0:0,0:0:0:0:
22,284,102740,6,1,P|92:298|145:249,1,150,2|0,3:2|1:0,0:0:0:0:
57,142,103208,1,2,1:2:0:0:
57,142,103365,2,1,P|56:181|73:223,1,75,2|0,0:0|3:0,0:0:0:0:
155,302,103677,2,1,L|239:287,1,75,8|2,0:0|0:0,0:0:0:0:
346,383,103990,6,1,B|321:343|321:343|354:212,1,150,2|0,3:2|1:0,0:0:0:0:
386,148,104458,1,2,1:2:0:0:
451,221,104615,1,2,0:0:0:0:
451,221,104771,1,2,3:2:0:0:
509,98,104927,2,1,L|495:24,1,75,10|2,0:0|0:0,0:0:0:0:
495,24,105161,1,8,3:0:0:0:
495,24,105240,6,1,P|435:56|339:27,1,150,2|0,3:2|1:0,0:0:0:0:
284,96,105708,2,1,P|248:81|190:83,1,75,0|0,1:0|0:0,0:0:0:0:
151,188,106021,1,0,3:0:0:0:
151,188,106177,2,1,P|188:185|222:170,1,75,8|0,0:0|0:0,0:0:0:0:
71,132,106490,6,1,L|48:232,1,75,0|0,3:0|0:0,0:0:0:0:
80,291,106802,1,0,1:0:0:0:
182,281,106958,1,2,1:2:0:0:
182,281,107115,2,1,P|218:270|276:274,1,75,2|0,0:0|0:0,0:0:0:0:
284,168,107427,2,1,P|317:185|355:229,1,75,8|2,0:0|0:0,0:0:0:0:
433,281,107740,6,1,L|446:103,1,150,2|2,3:2|1:2,0:0:0:0:
345,25,108208,1,2,1:2:0:0:
345,25,108365,2,1,L|363:111,1,75,2|2,0:0|3:2,0:0:0:0:
268,94,108677,2,1,L|286:180,1,75,10|2,0:0|0:0,0:0:0:0:
230,246,108990,6,1,P|194:258|157:257,1,75,2|0,1:2|1:0,0:0:0:0:
157,257,109224,1,8,0:0:0:0:
157,257,109302,2,1,P|123:240|97:213,1,75,8|2,3:0|1:2,0:0:0:0:
97,213,109536,1,0,1:0:0:0:
97,213,109615,2,1,L|106:107,1,75,10|8,0:0|3:0,0:0:0:0:
103,138,109849,1,0,0:0:0:0:
103,138,109927,2,1,L|94:32,1,75,2|2,3:2|3:2,0:0:0:0:
38,0,110240,5,6,3:2:0:0:
269,292,111646,5,2,0:0:0:0:
269,292,111802,2,1,P|299:300|341:292,1,60,2|2,3:0|0:0,0:0:0:0:
354,371,112115,2,1,P|380:355|404:320,1,60,2|2,3:0|0:0,0:0:0:0:
485,353,112427,2,1,L|478:294,1,60,2|2,3:0|0:0,0:0:0:0:
463,214,112740,5,2,3:0:0:0:
247,79,114146,5,2,0:0:0:0:
247,79,114302,2,1,P|217:71|175:79,1,60,2|2,3:0|0:0,0:0:0:0:
162,0,114615,2,1,P|135:15|111:50,1,60,2|2,3:0|0:0,0:0:0:0:
72,108,114927,2,1,L|79:167,1,60,2|2,3:0|0:0,0:0:0:0:
56,252,115240,6,1,P|92:254|136:234,1,60,2|0,3:0|0:0,0:0:0:0:
210,220,115552,2,1,L|194:300,1,60,2|0,3:0|0:0,0:0:0:0:
303,205,115865,2,1,L|287:285,1,60,2|0,3:0|0:0,0:0:0:0:
344,340,116177,1,2,3:0:0:0:
344,340,116333,1,2,0:0:0:0:
400,200,116490,6,1,P|396:164|380:130,1,60,2|0,3:0|0:0,0:0:0:0:
456,88,116802,2,1,P|427:65|392:52,1,60,2|2,3:0|0:0,0:0:0:0:
310,97,117115,2,1,P|288:116|261:129,1,60,2|0,3:0|0:0,0:0:0:0:
183,81,117427,1,2,3:0:0:0:
183,81,117583,1,2,0:0:0:0:
107,203,117740,6,1,L|93:261,2,60,2|2|2,3:0|0:0|3:0,0:0:0:0:
235,260,118208,2,1,L|252:405,1,120,2|0,0:0|0:0,0:0:0:0:
332,313,118677,2,1,P|363:304|399:304,1,60,2|0,3:0|0:0,0:0:0:0:
406,198,118990,5,2,3:0:0:0:
406,198,119146,2,1,P|368:217|296:194,1,120,8|0,0:0|0:0,0:0:0:0:
251,105,119615,1,2,3:0:0:0:
251,105,119771,1,12,0:0:0:0:
191,182,119927,2,1,L|184:236,3,30,0|8|8|8,3:0|0:0|0:0|0:0,0:0:0:0:
176,236,120240,6,1,P|133:223|63:259,4,120,4|0|0|0|0,3:2|3:0|3:0|3:0|3:0,0:0:0:0:
236,304,121646,1,2,0:0:0:0:
236,304,121802,2,1,L|295:293,1,60,2|2,3:2|0:0,0:0:0:0:
319,199,122115,2,1,L|378:188,1,60,2|2,3:2|0:0,0:0:0:0:
441,109,122427,2,1,P|403:90|379:88,1,60,2|2,3:2|0:0,0:0:0:0:
247,129,122740,6,1,P|204:142|134:106,4,120,2|0|0|0|0,3:2|3:0|3:0|3:0|3:0,0:0:0:0:
177,29,124146,1,2,0:0:0:0:
177,29,124302,2,1,L|109:22,1,60,2|2,3:2|0:0,0:0:0:0:
78,118,124615,2,1,L|146:111,1,60,2|2,3:2|0:0,0:0:0:0:
34,199,124927,1,2,3:2:0:0:
34,199,125083,1,2,0:0:0:0:
60,293,125240,6,1,P|96:303|140:294,1,60,6|0,3:2|0:0,0:0:0:0:
175,361,125552,2,1,L|259:354,1,60,2|0,3:2|0:0,0:0:0:0:
358,279,125865,2,1,P|322:289|278:280,1,60,2|0,3:2|0:0,0:0:0:0:
253,214,126177,1,2,3:2:0:0:
253,214,126333,1,2,0:0:0:0:
401,166,126490,6,1,L|406:106,1,60,2|0,3:2|0:0,0:0:0:0:
323,48,126802,1,2,3:2:0:0:
323,48,126958,1,2,0:0:0:0:
227,114,127115,2,1,L|221:54,1,60,2|0,3:2|0:0,0:0:0:0:
117,16,127427,1,6,3:2:0:0:
117,16,127583,1,2,0:0:0:0:
43,82,127740,5,10,0:0:0:0:
96,223,127896,1,8,0:0:0:0:
137,130,128208,5,10,0:0:0:0:
110,308,128365,1,10,0:0:0:0:
188,234,128677,5,10,0:0:0:0:
374,197,128833,1,10,0:0:0:0:
292,271,129146,5,8,0:0:0:0:
87,206,129302,1,10,0:0:0:0:
213,346,129615,5,2,3:2:0:0:
213,346,130240,6,1,P|168:290|52:333,1,179.999994506836,6|8,3:2|0:0,0:0:0:0:
0,223,130708,1,2,3:2:0:0:
109,106,130865,2,1,P|93:167|84:216,1,89.9999972534181,10|2,0:0|3:2,0:0:0:0:
9,59,131177,1,8,0:0:0:0:
92,4,131333,1,2,3:2:0:0:
209,86,131490,6,1,B|285:102|264:51|342:64,1,134.999995880127,10|0,0:0|0:0,0:0:0:0:
337,63,131802,1,10,0:0:0:0:
412,139,131958,1,2,3:2:0:0:
412,139,132036,1,0,0:0:0:0:
412,139,132115,2,1,L|402:242,1,89.9999972534181,10|0,0:0|3:0,0:0:0:0:
474,326,132427,1,10,0:0:0:0:
474,326,132583,1,2,3:2:0:0:
299,256,132740,6,1,B|217:263|217:263|206:272|206:272|108:280,1,179.999994506836,10|10,0:0|0:0,0:0:0:0:
182,169,133208,1,2,3:2:0:0:
123,371,133365,2,1,L|33:363,1,89.9999972534181,10|0,0:0|3:0,0:0:0:0:
33,363,133599,1,0,0:0:0:0:
33,363,133677,2,1,L|25:273,1,89.9999972534181,10|0,0:0|3:0,0:0:0:0:
92,57,133990,5,10,0:0:0:0:
15,181,134146,1,2,3:2:0:0:
7,91,134302,1,10,0:0:0:0:
103,201,134458,1,2,3:2:0:0:
103,201,134536,1,0,0:0:0:0:
103,201,134615,2,1,L|214:191,1,89.9999972534181,10|0,0:0|3:0,0:0:0:0:
276,105,134927,2,1,L|365:112,1,89.9999972534181,8|0,0:0|3:0,0:0:0:0:
512,272,135240,6,1,P|472:300|388:272,1,134.999995880127,6|0,3:2|0:0,0:0:0:0:
393,279,135552,2,1,P|376:223|387:187,1,89.9999972534181,10|2,0:0|3:2,0:0:0:0:
494,88,135865,1,10,0:0:0:0:
468,169,136021,1,2,3:2:0:0:
381,8,136177,1,10,0:0:0:0:
405,99,136333,1,2,3:2:0:0:
228,11,136490,6,1,B|130:-10|158:59|52:46,2,179.999994506836,10|8|10,0:0|0:0|0:0,0:0:0:0:
319,106,137271,1,2,3:2:0:0:
319,106,137349,1,0,0:0:0:0:
319,106,137427,1,10,0:0:0:0:
381,8,137583,1,2,3:2:0:0:
218,98,137740,6,1,P|231:167|245:247,1,134.999995880127,10|0,0:0|0:0,0:0:0:0:
242,230,138052,2,1,P|228:292|216:348,1,89.9999972534181,10|2,0:0|3:2,0:0:0:0:
137,373,138365,2,1,P|123:321|109:268,1,89.9999972534181,10|2,0:0|3:2,0:0:0:0:
333,296,138677,2,1,P|321:339|310:382,1,89.9999972534181,10|2,0:0|3:2,0:0:0:0:
410,203,138990,5,10,0:0:0:0:
465,293,139146,1,0,3:0:0:0:
466,137,139302,2,1,P|412:110|331:159,1,134.999995880127,10|0,0:0|0:0,0:0:0:0:
346,135,139615,2,1,P|326:157|304:166,3,44.999998626709,14|8|8|8,0:0|0:0|0:0|0:0,0:0:0:0:
245,126,139927,5,10,0:0:0:0:
224,117,140005,1,8,0:0:0:0:
201,112,140083,1,8,3:0:0:0:
178,112,140161,1,0,3:0:0:0:
156,118,140240,2,1,P|107:137|109:23,1,179.999994506836,6|10,3:2|0:0,0:0:0:0:
163,26,140708,5,2,3:2:0:0:
194,197,140865,2,1,P|180:251|169:304,1,89.9999972534181,10|2,0:0|3:2,0:0:0:0:
78,380,141177,2,1,P|67:311|50:212,1,134.999995880127,10|0,0:0|0:0,0:0:0:0:
56,246,141490,5,10,0:0:0:0:
172,358,141646,1,2,3:2:0:0:
255,274,141802,1,10,0:0:0:0:
313,338,141958,1,2,3:2:0:0:
313,338,142036,1,0,0:0:0:0:
313,338,142115,2,1,P|360:344|408:353,1,89.9999972534181,10|0,0:0|3:0,0:0:0:0:
476,291,142427,1,8,0:0:0:0:
476,291,142583,1,2,3:2:0:0:
416,208,142740,6,1,L|424:108,1,89.9999972534181,10|0,0:0|3:0,0:0:0:0:
320,29,143052,2,1,L|327:118,1,89.9999972534181,10|2,0:0|3:2,0:0:0:0:
254,214,143365,1,10,0:0:0:0:
168,167,143521,1,0,3:0:0:0:
168,167,143599,1,0,0:0:0:0:
168,167,143677,2,1,L|176:67,1,89.9999972534181,10|0,0:0|3:0,0:0:0:0:
75,81,143990,5,10,0:0:0:0:
232,8,144146,1,2,3:2:0:0:
175,77,144302,1,10,0:0:0:0:
123,5,144458,1,2,3:2:0:0:
33,158,144615,2,1,L|40:247,1,89.9999972534181,10|0,0:0|3:0,0:0:0:0:
40,247,144849,1,0,0:0:0:0:
40,247,144927,2,1,L|49:354,1,89.9999972534181,8|0,0:0|0:0,0:0:0:0:
213,371,145240,6,1,P|226:306|283:275,1,134.999995880127,6|0,3:2|0:0,0:0:0:0:
282,275,145552,2,1,P|325:282|357:313,1,89.9999972534181,10|2,0:0|3:2,0:0:0:0:
493,293,145865,1,10,0:0:0:0:
417,243,146021,1,2,3:2:0:0:
512,147,146177,1,10,0:0:0:0:
409,156,146333,1,2,3:2:0:0:
495,24,146490,6,1,P|444:38|341:73,1,134.999995880127,10|0,0:0|0:0,0:0:0:0:
366,63,146802,1,10,0:0:0:0:
271,15,146958,1,2,3:2:0:0:
271,15,147036,1,0,0:0:0:0:
271,15,147115,2,1,P|242:62|224:122,1,89.9999972534181,10|2,0:0|3:2,0:0:0:0:
117,82,147427,2,1,P|119:127|130:171,1,89.9999972534181,10|2,0:0|3:2,0:0:0:0:
0,286,147740,6,1,P|55:261|129:367,2,179.999994506836,10|10|10,0:0|0:0|0:0,0:0:0:0:
48,365,148521,1,0,3:0:0:0:
211,295,148677,2,1,P|263:286|330:281,1,89.9999972534181,10|2,0:0|3:2,0:0:0:0:
410,356,148990,5,8,3:0:0:0:
499,289,149146,1,0,3:0:0:0:
361,186,149302,1,0,3:0:0:0:
406,273,149458,1,8,0:0:0:0:
483,59,149615,1,8,0:0:0:0:
509,140,149771,1,0,3:0:0:0:
509,140,149849,1,0,3:0:0:0:
509,140,149927,2,1,P|463:145|419:120,1,89.9999972534181,12|0,0:0|0:0,0:0:0:0:
374,34,150240,5,4,3:2:0:0:
246,191,150552,6,1,P|184:147|108:175,1,150,8|2,0:0|3:2,0:0:0:0:
171,233,151021,1,2,3:2:0:0:
99,306,151177,2,1,P|91:278|81:252,1,37.5,10|2,0:0|0:0,0:0:0:0:
20,232,151333,2,1,P|36:170|51:93,1,112.5,2|0,3:2|0:0,0:0:0:0:
48,93,151646,2,1,P|33:78|13:74,1,37.5,2|2,3:2|0:0,0:0:0:0:
109,10,151802,2,1,P|115:34|105:58,1,37.5,10|2,0:0|0:0,0:0:0:0:
176,98,151958,2,1,B|252:114|242:44|315:59,1,150,2|2,0:0|3:2,0:0:0:0:
433,132,152427,1,8,0:0:0:0:
411,21,152583,2,1,P|400:48|392:85,1,37.5,2|2,0:0|0:0,0:0:0:0:
356,190,152740,5,2,3:2:0:0:
452,225,152896,1,2,0:0:0:0:
326,272,153052,6,1,L|276:278,1,37.5,10|2,0:0|0:0,0:0:0:0:
214,286,153208,1,2,0:0:0:0:
388,341,153365,5,2,3:2:0:0:
354,176,153521,1,2,3:2:0:0:
282,352,153677,5,10,0:0:0:0:
268,354,153755,1,2,0:0:0:0:
255,356,153833,1,2,3:2:0:0:
144,229,153990,6,1,L|106:225,1,37.5,2|0,0:0|0:0,0:0:0:0:
74,220,154146,2,1,L|-1:213,1,75,2|8,3:2|0:0,0:0:0:0:
42,111,154458,6,1,B|105:105|105:105|122:115|122:115|218:107,1,150,2|2,0:0|3:2,0:0:0:0:
151,31,154927,1,10,0:0:0:0:
267,105,155083,2,1,B|314:100|314:100|302:-34,1,150,0|2,0:0|0:0,0:0:0:0:
404,31,155474,5,0,0:0:0:0:
404,31,155552,2,1,L|398:94,3,37.5,8|2|2|2,0:0|0:0|0:0|0:0,0:0:0:0:
486,120,155865,2,1,L|482:75,3,44.999998626709,2|2|2|2,3:2|0:0|3:2|0:0,0:0:0:0:
389,147,156177,5,10,0:0:0:0:
386,172,156255,1,2,0:0:0:0:
384,198,156333,1,2,3:2:0:0:
382,224,156411,1,2,0:0:0:0:
379,251,156490,1,2,0:0:0:0:
338,331,156646,6,1,B|377:353|420:333|420:333|429:342|429:342|473:324|513:343,2,179.999994506836,2|2|2,3:2|0:0|3:2,0:0:0:0:
463,219,157427,1,10,0:0:0:0:
295,252,157583,2,1,P|234:236|107:212,1,179.999994506836,2|2,0:0|3:2,0:0:0:0:
62,158,157974,1,2,0:0:0:0:
62,158,158052,2,1,P|120:124|189:95,1,123.75000377655,8|2,0:0|0:0,0:0:0:0:
220,38,158365,2,1,P|255:53|308:68,1,75,2|2,3:2|3:2,0:0:0:0:
368,128,158677,2,1,P|402:117|443:110,1,75,8|2,0:0|0:0,0:0:0:0:
440,110,158911,5,8,0:0:0:0:
440,110,158990,1,12,0:0:0:0:
505,208,159146,1,8,3:0:0:0:
449,303,159302,2,1,L|453:346,3,37.5,2|8|8|2,3:2|0:0|0:0|0:0,0:0:0:0:
380,264,159615,2,1,L|386:219,3,44.999998626709,8|0|0|8,3:0|0:0|3:0|0:0,0:0:0:0:
318,319,159927,5,8,0:0:0:0:
291,325,160005,1,8,0:0:0:0:
264,323,160083,1,0,3:0:0:0:
240,310,160161,1,0,3:0:0:0:
221,289,160240,2,1,P|189:261|142:298,1,112.5,6|0,3:2|0:0,0:0:0:0:
115,323,160552,6,1,P|103:260|73:133,1,179.999994506836,10|0,0:0|3:0,0:0:0:0:
20,81,161021,1,2,3:2:0:0:
145,0,161177,2,1,P|135:56|125:129,1,89.9999972534181,8|0,0:0|3:0,0:0:0:0:
191,151,161490,1,0,0:0:0:0:
287,88,161646,2,1,P|280:43|272:0,1,89.9999972534181,0|8,3:0|0:0,0:0:0:0:
389,69,161958,1,2,0:0:0:0:
389,69,162036,1,8,0:0:0:0:
389,69,162115,2,1,P|377:126|368:188,1,89.9999972534181,0|2,3:0|3:2,0:0:0:0:
478,102,162427,1,8,0:0:0:0:
478,102,162583,1,2,0:0:0:0:
432,219,162740,6,1,P|374:247|336:240,1,89.9999972534181,2|2,3:2|0:0,0:0:0:0:
268,175,163052,1,10,0:0:0:0:
220,319,163208,1,2,0:0:0:0:
179,219,163365,1,2,3:2:0:0:
230,299,163521,1,2,3:2:0:0:
142,350,163677,6,1,P|91:363|50:346,1,89.9999972534181,10|2,0:0|3:2,0:0:0:0:
8,133,163990,1,2,0:0:0:0:
88,181,164146,2,1,P|76:229|69:281,1,89.9999972534181,2|8,3:2|0:0,0:0:0:0:
179,137,164458,2,1,P|174:65|85:85,2,179.999994506836,2|2|2,0:0|3:2|0:0,0:0:0:0:
272,52,165240,6,1,L|427:38,1,134.999995880127,6|0,3:2|0:0,0:0:0:0:
406,40,165552,2,1,L|397:139,1,89.9999972534181,10|2,0:0|0:0,0:0:0:0:
463,201,165865,1,2,3:2:0:0:
463,201,166021,1,2,3:2:0:0:
297,138,166177,1,10,0:0:0:0:
485,97,166333,1,2,3:2:0:0:
360,224,166490,6,1,L|368:323,1,89.9999972534181,0|2,0:0|3:2,0:0:0:0:
475,384,166802,2,1,L|482:294,1,89.9999972534181,10|2,0:0|0:0,0:0:0:0:
482,294,167036,1,8,0:0:0:0:
482,294,167115,1,2,3:2:0:0:
369,336,167271,1,2,3:2:0:0:
275,289,167427,1,10,0:0:0:0:
202,324,167583,1,2,0:0:0:0:
131,295,167740,6,1,P|119:238|105:171,1,89.9999972534181,6|2,3:2|0:0,0:0:0:0:
58,312,168052,2,1,P|46:255|32:188,1,89.9999972534181,10|2,0:0|0:0,0:0:0:0:
60,149,168365,1,2,3:2:0:0:
60,149,168521,1,2,3:2:0:0:
202,243,168677,1,14,0:0:0:0:
80,235,168833,1,2,0:0:0:0:
238,154,168990,6,1,B|293:149|293:149|311:163|311:163|366:158,1,134.999995880127,2|8,3:2|0:0,0:0:0:0:
382,155,169302,2,1,L|386:103,3,44.999998626709,10|0|0|0,0:0|3:0|3:0|3:0,0:0:0:0:
456,71,169615,2,1,L|459:106,3,35.6249990487099,0|0|0|0,3:2|3:0|3:0|3:0,0:0:0:0:
343,47,169927,6,1,L|348:-1,2,47.4999987316132,0|0|0,3:2|3:2|3:2,0:0:0:0:
469,182,170240,5,4,3:2:0:0:
96,131,172740,5,2,0:0:0:0:
463,328,175240,5,2,0:0:0:0:
362,34,177740,5,2,0:0:0:0:
90,118,179615,6,1,L|86:153,3,22.4999993133545,2|2|2|2,0:3|0:3|0:3|0:3,0:0:0:0:
90,118,179927,2,1,P|134:95|188:135,1,112.5,2|0,0:3|0:0,0:0:0:0:
183,124,180240,2,1,P|206:137|237:142,1,41.2500012588501,6|0,3:2|0:0,0:0:0:0:
292,108,180552,2,1,P|311:102|338:96,1,41.2500012588501,0|2,3:2|0:0,0:0:0:0:
395,143,180865,2,1,P|403:166|409:190,1,41.2500012588501,2|2,3:2|0:0,0:0:0:0:
483,162,181177,2,1,P|477:142|470:122,1,41.2500012588501,2|2,3:2|0:0,0:0:0:0:
467,237,181490,5,2,3:2:0:0:
467,237,181646,2,1,P|462:268|460:289,2,41.2500012588501,2|2|2,0:0|3:2|0:0,0:0:0:0:
395,318,182114,2,1,P|370:298|353:285,1,41.2500012588501,2|0,3:2|0:0,0:0:0:0:
353,215,182349,1,0,0:0:0:0:
353,215,182427,2,1,P|382:203|401:195,1,41.2500012588501,2|2,3:2|0:0,0:0:0:0:
287,329,182740,6,1,P|252:339|227:341,1,48.7499977684022,2|0,3:2|0:0,0:0:0:0:
178,292,183052,2,1,P|143:282|118:280,1,48.7499977684022,0|2,3:2|0:0,0:0:0:0:
59,312,183365,1,2,3:2:0:0:
59,312,183521,1,2,0:0:0:0:
8,250,183677,1,2,3:2:0:0:
8,250,183833,1,2,0:0:0:0:
51,136,183990,6,1,P|58:175|60:195,1,48.7499977684022,2|2,3:2|0:0,0:0:0:0:
134,166,184302,2,1,P|130:141|125:117,1,48.7499977684022,2|2,3:2|0:0,0:0:0:0:
171,52,184615,2,1,P|207:63|233:59,1,48.7499977684022,2|0,3:2|0:0,0:0:0:0:
287,23,184849,1,0,0:0:0:0:
287,23,184927,2,1,P|323:12|349:16,1,48.7499977684022,0|0,3:2|0:0,0:0:0:0:
481,107,185240,6,1,P|433:116|366:63,1,120,2|0,3:2|3:2,0:0:0:0:
443,32,185708,1,2,0:0:0:0:
491,125,185865,2,1,P|483:157|474:197,1,60,2|2,3:2|0:0,0:0:0:0:
418,236,186177,2,1,P|426:268|435:308,1,60,2|2,3:2|0:0,0:0:0:0:
378,369,186490,6,1,P|434:336|490:361,2,112.500004291535,2|2|2,3:2|3:2|3:2,0:0:0:0:
295,297,187271,1,2,0:0:0:0:
239,357,187427,2,1,P|201:369|175:367,1,56.2500021457673,2|2,3:2|0:0,0:0:0:0:
66,222,187740,6,1,P|75:272|81:307,1,75,6|0,3:2|0:0,0:0:0:0:
180,167,188052,2,1,P|186:130|193:93,1,75,0|0,0:0|0:0,0:0:0:0:
16,145,188365,6,1,P|65:132|99:142,1,75,0|0,0:0|0:0,0:0:0:0:
208,243,188677,1,0,0:0:0:0:
114,55,188833,1,0,0:0:0:0:
256,192,188990,12,1,190083,0:0:0:0:
314,56,190240,6,1,P|410:72|505:92,1,194.999991073609,6|8,3:2|0:0,0:0:0:0:
458,0,190708,1,2,3:2:0:0:
337,152,190865,2,1,P|269:159|216:166,1,97.4999955368044,10|0,0:0|3:0,0:0:0:0:
139,122,191177,1,8,0:0:0:0:
139,122,191333,1,2,3:2:0:0:
160,222,191490,5,10,0:0:0:0:
224,64,191646,1,2,3:2:0:0:
296,245,191802,2,1,P|354:258|408:269,1,97.4999955368044,10|2,0:0|3:2,0:0:0:0:
391,265,192036,1,0,0:0:0:0:
391,265,192115,2,1,P|438:255|487:239,1,93.75,10|0,0:0|3:0,0:0:0:0:
421,384,192427,6,1,P|374:347|281:370,1,140.625,10|0,0:0|0:0,0:0:0:0:
297,356,192740,2,1,P|223:379|171:293,1,187.5,10|10,0:0|0:0,0:0:0:0:
266,257,193208,1,2,3:2:0:0:
110,223,193365,2,1,L|6:232,1,93.75,10|0,0:0|3:0,0:0:0:0:
177,135,193677,2,1,L|280:144,1,93.75,10|2,0:0|3:2,0:0:0:0:
307,40,193990,5,10,0:0:0:0:
344,201,194146,1,2,3:2:0:0:
388,88,194302,1,10,0:0:0:0:
270,143,194458,1,2,3:2:0:0:
456,147,194615,1,10,0:0:0:0:
351,208,194771,1,0,3:0:0:0:
351,208,194849,1,0,0:0:0:0:
351,208,194927,2,1,L|342:303,1,93.75,8|0,0:0|3:0,0:0:0:0:
192,194,195240,6,1,P|147:168|62:205,1,140.625,6|0,3:2|0:0,0:0:0:0:
68,196,195552,2,1,P|51:258|67:296,1,93.75,10|2,0:0|3:2,0:0:0:0:
187,371,195865,1,10,0:0:0:0:
147,280,196021,1,2,3:2:0:0:
280,378,196177,1,10,0:0:0:0:
316,234,196333,1,2,3:2:0:0:
442,380,196490,6,1,P|427:302|407:206,1,140.625,10|0,0:0|0:0,0:0:0:0:
414,242,196802,2,1,P|425:181|434:141,1,93.75,8|2,0:0|3:2,0:0:0:0:
374,6,197115,1,10,0:0:0:0:
496,94,197271,1,2,3:2:0:0:
340,160,197427,1,10,0:0:0:0:
475,2,197583,1,2,3:2:0:0:
268,49,197740,6,1,P|286:117|320:250,1,194.999991073609,10|10,0:0|0:0,0:0:0:0:
383,87,198208,1,2,3:2:0:0:
226,204,198365,2,1,P|170:219|122:198,1,97.4999955368044,10|2,0:0|3:2,0:0:0:0:
183,117,198677,1,10,0:0:0:0:
183,117,198833,1,2,3:2:0:0:
40,227,198990,2,1,L|30:330,1,97.4999955368044,10|0,0:0|3:0,0:0:0:0:
193,311,199302,2,1,B|248:306|248:306|270:320|270:320|345:313,1,146.249993305207,10|0,0:0|0:0,0:0:0:0:
429,257,199615,6,1,L|424:305,3,48.7499977684022,14|0|0|0,0:0|0:0|1:0|1:0,0:0:0:0:
500,213,199927,5,10,0:0:0:0:
479,187,200005,1,8,0:0:0:0:
448,173,200083,1,8,3:0:0:0:
415,170,200161,1,0,3:0:0:0:
383,179,200240,2,1,P|314:195|290:78,1,202.500000772476,6|10,3:2|0:0,0:0:0:0:
380,57,200708,5,2,3:2:0:0:
217,8,200865,2,1,P|156:39|96:2,1,101.250000386238,10|2,0:0|3:2,0:0:0:0:
38,129,201177,2,1,P|55:190|66:255,1,101.250000386238,10|2,0:0|3:2,0:0:0:0:
124,384,201490,1,10,0:0:0:0:
27,323,201646,1,2,3:2:0:0:
169,287,201802,2,1,L|276:296,1,101.250000386238,10|2,0:0|3:2,0:0:0:0:
269,295,202036,1,0,0:0:0:0:
269,295,202115,2,1,L|277:194,1,101.250000386238,10|0,0:0|0:0,0:0:0:0:
293,62,202427,1,8,0:0:0:0:
293,62,202583,1,2,3:2:0:0:
420,155,202740,6,1,L|439:374,1,202.500000772476,10|10,0:0|0:0,0:0:0:0:
348,257,203208,1,0,3:0:0:0:
504,152,203365,2,1,L|513:48,1,101.250000386238,10|0,0:0|3:0,0:0:0:0:
321,0,203677,2,1,L|329:100,1,101.250000386238,10|0,0:0|3:0,0:0:0:0:
238,192,203990,5,10,0:0:0:0:
238,192,204146,1,2,3:2:0:0:
148,39,204302,1,10,0:0:0:0:
244,84,204458,1,2,3:2:0:0:
140,239,204615,2,1,P|132:297|124:375,1,101.250000386238,10|0,0:0|3:0,0:0:0:0:
29,176,204927,2,1,P|36:226|41:276,1,101.250000386238,8|0,0:0|3:0,0:0:0:0:
222,368,205240,6,1,P|284:379|355:322,1,151.875000579357,6|0,3:2|0:0,0:0:0:0:
351,328,205552,2,1,P|360:270|343:219,1,101.250000386238,10|2,0:0|3:2,0:0:0:0:
224,163,205865,1,10,0:0:0:0:
258,277,206021,1,2,3:2:0:0:
362,96,206177,1,10,0:0:0:0:
339,211,206333,1,2,3:2:0:0:
245,64,206490,6,1,B|144:47|164:126|51:107,1,202.500000772476,14|10,0:0|0:0,0:0:0:0:
84,14,206958,1,2,3:2:0:0:
84,14,207036,1,0,0:0:0:0:
84,14,207115,1,10,0:0:0:0:
210,141,207271,1,2,3:2:0:0:
30,96,207427,1,10,0:0:0:0:
163,221,207583,1,2,3:2:0:0:
0,202,207740,6,1,P|57:180|115:161,1,101.250000386238,14|0,0:0|3:0,0:0:0:0:
186,311,208052,2,1,P|136:311|93:285,1,101.250000386238,10|0,0:0|3:0,0:0:0:0:
254,249,208365,2,1,P|303:248|346:274,1,101.250000386238,10|0,0:0|3:0,0:0:0:0:
417,379,208677,2,1,P|437:318|452:275,1,101.250000386238,10|2,0:0|3:2,0:0:0:0:
459,144,208990,5,8,3:0:0:0:
510,218,209146,1,0,3:0:0:0:
370,143,209302,1,0,3:0:0:0:
415,64,209458,1,8,0:0:0:0:
283,154,209615,2,1,P|214:137|158:129,1,93.75,8|0,0:0|3:0,0:0:0:0:
191,133,209849,1,0,3:0:0:0:
191,133,209927,2,1,P|177:77|161:18,1,93.75,12|0,0:0|0:0,0:0:0:0:
12,140,210240,6,1,P|32:189|112:176,1,140.625,6|0,3:2|0:0,0:0:0:0:
108,180,210552,2,1,P|98:230|122:274,1,75,10|10,0:0|0:0,0:0:0:0:
192,224,210865,1,2,0:0:0:0:
192,224,211021,1,2,3:2:0:0:
247,329,211177,2,1,P|208:312|164:305,1,75,10|2,0:0|0:0,0:0:0:0:
348,280,211490,2,1,P|332:323|319:366,1,75,2|2,3:2|3:2,0:0:0:0:
435,285,211802,1,10,0:0:0:0:
435,285,211958,1,10,0:0:0:0:
360,195,212115,2,1,P|310:199|275:229,1,75,2|2,0:0|3:2,0:0:0:0:
441,113,212427,2,1,P|491:113|528:140,1,75,10|2,0:0|0:0,0:0:0:0:
408,22,212740,6,1,P|426:106|441:198,1,150,2|10,3:2|0:0,0:0:0:0:
503,35,213208,1,10,0:0:0:0:
343,112,213365,2,1,P|286:97|245:90,1,75,2|2,0:0|3:2,0:0:0:0:
195,31,213677,2,1,P|231:20|267:12,1,75,10|2,0:0|0:0,0:0:0:0:
197,127,213990,1,2,3:2:0:0:
197,127,214146,1,2,3:2:0:0:
116,88,214302,2,1,P|105:123|113:161,1,75,10|10,0:0|0:0,0:0:0:0:
243,249,214615,2,1,P|217:221|180:209,1,75,2|2,0:0|3:2,0:0:0:0:
40,278,214927,2,1,P|76:269|105:243,1,75,10|2,0:0|0:0,0:0:0:0:
233,337,215240,6,1,B|304:348|287:306|360:321,1,123.75000377655,6|0,3:2|0:0,0:0:0:0:
352,319,215552,2,1,P|386:358|429:368,1,82.5000025177003,10|10,0:0|0:0,0:0:0:0:
512,329,215865,1,2,0:0:0:0:
512,329,216021,1,2,3:2:0:0:
431,279,216177,2,1,P|423:242|413:206,1,75,10|2,0:0|0:0,0:0:0:0:
512,120,216490,2,1,P|502:156|494:192,1,75,2|2,3:2|3:2,0:0:0:0:
423,119,216802,1,10,0:0:0:0:
423,119,216958,1,10,0:0:0:0:
384,40,217115,2,1,P|433:32|463:44,1,75,2|2,0:0|3:2,0:0:0:0:
337,116,217427,2,1,P|300:107|264:116,1,75,10|2,0:0|0:0,0:0:0:0:
103,19,217740,6,1,P|160:56|130:117,1,150,2|10,3:2|0:0,0:0:0:0:
25,89,218208,1,10,0:0:0:0:
89,207,218365,2,1,P|96:240|103:292,1,75,2|2,0:0|3:2,0:0:0:0:
204,175,218677,2,1,P|196:211|191:248,1,75,10|2,0:0|0:0,0:0:0:0:
264,339,218990,5,8,0:0:0:0:
326,283,219146,2,1,L|322:235,2,37.5,2|0|2,3:2|3:0|3:2,0:0:0:0:
466,382,219458,5,8,0:0:0:0:
404,326,219614,2,1,L|408:278,2,37.5,8|0|0,3:0|3:0|3:0,0:0:0:0:
506,244,219927,1,8,0:0:0:0:
322,101,220240,5,6,3:2:0:0:
211,260,220552,6,1,P|200:309|193:358,1,67.4999979400635,2|2,1:2|1:2,0:0:0:0:
125,380,220865,2,1,P|118:346|111:313,1,67.4999979400635,2|2,0:0|3:2,0:0:0:0:
50,212,221177,2,1,P|82:231|130:228,1,67.4999979400635,10|0,0:0|0:0,0:0:0:0:
177,174,221490,6,1,P|162:101|148:19,1,134.999995880127,2|2,3:2|1:2,0:0:0:0:
65,11,221958,1,2,1:2:0:0:
17,90,222115,2,1,P|89:107|145:47,1,134.999995880127,2|10,0:0|0:0,0:0:0:0:
223,16,222583,1,2,0:0:0:0:
296,99,222740,6,1,P|369:109|461:127,1,134.999995880127,2|0,3:2|1:0,0:0:0:0:
511,74,223208,1,2,1:2:0:0:
463,198,223365,2,1,P|390:208|298:226,1,134.999995880127,2|8,0:0|0:0,0:0:0:0:
253,171,223833,1,2,0:0:0:0:
213,287,223990,6,1,B|291:272|274:318|356:298,1,134.999995880127,2|0,3:2|1:0,0:0:0:0:
418,360,224458,2,1,P|459:374|471:303,1,134.999995880127,2|0,1:2|3:0,0:0:0:0:
389,180,224927,2,1,P|400:222|414:259,1,67.4999979400635,8|2,0:0|0:0,0:0:0:0:
460,125,225240,6,1,P|425:95|335:105,1,134.999995880127,2|0,3:2|1:0,0:0:0:0:
259,59,225708,1,0,1:0:0:0:
303,182,225865,1,0,0:0:0:0:
303,182,226021,1,0,3:0:0:0:
219,134,226177,2,1,P|158:118|126:114,1,67.4999979400635,8|0,0:0|0:0,0:0:0:0:
77,53,226490,6,1,P|138:37|170:33,2,67.4999979400635,0|0|0,3:0|0:0|1:0,0:0:0:0:
34,130,226958,1,2,1:2:0:0:
34,130,227115,2,1,P|48:168|57:209,1,67.4999979400635,0|2,0:0|3:2,0:0:0:0:
128,266,227427,2,1,P|136:233|148:201,1,67.4999979400635,10|2,0:0|0:0,0:0:0:0:
58,317,227740,6,1,P|107:356|187:330,1,134.999995880127,2|0,3:2|1:0,0:0:0:0:
256,381,228208,1,0,1:0:0:0:
219,265,228365,1,0,0:0:0:0:
219,265,228521,1,0,3:0:0:0:
300,310,228677,2,1,P|345:318|375:322,1,67.4999979400635,8|0,0:0|0:0,0:0:0:0:
477,256,228990,5,0,3:0:0:0:
433,363,229146,1,0,0:0:0:0:
357,232,229302,1,0,1:0:0:0:
511,339,229458,1,0,1:0:0:0:
426,183,229615,2,1,P|436:130|445:97,1,67.4999979400635,0|0,0:0|0:0,0:0:0:0:
484,0,229927,2,1,P|447:35|367:19,1,134.999995880127,8|6,0:0|3:2,0:0:0:0:
150,104,230552,6,1,P|107:92|70:83,2,75,2|2|2,1:2|1:2|0:0,0:0:0:0:
214,40,231021,1,0,3:0:0:0:
200,178,231177,2,1,P|152:193|115:203,1,67.4999979400635,10|0,0:0|0:0,0:0:0:0:
4,281,231490,6,1,P|61:264|136:318,1,134.999995880127,2|2,3:2|1:2,0:0:0:0:
158,384,231958,1,2,1:2:0:0:
243,345,232115,2,1,P|305:334|405:317,1,134.999995880127,2|10,0:0|0:0,0:0:0:0:
444,255,232583,1,2,0:0:0:0:
381,183,232740,6,1,B|309:176|325:227|248:216,1,134.999995880127,2|0,3:2|1:0,0:0:0:0:
211,136,233208,1,2,1:2:0:0:
161,233,233365,2,1,P|94:234|116:164,1,134.999995880127,2|8,0:0|0:0,0:0:0:0:
26,110,233833,1,2,0:0:0:0:
64,35,233990,6,1,P|101:43|201:51,1,134.999995880127,2|0,3:2|1:0,0:0:0:0:
286,22,234458,1,2,1:2:0:0:
350,135,234615,1,2,0:0:0:0:
273,102,234771,1,2,3:2:0:0:
434,46,234927,6,1,P|390:52|357:58,1,67.4999979400635,10|2,0:0|0:0,0:0:0:0:
438,135,235240,2,1,P|471:139|504:144,1,67.4999979400635,2|0,3:2|0:0,0:0:0:0:
388,209,235552,1,2,1:2:0:0:
388,209,235708,1,2,1:2:0:0:
447,289,235865,2,1,P|463:248|479:218,1,67.4999979400635,0|2,0:0|3:2,0:0:0:0:
316,266,236177,2,1,P|352:294|371:313,1,67.4999979400635,8|2,0:0|0:0,0:0:0:0:
288,350,236490,6,1,P|236:347|200:349,2,67.4999979400635,2|2|2,3:2|0:0|1:2,0:0:0:0:
229,264,236958,1,2,1:2:0:0:
133,374,237115,1,2,0:0:0:0:
133,374,237271,1,2,3:2:0:0:
120,223,237427,2,1,P|140:277|153:317,1,67.4999979400635,8|2,0:0|0:0,0:0:0:0:
44,188,237740,6,1,P|78:148|164:157,1,134.999995880127,2|2,3:2|1:2,0:0:0:0:
304,65,238208,1,2,1:2:0:0:
250,189,238365,2,1,P|235:127|209:41,1,134.999995880127,2|8,0:0|0:0,0:0:0:0:
326,142,238833,1,2,3:2:0:0:
169,232,238990,5,8,3:0:0:0:
341,287,239146,1,0,0:0:0:0:
403,216,239302,5,2,3:2:0:0:
235,346,239458,1,2,3:2:0:0:
155,150,239615,1,4,0:0:0:0:
