osu file format v14

[General]
AudioFilename: audio.mp3
AudioLeadIn: 0
PreviewTime: 237851
Countdown: 0
SampleSet: Normal
StackLeniency: 0.7
Mode: 1
LetterboxInBreaks: 0
WidescreenStoryboard: 0

[Editor]
Bookmarks: 10698,20298,41886,51391,60896,70400,79757,89262,127430,130178,136787,146292,184311,193965,203470,217727,227232
DistanceSpacing: 1
BeatDivisor: 4
GridSize: 32
TimelineZoom: 1.8

[Metadata]
Title:Lost Time Memory
TitleUnicode:ロスタイムメモリー
Artist:JIN feat. Matsuyama Kouta (BYEE the ROUND)
ArtistUnicode:じん feat. 松山晃太(BYEE the ROUND)
Creator:[-E S I A-]
Version:Kagerou
Source:メカクシティアクターズ
Tags:Mekakucity Actors Kagerou カゲロウ project kagepro japanese rock j-rock jrock ft. featuring vocaloid ia oni 中西亮輔 Ryosuke Nakanishi cover 初音ミク -Project DIVA- F 2nd second 自然の敵P Shizen no Teki P Teki-P TekiP じん Blindfold daze days カゲロウプロジェクト E_S_I_A [-E_S_I_A-] ESIA [-ESIA-]
BeatmapID:4070867
BeatmapSetID:1963905

[Difficulty]
HPDrainRate:5
CircleSize:2
OverallDifficulty:6
ApproachRate:10
SliderMultiplier:1.4
SliderTickRate:1

[Events]
//Background and Video events
Video,0,"mekaku.mp4"
0,0,"ingatan.jpg",0,-10
//Break Periods
2,198917,202723
//Storyboard Layer 0 (Background)
//Storyboard Layer 1 (Fail)
//Storyboard Layer 2 (Pass)
//Storyboard Layer 3 (Foreground)
//Storyboard Layer 4 (Overlay)
//Storyboard Sound Samples

[TimingPoints]
1098,300,4,1,0,70,1,0
1098,-125,4,1,0,70,0,0
36423,-121.951219512195,4,1,0,70,0,0
36573,-119.047619047619,4,1,0,70,0,0
36723,-116.279069767442,4,1,0,70,0,0
36873,-113.636363636364,4,1,0,70,0,0
37023,-111.111111111111,4,1,0,70,0,0
39198,-105.263157894737,4,1,0,80,0,0
40698,297.029702970297,4,1,0,80,1,0
40698,-106.382978723404,4,1,0,80,0,0
41737,-100,4,1,0,90,0,0
41886,297.029702970297,4,1,0,90,1,0
60079,-102.040816326531,4,1,0,90,0,0
60227,-104.166666666667,4,1,0,90,0,0
60376,-106.382978723404,4,1,0,90,0,0
60524,-108.695652173913,4,1,0,90,0,0
60747,-111.111111111111,4,1,0,80,0,0
70252,-100,4,1,0,90,0,0
79089,-102.040816326531,4,1,0,90,0,0
79237,-104.166666666667,4,1,0,90,0,0
79386,-106.382978723404,4,1,0,90,0,0
79534,-108.695652173913,4,1,0,90,0,0
79683,-111.111111111111,4,1,0,80,0,0
88445,-108.695652173913,4,1,0,80,0,0
88631,-107.52688172043,4,1,0,80,0,0
88705,-106.382978723404,4,1,0,80,0,0
88779,-105.263157894737,4,1,0,80,0,0
88891,-104.166666666667,4,1,0,80,0,0
89039,-102.040816326531,4,1,0,80,0,0
89188,-100,4,1,0,90,0,0
98915,-95.2380952380952,4,1,0,100,0,1
117108,-96.1538461538461,4,1,0,100,0,1
117257,-97.0873786407767,4,1,0,100,0,1
117405,-98.0392156862745,4,1,0,100,0,1
117554,-99.009900990099,4,1,0,100,0,1
117925,-100,4,1,0,90,0,0
136118,-102.040816326531,4,1,0,90,0,0
136267,-104.166666666667,4,1,0,90,0,0
136415,-106.382978723404,4,1,0,90,0,0
136564,-108.695652173913,4,1,0,90,0,0
136712,-111.111111111111,4,1,0,80,0,0
145475,-108.695652173913,4,1,0,80,0,0
145660,-107.52688172043,4,1,0,80,0,0
145735,-106.382978723404,4,1,0,80,0,0
145809,-105.263157894737,4,1,0,80,0,0
145920,-104.166666666667,4,1,0,80,0,0
146069,-102.040816326531,4,1,0,80,0,0
146217,-100,4,1,0,90,0,0
156242,-95.2380952380952,4,1,0,100,0,1
174138,-96.1538461538461,4,1,0,100,0,1
174287,-97.0873786407767,4,1,0,100,0,1
174435,-98.0392156862745,4,1,0,100,0,1
174584,-99.009900990099,4,1,0,100,0,1
174806,-100,4,1,0,90,0,0
194113,-100,4,1,0,80,0,0
194559,-103.092783505155,4,1,0,70,0,0
195153,-105.263157894737,4,1,0,60,0,0
195747,-107.52688172043,4,1,0,50,0,0
196341,-111.111111111111,4,1,0,40,0,0
196935,-114.942528735632,4,1,0,30,0,0
197529,-117.647058823529,4,1,0,20,0,0
198123,-121.951219512195,4,1,0,10,0,0
198717,-125,4,1,0,5,0,0
203024,-125,4,1,0,40,0,0
216688,-123.456790123457,4,1,0,40,0,0
216985,-119.047619047619,4,1,0,40,0,0
217282,-114.942528735632,4,1,0,45,0,0
217727,297.029702970297,4,1,0,50,1,8
217747,297.47149231532,4,1,0,50,1,0
217747,-111.111111111111,4,1,0,50,0,0
226044,297.029702970297,4,1,0,50,1,0
226044,-111.111111111111,4,1,0,50,0,0
226786,-111.111111111111,4,1,0,70,0,0
227232,297.029702970297,4,1,0,90,1,0
227232,-100,4,1,0,90,0,0
237925,297.029702970297,4,1,0,100,1,1
237925,-95.2380952380952,4,1,0,100,0,1
260871,-96.1538461538461,4,1,0,100,0,1
261019,-97.0873786407767,4,1,0,100,0,1
261168,-98.0392156862745,4,1,0,100,0,1
261316,-99.009900990099,4,1,0,100,0,1
261538,-100,4,1,0,90,0,0
271415,-80,4,1,0,90,0,0
271564,-100,4,1,0,90,0,0
279509,-100,4,1,0,80,0,0
280103,-100,4,1,0,70,0,0
280698,-100,4,1,0,60,0,0
281292,-100,4,1,0,50,0,0
281886,-100,4,1,0,40,0,0
282727,-100,4,1,0,30,0,0

[HitObjects]
232,232,1098,5,0,0:0:0:0:
186,194,1698,1,8,0:0:0:0:
328,205,1998,1,0,0:0:0:0:
319,220,2148,1,0,0:0:0:0:
174,194,2448,1,8,0:0:0:0:
297,187,2598,1,0,0:0:0:0:
372,192,2898,1,8,0:0:0:0:
372,192,3198,1,0,0:0:0:0:
143,301,3348,1,0,0:0:0:0:
201,185,3498,1,8,0:0:0:0:
281,185,4098,1,8,0:0:0:0:
341,191,4398,1,8,0:0:0:0:
341,191,4548,1,0,0:0:0:0:
169,154,4848,1,0,0:0:0:0:
244,242,4998,1,8,0:0:0:0:
263,189,5148,1,8,0:0:0:0:
193,188,5298,1,0,0:0:0:0:
237,212,5598,1,0,0:0:0:0:
212,201,5748,1,8,0:0:0:0:
342,262,5898,1,0,0:0:0:0:
266,266,6498,1,8,0:0:0:0:
257,240,6798,1,0,0:0:0:0:
341,178,6948,1,8,0:0:0:0:
271,198,7248,1,0,0:0:0:0:
254,167,7398,1,0,0:0:0:0:
254,167,7698,1,8,0:0:0:0:
160,283,7998,1,0,0:0:0:0:
243,271,8148,1,0,0:0:0:0:
274,163,8298,1,8,0:0:0:0:
193,271,8898,1,0,0:0:0:0:
271,241,9198,1,8,0:0:0:0:
261,265,9348,1,0,0:0:0:0:
199,304,9648,1,8,0:0:0:0:
328,218,9798,1,0,0:0:0:0:
271,213,9948,1,0,0:0:0:0:
199,304,10098,1,8,0:0:0:0:
234,228,10398,1,8,0:0:0:0:
244,257,10548,1,0,0:0:0:0:
234,228,10698,1,8,0:0:0:0:
273,255,11298,1,8,0:0:0:0:
238,209,11598,1,0,0:0:0:0:
308,228,11748,1,0,0:0:0:0:
245,234,12048,1,8,0:0:0:0:
268,157,12198,1,0,0:0:0:0:
317,308,12498,1,8,0:0:0:0:
384,184,12798,1,0,0:0:0:0:
317,308,12948,1,8,0:0:0:0:
138,225,13098,1,0,0:0:0:0:
401,195,13698,1,8,0:0:0:0:
326,233,13998,1,8,0:0:0:0:
318,293,14148,1,0,0:0:0:0:
174,179,14448,1,0,0:0:0:0:
384,186,14598,1,8,0:0:0:0:
252,183,14748,1,0,0:0:0:0:
174,179,14898,1,8,0:0:0:0:
206,242,15198,1,0,0:0:0:0:
240,187,15348,1,0,0:0:0:0:
206,242,15498,1,8,0:0:0:0:
219,217,16098,1,8,0:0:0:0:
306,238,16398,1,0,0:0:0:0:
219,217,16548,1,8,0:0:0:0:
346,281,16848,1,0,0:0:0:0:
346,281,16998,1,0,0:0:0:0:
258,234,17298,1,8,0:0:0:0:
258,234,17598,1,8,0:0:0:0:
317,171,17748,1,8,0:0:0:0:
360,208,17898,1,0,0:0:0:0:
233,220,18498,1,8,0:0:0:0:
348,213,18798,1,0,0:0:0:0:
224,252,18948,1,0,0:0:0:0:
284,255,19098,1,8,0:0:0:0:
285,255,19698,1,8,0:0:0:0:
142,212,19998,1,0,0:0:0:0:
302,207,20148,1,8,0:0:0:0:
284,191,20298,1,0,0:0:0:0:
200,275,20898,1,8,0:0:0:0:
276,195,21198,1,8,0:0:0:0:
200,275,21348,1,0,0:0:0:0:
211,205,21648,1,0,0:0:0:0:
216,228,21798,1,8,0:0:0:0:
216,228,22098,1,0,0:0:0:0:
189,187,22398,1,8,0:0:0:0:
309,215,22548,1,0,0:0:0:0:
243,187,22698,1,8,0:0:0:0:
295,217,23298,1,8,0:0:0:0:
266,198,23598,1,0,0:0:0:0:
197,234,23748,1,8,0:0:0:0:
206,272,24048,1,8,0:0:0:0:
206,272,24198,1,0,0:0:0:0:
356,249,24348,1,0,0:0:0:0:
206,272,24498,1,8,0:0:0:0:
282,213,24798,1,0,0:0:0:0:
287,243,24948,1,0,0:0:0:0:
184,274,25098,1,8,0:0:0:0:
186,219,25698,1,8,0:0:0:0:
225,214,25998,1,0,0:0:0:0:
180,214,26148,1,0,0:0:0:0:
293,277,26448,1,8,0:0:0:0:
249,211,26598,1,0,0:0:0:0:
194,234,26898,1,8,0:0:0:0:
426,271,27198,1,0,0:0:0:0:
261,239,27348,1,8,0:0:0:0:
426,271,27498,1,0,0:0:0:0:
261,239,28098,1,8,0:0:0:0:
278,157,28398,1,0,0:0:0:0:
346,212,28548,1,8,0:0:0:0:
339,205,28848,1,8,0:0:0:0:
346,212,28998,1,0,0:0:0:0:
264,239,29298,1,8,0:0:0:0:
262,231,29598,1,0,0:0:0:0:
146,253,29748,1,0,0:0:0:0:
318,201,29898,1,8,0:0:0:0:
228,243,30498,1,8,0:0:0:0:
203,253,30798,1,8,0:0:0:0:
245,260,30948,1,0,0:0:0:0:
365,188,31248,1,0,0:0:0:0:
283,224,31398,1,8,0:0:0:0:
292,248,31698,1,0,0:0:0:0:
324,249,31998,1,0,0:0:0:0:
324,249,32148,1,8,0:0:0:0:
298,209,32298,1,0,0:0:0:0:
262,294,32898,1,8,0:0:0:0:
214,243,33198,1,0,0:0:0:0:
303,211,33348,1,0,0:0:0:0:
303,211,33648,1,8,0:0:0:0:
214,243,33798,1,0,0:0:0:0:
303,211,34098,1,8,0:0:0:0:
356,236,34398,1,8,0:0:0:0:
298,199,34548,1,8,0:0:0:0:
318,200,34698,1,0,0:0:0:0:
264,276,35298,1,8,0:0:0:0:
361,200,35598,1,0,0:0:0:0:
264,276,35748,1,8,0:0:0:0:
256,256,36048,1,0,0:0:0:0:
256,256,36198,1,0,0:0:0:0:
153,222,36498,1,8,0:0:0:0:
264,276,36648,1,8,0:0:0:0:
208,221,36798,1,0,0:0:0:0:
208,221,36948,1,0,0:0:0:0:
266,275,37098,1,8,0:0:0:0:
265,219,39348,1,0,0:0:0:0:
265,219,39423,1,0,0:0:0:0:
348,187,39498,1,8,0:0:0:0:
217,184,40698,1,8,0:0:0:0:
260,166,41292,1,0,0:0:0:0:
260,166,41366,1,0,0:0:0:0:
260,166,41440,1,0,0:0:0:0:
260,166,41514,1,0,0:0:0:0:
287,255,41589,1,8,0:0:0:0:
233,193,41886,1,4,0:0:0:0:
197,289,42183,1,8,0:0:0:0:
277,218,42331,1,0,0:0:0:0:
197,289,42480,1,8,0:0:0:0:
180,237,42628,1,8,0:0:0:0:
187,225,42777,1,0,0:0:0:0:
277,218,42925,1,8,0:0:0:0:
277,218,42999,1,8,0:0:0:0:
220,221,43074,1,0,0:0:0:0:
249,235,43222,1,0,0:0:0:0:
372,231,43371,1,8,0:0:0:0:
254,265,43519,1,0,0:0:0:0:
280,260,43593,1,0,0:0:0:0:
249,193,43668,1,8,0:0:0:0:
117,241,43816,1,0,0:0:0:0:
249,193,43965,1,8,0:0:0:0:
205,216,44113,1,8,0:0:0:0:
154,237,44262,1,0,0:0:0:0:
319,258,44559,1,8,0:0:0:0:
250,253,44707,1,8,0:0:0:0:
205,216,44856,1,0,0:0:0:0:
205,216,45004,1,0,0:0:0:0:
250,253,45153,1,8,0:0:0:0:
205,216,45301,1,0,0:0:0:0:
205,216,45376,1,0,0:0:0:0:
300,251,45450,1,8,0:0:0:0:
331,246,45598,1,0,0:0:0:0:
250,269,45747,1,0,0:0:0:0:
298,179,45895,1,12,0:0:0:0:
339,180,46192,1,0,0:0:0:0:
242,200,46341,1,8,0:0:0:0:
242,200,46489,1,8,0:0:0:0:
207,225,46638,1,4,0:0:0:0:
259,202,46935,1,8,0:0:0:0:
336,244,47084,1,0,0:0:0:0:
240,228,47232,1,8,0:0:0:0:
372,238,47381,1,8,0:0:0:0:
324,270,47529,1,0,0:0:0:0:
357,212,47678,1,8,0:0:0:0:
289,214,47752,1,0,0:0:0:0:
357,212,47826,1,8,0:0:0:0:
282,258,47975,1,0,0:0:0:0:
289,269,48123,1,8,0:0:0:0:
167,266,48272,1,0,0:0:0:0:
167,266,48346,1,0,0:0:0:0:
281,270,48420,1,8,0:0:0:0:
362,224,48569,1,0,0:0:0:0:
281,270,48717,1,8,0:0:0:0:
245,267,49014,1,0,0:0:0:0:
177,273,49163,1,0,0:0:0:0:
157,239,49311,1,8,0:0:0:0:
157,239,49460,1,8,0:0:0:0:
261,210,49608,1,0,0:0:0:0:
172,297,49757,1,0,0:0:0:0:
337,178,49831,1,0,0:0:0:0:
403,206,49905,1,8,0:0:0:0:
198,224,50054,1,8,0:0:0:0:
351,216,50202,1,0,0:0:0:0:
351,216,50351,1,0,0:0:0:0:
296,228,50499,1,12,0:0:0:0:
169,248,50796,1,8,0:0:0:0:
188,253,50945,1,0,0:0:0:0:
274,176,51019,1,0,0:0:0:0:
274,176,51093,1,8,0:0:0:0:
209,191,51242,1,8,0:0:0:0:
209,191,51316,1,8,0:0:0:0:
279,200,51390,1,4,0:0:0:0:
296,216,51687,1,8,0:0:0:0:
296,216,51836,1,0,0:0:0:0:
271,183,51985,1,8,0:0:0:0:
270,183,52133,1,8,0:0:0:0:
305,183,52282,1,0,0:0:0:0:
189,163,52430,1,8,0:0:0:0:
224,155,52504,1,8,0:0:0:0:
297,185,52579,1,0,0:0:0:0:
291,193,52727,1,0,0:0:0:0:
229,158,52876,1,8,0:0:0:0:
368,217,53024,1,0,0:0:0:0:
368,217,53098,1,0,0:0:0:0:
231,158,53173,1,8,0:0:0:0:
209,168,53247,1,8,0:0:0:0:
253,214,53321,1,0,0:0:0:0:
247,180,53470,1,8,0:0:0:0:
147,194,53618,1,8,0:0:0:0:
226,229,53767,1,0,0:0:0:0:
228,208,54064,1,8,0:0:0:0:
442,231,54212,1,8,0:0:0:0:
264,221,54361,1,0,0:0:0:0:
264,221,54509,1,0,0:0:0:0:
228,208,54658,1,8,0:0:0:0:
264,221,54806,1,0,0:0:0:0:
264,221,54881,1,0,0:0:0:0:
321,189,54955,1,8,0:0:0:0:
281,185,55103,1,0,0:0:0:0:
271,186,55252,1,0,0:0:0:0:
289,201,55400,1,12,0:0:0:0:
358,238,55697,1,0,0:0:0:0:
229,179,55846,1,8,0:0:0:0:
261,200,55994,1,8,0:0:0:0:
277,218,56143,1,4,0:0:0:0:
294,176,56440,1,8,0:0:0:0:
244,214,56588,1,0,0:0:0:0:
295,176,56737,1,8,0:0:0:0:
295,176,56886,1,8,0:0:0:0:
273,209,57034,1,0,0:0:0:0:
333,163,57183,1,8,0:0:0:0:
319,247,57257,1,0,0:0:0:0:
221,181,57331,1,8,0:0:0:0:
213,226,57480,1,0,0:0:0:0:
204,261,57628,1,8,0:0:0:0:
227,208,57777,1,0,0:0:0:0:
227,208,57851,1,0,0:0:0:0:
219,168,57925,1,8,0:0:0:0:
303,201,57999,1,0,0:0:0:0:
178,237,58074,1,8,0:0:0:0:
309,198,58222,1,0,0:0:0:0:
188,178,58519,1,12,0:0:0:0:
276,113,58816,1,0,0:0:0:0:
267,190,58965,1,8,0:0:0:0:
276,113,59113,1,0,0:0:0:0:
269,238,59410,1,12,0:0:0:0:
314,183,59707,1,0,0:0:0:0:
269,238,59856,1,12,0:0:0:0:
224,225,60153,1,0,0:0:0:0:
266,250,60301,1,8,0:0:0:0:
224,225,60450,1,0,0:0:0:0:
325,190,60598,1,12,0:0:0:0:
339,236,60895,1,4,0:0:0:0:
351,199,61192,1,8,0:0:0:0:
298,304,61341,1,0,0:0:0:0:
337,204,61489,1,8,0:0:0:0:
365,194,61786,1,8,0:0:0:0:
256,244,61935,1,8,0:0:0:0:
237,150,62084,1,0,0:0:0:0:
364,194,62381,1,8,0:0:0:0:
312,193,62529,1,0,0:0:0:0:
289,239,62678,1,8,0:0:0:0:
365,194,62826,1,8,0:0:0:0:
337,215,62975,1,0,0:0:0:0:
140,230,63123,1,8,0:0:0:0:
333,241,63272,1,0,0:0:0:0:
333,241,63420,1,0,0:0:0:0:
345,249,63569,1,8,0:0:0:0:
200,284,63866,1,0,0:0:0:0:
200,284,64163,1,8,0:0:0:0:
373,211,64311,1,8,0:0:0:0:
279,269,64460,1,0,0:0:0:0:
376,180,64608,1,8,0:0:0:0:
381,179,64683,1,8,0:0:0:0:
235,254,64757,1,8,0:0:0:0:
316,197,64831,1,8,0:0:0:0:
169,221,64905,1,4,0:0:0:0:
169,221,65202,1,4,0:0:0:0:
324,283,65499,1,8,0:0:0:0:
210,223,65648,1,4,0:0:0:0:
223,243,65945,1,0,0:0:0:0:
220,210,66093,1,0,0:0:0:0:
318,175,66242,1,8,0:0:0:0:
220,246,66539,1,8,0:0:0:0:
329,230,66687,1,0,0:0:0:0:
304,193,66836,1,8,0:0:0:0:
268,217,66985,1,0,0:0:0:0:
253,206,67133,1,8,0:0:0:0:
275,216,67282,1,0,0:0:0:0:
259,263,67579,1,0,0:0:0:0:
259,263,67727,1,0,0:0:0:0:
271,238,67876,1,8,0:0:0:0:
244,208,68024,1,0,0:0:0:0:
237,253,68173,1,8,0:0:0:0:
237,253,68321,1,8,0:0:0:0:
363,216,68470,1,0,0:0:0:0:
237,253,68618,1,8,0:0:0:0:
281,223,68915,1,0,0:0:0:0:
281,223,69064,1,0,0:0:0:0:
388,194,69212,1,8,0:0:0:0:
217,183,69361,1,4,0:0:0:0:
180,226,69658,1,4,0:0:0:0:
268,269,69955,1,0,0:0:0:0:
268,269,70029,1,0,0:0:0:0:
292,168,70103,1,8,0:0:0:0:
166,166,70400,1,4,0:0:0:0:
222,238,70697,1,8,0:0:0:0:
226,244,70846,1,0,0:0:0:0:
222,238,70994,1,8,0:0:0:0:
228,199,71291,1,8,0:0:0:0:
205,165,71440,1,8,0:0:0:0:
304,191,71588,1,0,0:0:0:0:
191,203,71737,1,0,0:0:0:0:
129,242,71886,1,8,0:0:0:0:
264,224,72034,1,0,0:0:0:0:
243,164,72183,1,8,0:0:0:0:
194,198,72331,1,8,0:0:0:0:
247,203,72480,1,0,0:0:0:0:
394,179,72628,1,8,0:0:0:0:
173,194,72702,1,8,0:0:0:0:
263,270,72777,1,0,0:0:0:0:
255,255,72925,1,0,0:0:0:0:
163,249,73074,1,8,0:0:0:0:
226,240,73371,1,0,0:0:0:0:
225,240,73668,1,8,0:0:0:0:
234,254,73816,1,0,0:0:0:0:
331,235,73965,1,8,0:0:0:0:
296,265,74113,1,8,0:0:0:0:
282,269,74187,1,8,0:0:0:0:
282,269,74262,1,8,0:0:0:0:
254,184,74336,1,8,0:0:0:0:
244,189,74410,1,4,0:0:0:0:
241,221,74707,1,4,0:0:0:0:
240,209,75004,1,8,0:0:0:0:
232,200,75153,1,4,0:0:0:0:
164,200,75450,1,8,0:0:0:0:
276,202,75598,1,0,0:0:0:0:
150,191,75747,1,8,0:0:0:0:
254,193,76044,1,8,0:0:0:0:
318,248,76192,1,0,0:0:0:0:
275,249,76341,1,0,0:0:0:0:
362,270,76489,1,8,0:0:0:0:
251,171,76638,1,0,0:0:0:0:
211,216,76786,1,8,0:0:0:0:
233,205,77084,1,0,0:0:0:0:
169,220,77232,1,0,0:0:0:0:
231,291,77381,1,8,0:0:0:0:
374,197,77455,1,8,0:0:0:0:
426,206,77529,1,0,0:0:0:0:
202,292,77678,1,0,0:0:0:0:
237,213,77826,1,12,0:0:0:0:
303,231,78123,1,0,0:0:0:0:
303,231,78272,1,0,0:0:0:0:
262,226,78420,1,12,0:0:0:0:
187,283,78717,1,8,0:0:0:0:
287,256,78866,1,0,0:0:0:0:
187,283,79014,1,8,0:0:0:0:
204,256,79163,1,0,0:0:0:0:
260,301,79311,1,8,0:0:0:0:
260,301,79460,1,8,0:0:0:0:
260,301,79608,1,8,0:0:0:0:
168,269,79757,1,4,0:0:0:0:
241,248,80054,1,0,0:0:0:0:
334,217,80202,1,8,0:0:0:0:
241,248,80351,1,0,0:0:0:0:
227,227,80648,1,0,0:0:0:0:
230,201,80796,1,8,0:0:0:0:
224,227,80945,1,0,0:0:0:0:
263,276,81242,1,8,0:0:0:0:
263,276,81390,1,8,0:0:0:0:
301,226,81539,1,0,0:0:0:0:
263,276,81687,1,0,0:0:0:0:
276,226,81836,1,8,0:0:0:0:
276,226,82133,1,0,0:0:0:0:
253,189,82430,1,8,0:0:0:0:
267,241,82579,1,0,0:0:0:0:
267,241,82727,1,0,0:0:0:0:
232,197,82876,1,8,0:0:0:0:
297,234,83024,1,0,0:0:0:0:
362,242,83173,1,8,0:0:0:0:
364,274,83321,1,0,0:0:0:0:
364,256,83618,1,0,0:0:0:0:
289,248,83767,1,8,0:0:0:0:
90,259,84064,1,0,0:0:0:0:
382,218,84212,1,8,0:0:0:0:
382,218,84361,1,8,0:0:0:0:
344,246,84509,1,0,0:0:0:0:
222,253,84806,1,8,0:0:0:0:
312,210,84955,1,0,0:0:0:0:
222,253,85103,1,8,0:0:0:0:
263,213,85400,1,0,0:0:0:0:
257,208,85549,1,8,0:0:0:0:
263,213,85697,1,8,0:0:0:0:
240,268,85994,1,0,0:0:0:0:
369,167,86143,1,0,0:0:0:0:
164,194,86291,1,8,0:0:0:0:
232,251,86588,1,8,0:0:0:0:
191,195,86737,1,8,0:0:0:0:
153,195,86886,1,0,0:0:0:0:
304,245,87183,1,0,0:0:0:0:
242,186,87331,1,8,0:0:0:0:
217,176,87480,1,8,0:0:0:0:
227,233,87628,1,0,0:0:0:0:
227,233,87777,1,0,0:0:0:0:
223,176,87925,1,8,0:0:0:0:
227,233,88074,1,4,0:0:0:0:
262,271,88371,1,0,0:0:0:0:
294,206,88519,1,8,0:0:0:0:
268,283,88668,1,0,0:0:0:0:
268,283,88742,1,0,0:0:0:0:
268,283,88816,1,0,0:0:0:0:
285,168,88965,1,8,0:0:0:0:
312,184,89113,1,0,0:0:0:0:
275,151,89262,1,12,0:0:0:0:
316,170,89559,1,0,0:0:0:0:
287,205,89707,1,8,0:0:0:0:
261,215,89856,1,8,0:0:0:0:
322,231,89930,1,8,0:0:0:0:
286,246,90004,1,0,0:0:0:0:
161,181,90153,1,0,0:0:0:0:
255,211,90301,1,8,0:0:0:0:
217,269,90450,1,0,0:0:0:0:
219,195,90747,1,8,0:0:0:0:
230,209,90895,1,8,0:0:0:0:
178,210,91044,1,0,0:0:0:0:
306,171,91192,1,0,0:0:0:0:
253,155,91341,1,8,0:0:0:0:
217,178,91638,1,0,0:0:0:0:
391,235,91935,1,0,0:0:0:0:
252,160,92084,1,8,0:0:0:0:
210,151,92232,1,0,0:0:0:0:
181,162,92381,1,8,0:0:0:0:
239,196,92529,1,8,0:0:0:0:
229,225,92603,1,8,0:0:0:0:
239,196,92678,1,8,0:0:0:0:
222,240,92826,1,0,0:0:0:0:
394,208,93123,1,0,0:0:0:0:
175,225,93272,1,8,0:0:0:0:
239,241,93569,1,8,0:0:0:0:
159,196,93717,1,0,0:0:0:0:
239,241,93866,1,8,0:0:0:0:
195,231,94014,1,4,0:0:0:0:
244,223,94311,1,8,0:0:0:0:
230,221,94460,1,8,0:0:0:0:
263,218,94608,1,0,0:0:0:0:
276,215,94757,1,0,0:0:0:0:
315,213,94831,1,0,0:0:0:0:
232,241,94905,1,0,0:0:0:0:
259,210,95054,1,8,0:0:0:0:
301,195,95202,1,0,0:0:0:0:
352,220,95499,1,0,0:0:0:0:
218,260,95648,1,8,0:0:0:0:
362,216,95796,1,0,0:0:0:0:
223,219,95945,1,8,0:0:0:0:
329,216,96242,1,8,0:0:0:0:
266,212,96390,1,4,0:0:0:0:
399,175,96687,1,0,0:0:0:0:
333,209,96836,1,8,0:0:0:0:
289,238,96985,1,0,0:0:0:0:
308,231,97059,1,0,0:0:0:0:
287,210,97133,1,8,0:0:0:0:
317,211,97282,1,0,0:0:0:0:
348,196,97430,1,8,0:0:0:0:
216,224,97579,1,4,0:0:0:0:
238,300,98470,1,0,0:0:0:0:
238,300,98544,1,0,0:0:0:0:
305,212,98618,1,8,0:0:0:0:
258,240,98915,1,4,0:0:0:0:
218,264,99212,1,8,0:0:0:0:
366,251,99361,1,0,0:0:0:0:
239,227,99435,1,0,0:0:0:0:
218,264,99509,1,8,0:0:0:0:
278,237,99658,1,0,0:0:0:0:
290,170,99806,1,0,0:0:0:0:
220,246,99955,1,8,0:0:0:0:
220,246,100252,1,8,0:0:0:0:
186,206,100400,1,0,0:0:0:0:
230,225,100549,1,8,0:0:0:0:
230,225,100623,1,8,0:0:0:0:
298,196,100697,1,0,0:0:0:0:
244,331,100772,1,0,0:0:0:0:
228,179,100846,1,8,0:0:0:0:
240,253,100994,1,0,0:0:0:0:
326,227,101143,1,8,0:0:0:0:
223,194,101291,1,8,0:0:0:0:
187,161,101588,1,8,0:0:0:0:
265,170,101737,1,0,0:0:0:0:
187,161,101886,1,8,0:0:0:0:
188,175,102034,1,0,0:0:0:0:
383,202,102108,1,0,0:0:0:0:
247,206,102183,1,0,0:0:0:0:
286,192,102331,1,8,0:0:0:0:
193,214,102480,1,0,0:0:0:0:
248,244,102628,1,8,0:0:0:0:
118,225,102702,1,8,0:0:0:0:
240,239,102777,1,0,0:0:0:0:
259,254,102925,1,8,0:0:0:0:
237,238,103074,1,0,0:0:0:0:
283,180,103222,1,8,0:0:0:0:
284,180,103519,1,8,0:0:0:0:
205,239,103668,1,4,0:0:0:0:
165,188,103965,1,8,0:0:0:0:
292,223,104113,1,8,0:0:0:0:
240,293,104262,1,0,0:0:0:0:
257,249,104336,1,0,0:0:0:0:
268,172,104410,1,0,0:0:0:0:
193,178,104559,1,8,0:0:0:0:
330,204,104707,1,0,0:0:0:0:
301,203,105004,1,8,0:0:0:0:
259,214,105153,1,0,0:0:0:0:
225,179,105301,1,8,0:0:0:0:
336,193,105376,1,8,0:0:0:0:
254,185,105450,1,0,0:0:0:0:
328,195,105524,1,0,0:0:0:0:
282,195,105598,1,8,0:0:0:0:
224,180,105747,1,0,0:0:0:0:
309,203,105895,1,0,0:0:0:0:
266,213,106044,1,12,0:0:0:0:
262,265,106341,1,0,0:0:0:0:
218,203,106489,1,8,0:0:0:0:
258,252,106638,1,0,0:0:0:0:
253,232,106935,1,12,0:0:0:0:
262,265,107232,1,0,0:0:0:0:
273,195,107381,1,8,0:0:0:0:
235,202,107678,1,8,0:0:0:0:
230,138,107826,1,0,0:0:0:0:
232,218,107975,1,0,0:0:0:0:
120,255,108049,1,0,0:0:0:0:
236,270,108123,1,8,0:0:0:0:
263,254,108272,1,8,0:0:0:0:
419,232,108346,1,8,0:0:0:0:
236,210,108420,1,4,0:0:0:0:
236,270,108717,1,8,0:0:0:0:
353,230,108866,1,0,0:0:0:0:
272,185,108940,1,0,0:0:0:0:
272,185,109014,1,8,0:0:0:0:
332,237,109163,1,0,0:0:0:0:
278,272,109311,1,8,0:0:0:0:
319,235,109460,1,0,0:0:0:0:
327,263,109757,1,8,0:0:0:0:
237,285,109905,1,0,0:0:0:0:
278,202,110054,1,8,0:0:0:0:
248,175,110128,1,0,0:0:0:0:
193,211,110202,1,0,0:0:0:0:
193,241,110277,1,0,0:0:0:0:
180,246,110351,1,8,0:0:0:0:
249,234,110499,1,0,0:0:0:0:
244,185,110648,1,8,0:0:0:0:
291,194,110796,1,8,0:0:0:0:
294,234,111093,1,8,0:0:0:0:
253,245,111242,1,0,0:0:0:0:
343,243,111316,1,0,0:0:0:0:
291,194,111390,1,8,0:0:0:0:
343,243,111539,1,0,0:0:0:0:
226,215,111687,1,8,0:0:0:0:
223,260,111762,1,0,0:0:0:0:
211,188,111836,1,8,0:0:0:0:
325,233,111985,1,0,0:0:0:0:
190,185,112133,1,8,0:0:0:0:
348,173,112207,1,8,0:0:0:0:
264,264,112282,1,0,0:0:0:0:
382,191,112430,1,8,0:0:0:0:
203,128,112579,1,8,0:0:0:0:
285,188,112727,1,0,0:0:0:0:
305,199,113024,1,8,0:0:0:0:
188,141,113173,1,4,0:0:0:0:
160,241,113470,1,8,0:0:0:0:
179,191,113618,1,0,0:0:0:0:
284,198,113692,1,8,0:0:0:0:
190,188,113767,1,0,0:0:0:0:
233,261,113915,1,0,0:0:0:0:
233,261,114064,1,8,0:0:0:0:
264,214,114212,1,0,0:0:0:0:
199,211,114509,1,8,0:0:0:0:
259,188,114658,1,8,0:0:0:0:
180,268,114806,1,0,0:0:0:0:
177,239,114881,1,0,0:0:0:0:
294,245,114955,1,0,0:0:0:0:
355,182,115103,1,8,0:0:0:0:
133,292,115252,1,0,0:0:0:0:
133,292,115400,1,0,0:0:0:0:
243,252,115549,1,12,0:0:0:0:
219,263,115846,1,0,0:0:0:0:
243,252,115994,1,8,0:0:0:0:
219,263,116143,1,0,0:0:0:0:
243,252,116440,1,12,0:0:0:0:
269,216,116737,1,0,0:0:0:0:
215,219,116886,1,0,0:0:0:0:
229,188,117183,1,0,0:0:0:0:
262,168,117331,1,8,0:0:0:0:
236,196,117480,1,0,0:0:0:0:
234,195,117628,1,12,0:0:0:0:
344,214,117925,1,4,0:0:0:0:
332,191,118222,1,8,0:0:0:0:
338,235,118371,1,0,0:0:0:0:
332,191,118519,1,8,0:0:0:0:
261,256,118816,1,0,0:0:0:0:
292,248,119113,1,8,0:0:0:0:
360,186,119262,1,0,0:0:0:0:
358,187,119336,1,0,0:0:0:0:
253,223,119410,1,8,0:0:0:0:
330,222,119559,1,0,0:0:0:0:
254,223,119707,1,8,0:0:0:0:
246,204,119856,1,8,0:0:0:0:
332,221,120004,1,0,0:0:0:0:
317,209,120153,1,8,0:0:0:0:
292,182,120227,1,8,0:0:0:0:
348,218,120301,1,0,0:0:0:0:
216,263,120450,1,0,0:0:0:0:
265,250,120598,1,8,0:0:0:0:
187,198,120895,1,0,0:0:0:0:
350,257,121192,1,8,0:0:0:0:
266,225,121341,1,8,0:0:0:0:
326,266,121489,1,0,0:0:0:0:
170,243,121638,1,8,0:0:0:0:
170,243,121712,1,8,0:0:0:0:
170,243,121786,1,8,0:0:0:0:
170,243,121861,1,8,0:0:0:0:
262,230,121935,1,4,0:0:0:0:
262,230,122232,1,4,0:0:0:0:
281,265,122529,1,8,0:0:0:0:
297,256,122678,1,4,0:0:0:0:
164,249,122975,1,8,0:0:0:0:
308,201,123123,1,0,0:0:0:0:
164,249,123272,1,8,0:0:0:0:
193,254,123569,1,8,0:0:0:0:
269,199,123717,1,8,0:0:0:0:
247,218,123866,1,0,0:0:0:0:
247,218,124014,1,0,0:0:0:0:
273,238,124088,1,0,0:0:0:0:
247,218,124163,1,0,0:0:0:0:
325,251,124311,1,8,0:0:0:0:
307,180,124608,1,8,0:0:0:0:
341,185,124757,1,0,0:0:0:0:
307,180,124905,1,8,0:0:0:0:
307,180,124980,1,8,0:0:0:0:
291,187,125054,1,0,0:0:0:0:
296,200,125202,1,0,0:0:0:0:
353,158,125351,1,8,0:0:0:0:
301,219,125499,1,8,0:0:0:0:
196,222,125648,1,0,0:0:0:0:
218,180,125796,1,0,0:0:0:0:
241,222,125945,1,12,0:0:0:0:
196,222,126242,1,0,0:0:0:0:
241,200,126390,1,12,0:0:0:0:
241,200,126687,1,12,0:0:0:0:
196,222,126985,1,0,0:0:0:0:
99,184,127133,1,0,0:0:0:0:
264,187,127282,1,8,0:0:0:0:
264,187,127356,1,8,0:0:0:0:
188,160,127430,1,4,0:0:0:0:
243,198,127727,1,0,0:0:0:0:
228,170,127876,1,0,0:0:0:0:
323,228,128024,1,8,0:0:0:0:
271,222,128321,1,0,0:0:0:0:
238,249,128618,1,8,0:0:0:0:
376,201,128767,1,0,0:0:0:0:
248,218,128841,1,8,0:0:0:0:
278,199,128915,1,0,0:0:0:0:
200,214,129064,1,0,0:0:0:0:
232,304,129212,1,8,0:0:0:0:
374,198,129361,1,8,0:0:0:0:
266,178,129509,1,0,0:0:0:0:
297,192,129658,1,8,0:0:0:0:
297,192,129732,1,8,0:0:0:0:
272,220,129806,1,0,0:0:0:0:
293,194,129955,1,0,0:0:0:0:
229,183,130103,1,8,0:0:0:0:
408,195,130400,1,0,0:0:0:0:
261,223,130697,1,8,0:0:0:0:
247,231,130846,1,0,0:0:0:0:
277,184,130994,1,8,0:0:0:0:
235,183,131143,1,8,0:0:0:0:
235,183,131217,1,8,0:0:0:0:
235,183,131291,1,8,0:0:0:0:
235,183,131366,1,8,0:0:0:0:
332,154,131440,1,4,0:0:0:0:
285,168,131737,1,4,0:0:0:0:
309,193,132034,1,8,0:0:0:0:
277,166,132183,1,4,0:0:0:0:
304,205,132480,1,0,0:0:0:0:
304,205,132628,1,0,0:0:0:0:
338,189,132777,1,8,0:0:0:0:
327,189,133074,1,0,0:0:0:0:
348,239,133371,1,8,0:0:0:0:
243,203,133519,1,0,0:0:0:0:
243,203,133593,1,0,0:0:0:0:
348,239,133668,1,8,0:0:0:0:
415,206,133816,1,8,0:0:0:0:
243,203,133965,1,0,0:0:0:0:
351,185,134113,1,8,0:0:0:0:
344,181,134262,1,8,0:0:0:0:
418,196,134410,1,0,0:0:0:0:
322,220,134485,1,0,0:0:0:0:
356,206,134559,1,0,0:0:0:0:
252,240,134707,1,0,0:0:0:0:
337,201,134856,1,12,0:0:0:0:
252,240,135153,1,0,0:0:0:0:
252,240,135301,1,0,0:0:0:0:
256,214,135450,1,12,0:0:0:0:
291,207,135747,1,8,0:0:0:0:
367,223,135895,1,0,0:0:0:0:
280,208,136044,1,8,0:0:0:0:
280,208,136192,1,0,0:0:0:0:
393,190,136341,1,8,0:0:0:0:
367,223,136489,1,8,0:0:0:0:
335,220,136638,1,8,0:0:0:0:
332,174,136786,1,4,0:0:0:0:
220,253,137084,1,0,0:0:0:0:
328,232,137232,1,8,0:0:0:0:
304,220,137381,1,0,0:0:0:0:
220,253,137678,1,0,0:0:0:0:
302,239,137826,1,8,0:0:0:0:
209,196,137975,1,0,0:0:0:0:
279,197,138272,1,8,0:0:0:0:
239,199,138420,1,8,0:0:0:0:
293,197,138569,1,0,0:0:0:0:
257,239,138866,1,8,0:0:0:0:
234,261,139014,1,0,0:0:0:0:
166,241,139163,1,8,0:0:0:0:
228,194,139460,1,0,0:0:0:0:
273,208,139608,1,0,0:0:0:0:
233,216,139757,1,8,0:0:0:0:
310,210,139905,1,8,0:0:0:0:
349,193,140054,1,0,0:0:0:0:
316,173,140202,1,0,0:0:0:0:
273,208,140351,1,8,0:0:0:0:
175,237,140648,1,0,0:0:0:0:
197,181,140796,1,8,0:0:0:0:
233,215,141093,1,0,0:0:0:0:
240,175,141242,1,0,0:0:0:0:
257,201,141390,1,8,0:0:0:0:
257,201,141539,1,8,0:0:0:0:
243,187,141836,1,0,0:0:0:0:
249,198,141985,1,8,0:0:0:0:
243,187,142133,1,0,0:0:0:0:
369,205,142430,1,0,0:0:0:0:
158,185,142579,1,8,0:0:0:0:
242,200,142727,1,8,0:0:0:0:
210,249,143024,1,0,0:0:0:0:
371,194,143173,1,0,0:0:0:0:
188,195,143321,1,8,0:0:0:0:
262,247,143618,1,8,0:0:0:0:
252,250,143767,1,0,0:0:0:0:
266,213,143915,1,8,0:0:0:0:
247,271,144212,1,0,0:0:0:0:
265,177,144361,1,8,0:0:0:0:
284,229,144658,1,0,0:0:0:0:
284,229,144806,1,0,0:0:0:0:
353,205,144955,1,8,0:0:0:0:
239,225,145103,1,4,0:0:0:0:
268,229,145400,1,8,0:0:0:0:
156,223,145549,1,8,0:0:0:0:
289,259,145697,1,0,0:0:0:0:
289,259,145772,1,0,0:0:0:0:
246,238,145846,1,0,0:0:0:0:
246,238,145994,1,0,0:0:0:0:
300,229,146143,1,8,0:0:0:0:
135,224,146291,1,4,0:0:0:0:
230,191,146588,1,8,0:0:0:0:
239,261,146737,1,0,0:0:0:0:
311,198,146886,1,8,0:0:0:0:
230,215,146960,1,8,0:0:0:0:
322,173,147034,1,0,0:0:0:0:
269,220,147183,1,0,0:0:0:0:
219,236,147331,1,8,0:0:0:0:
219,236,147480,1,8,0:0:0:0:
359,221,147777,1,0,0:0:0:0:
242,272,147925,1,8,0:0:0:0:
246,250,148074,1,0,0:0:0:0:
262,210,148222,1,0,0:0:0:0:
279,251,148371,1,8,0:0:0:0:
246,250,148668,1,0,0:0:0:0:
366,229,148965,1,0,0:0:0:0:
261,228,149113,1,8,0:0:0:0:
259,229,149262,1,8,0:0:0:0:
263,220,149410,1,0,0:0:0:0:
259,229,149559,1,8,0:0:0:0:
187,239,149633,1,8,0:0:0:0:
259,229,149707,1,8,0:0:0:0:
288,216,149856,1,0,0:0:0:0:
240,224,150153,1,8,0:0:0:0:
182,226,150301,1,0,0:0:0:0:
333,178,150598,1,0,0:0:0:0:
268,215,150747,1,8,0:0:0:0:
268,215,150895,1,8,0:0:0:0:
281,186,151044,1,4,0:0:0:0:
250,213,151341,1,0,0:0:0:0:
250,189,151489,1,0,0:0:0:0:
195,271,151638,1,8,0:0:0:0:
195,271,151786,1,0,0:0:0:0:
357,210,151861,1,0,0:0:0:0:
260,213,151935,1,0,0:0:0:0:
260,213,152084,1,0,0:0:0:0:
272,208,152232,1,8,0:0:0:0:
366,238,152529,1,0,0:0:0:0:
250,213,152678,1,8,0:0:0:0:
351,243,152826,1,0,0:0:0:0:
351,243,152975,1,0,0:0:0:0:
305,223,153123,1,8,0:0:0:0:
232,225,153420,1,4,0:0:0:0:
226,178,153717,1,0,0:0:0:0:
361,221,153866,1,8,0:0:0:0:
375,169,154014,1,0,0:0:0:0:
273,249,154088,1,0,0:0:0:0:
351,224,154163,1,8,0:0:0:0:
375,169,154311,1,0,0:0:0:0:
377,208,154460,1,0,0:0:0:0:
364,211,154608,1,12,0:0:0:0:
296,229,154905,1,0,0:0:0:0:
271,209,154980,1,0,0:0:0:0:
291,209,155054,1,0,0:0:0:0:
271,209,155202,1,8,0:0:0:0:
177,239,155277,1,8,0:0:0:0:
271,209,155351,1,8,0:0:0:0:
447,178,155499,1,0,0:0:0:0:
262,314,155574,1,0,0:0:0:0:
305,278,155648,1,8,0:0:0:0:
305,278,155722,1,8,0:0:0:0:
271,209,155796,1,8,0:0:0:0:
305,278,155871,1,8,0:0:0:0:
244,191,155945,5,0,0:0:0:0:
119,209,156242,1,12,0:0:0:0:
366,251,156390,1,0,0:0:0:0:
239,227,156465,1,0,0:0:0:0:
218,264,156539,1,8,0:0:0:0:
278,237,156687,1,0,0:0:0:0:
240,227,156836,1,0,0:0:0:0:
220,246,156985,1,12,0:0:0:0:
220,246,157282,1,8,0:0:0:0:
186,206,157430,1,0,0:0:0:0:
230,225,157579,1,8,0:0:0:0:
230,225,157653,1,8,0:0:0:0:
298,196,157727,1,0,0:0:0:0:
346,207,157801,1,0,0:0:0:0:
228,179,157876,1,8,0:0:0:0:
262,236,158024,1,0,0:0:0:0:
326,227,158173,1,8,0:0:0:0:
223,194,158321,1,8,0:0:0:0:
187,161,158618,1,8,0:0:0:0:
265,170,158767,1,0,0:0:0:0:
187,161,158915,1,8,0:0:0:0:
369,191,158989,1,0,0:0:0:0:
283,266,159064,1,8,0:0:0:0:
273,183,159138,1,8,0:0:0:0:
247,206,159212,1,0,0:0:0:0:
286,192,159361,1,8,0:0:0:0:
164,210,159509,1,0,0:0:0:0:
248,244,159658,1,8,0:0:0:0:
118,225,159732,1,0,0:0:0:0:
240,239,159806,1,0,0:0:0:0:
244,202,159881,1,0,0:0:0:0:
259,254,159955,1,8,0:0:0:0:
237,238,160103,1,0,0:0:0:0:
283,180,160252,1,8,0:0:0:0:
215,279,160326,1,8,0:0:0:0:
378,214,160400,1,0,0:0:0:0:
261,281,160549,1,8,0:0:0:0:
205,239,160697,1,4,0:0:0:0:
165,188,160994,1,8,0:0:0:0:
274,270,161143,1,0,0:0:0:0:
257,249,161291,1,8,0:0:0:0:
240,293,161366,1,8,0:0:0:0:
268,172,161440,1,8,0:0:0:0:
330,204,161588,1,0,0:0:0:0:
193,178,161737,1,8,0:0:0:0:
307,232,162034,1,8,0:0:0:0:
259,214,162183,1,0,0:0:0:0:
225,179,162331,1,8,0:0:0:0:
202,230,162405,1,8,0:0:0:0:
318,205,162480,1,0,0:0:0:0:
282,239,162554,1,0,0:0:0:0:
282,195,162628,1,8,0:0:0:0:
224,180,162777,1,0,0:0:0:0:
309,203,162925,1,0,0:0:0:0:
266,213,163074,1,12,0:0:0:0:
262,265,163371,1,0,0:0:0:0:
172,223,163519,1,8,0:0:0:0:
262,265,163668,1,0,0:0:0:0:
253,232,163965,1,8,0:0:0:0:
262,265,164262,1,0,0:0:0:0:
248,251,164410,1,12,0:0:0:0:
257,201,164707,1,8,0:0:0:0:
264,186,164856,1,0,0:0:0:0:
232,218,165004,1,0,0:0:0:0:
120,255,165079,1,0,0:0:0:0:
236,270,165153,1,8,0:0:0:0:
263,254,165301,1,8,0:0:0:0:
232,255,165376,1,8,0:0:0:0:
236,210,165450,1,4,0:0:0:0:
236,270,165747,1,8,0:0:0:0:
353,230,165895,1,0,0:0:0:0:
272,185,165970,1,0,0:0:0:0:
272,185,166044,1,8,0:0:0:0:
332,237,166192,1,0,0:0:0:0:
278,272,166341,1,8,0:0:0:0:
319,235,166489,1,0,0:0:0:0:
327,263,166786,1,8,0:0:0:0:
237,285,166935,1,0,0:0:0:0:
200,259,167084,1,8,0:0:0:0:
191,194,167158,1,8,0:0:0:0:
193,211,167232,1,0,0:0:0:0:
182,205,167306,1,0,0:0:0:0:
180,246,167381,1,8,0:0:0:0:
378,225,167529,1,0,0:0:0:0:
219,203,167678,1,0,0:0:0:0:
291,194,167826,1,8,0:0:0:0:
294,234,168123,1,8,0:0:0:0:
163,270,168272,1,0,0:0:0:0:
163,270,168346,1,0,0:0:0:0:
291,194,168420,1,8,0:0:0:0:
195,249,168569,1,0,0:0:0:0:
275,164,168717,1,8,0:0:0:0:
374,262,168791,1,0,0:0:0:0:
211,188,168866,1,8,0:0:0:0:
236,172,169014,1,0,0:0:0:0:
190,185,169163,1,8,0:0:0:0:
316,126,169237,1,0,0:0:0:0:
264,264,169311,1,0,0:0:0:0:
327,174,169386,1,0,0:0:0:0:
382,191,169460,1,8,0:0:0:0:
285,188,169608,1,0,0:0:0:0:
203,128,169757,1,8,0:0:0:0:
382,206,169831,1,8,0:0:0:0:
327,174,169905,1,0,0:0:0:0:
305,199,170054,1,8,0:0:0:0:
188,141,170202,1,4,0:0:0:0:
160,241,170499,1,8,0:0:0:0:
389,242,170648,1,8,0:0:0:0:
232,291,170796,1,0,0:0:0:0:
389,242,170871,1,0,0:0:0:0:
233,261,170945,1,0,0:0:0:0:
233,261,171093,1,8,0:0:0:0:
264,214,171242,1,0,0:0:0:0:
199,211,171539,1,8,0:0:0:0:
213,284,171687,1,0,0:0:0:0:
210,270,171836,1,8,0:0:0:0:
287,196,171910,1,8,0:0:0:0:
308,223,171985,1,0,0:0:0:0:
308,223,172059,1,0,0:0:0:0:
355,182,172133,1,8,0:0:0:0:
133,292,172282,1,0,0:0:0:0:
133,292,172430,1,0,0:0:0:0:
243,252,172579,1,12,0:0:0:0:
219,263,172876,1,0,0:0:0:0:
243,252,173024,1,12,0:0:0:0:
219,263,173321,1,0,0:0:0:0:
243,252,173470,1,12,0:0:0:0:
269,216,173767,1,0,0:0:0:0:
215,219,173915,1,0,0:0:0:0:
262,168,174212,1,0,0:0:0:0:
229,188,174361,1,8,0:0:0:0:
236,196,174509,1,0,0:0:0:0:
234,195,174658,1,8,0:0:0:0:
344,214,174806,1,4,0:0:0:0:
202,218,175103,1,0,0:0:0:0:
344,236,175252,1,12,0:0:0:0:
315,247,175549,1,0,0:0:0:0:
315,247,175697,1,0,0:0:0:0:
408,184,175846,1,8,0:0:0:0:
368,211,175994,1,0,0:0:0:0:
235,225,176069,1,0,0:0:0:0:
235,225,176143,1,0,0:0:0:0:
289,180,176291,1,0,0:0:0:0:
332,251,176440,1,8,0:0:0:0:
315,247,176737,1,0,0:0:0:0:
308,228,176886,1,8,0:0:0:0:
259,167,177034,1,0,0:0:0:0:
308,228,177183,1,12,0:0:0:0:
302,190,177480,1,0,0:0:0:0:
354,163,177628,1,8,0:0:0:0:
247,255,177925,1,8,0:0:0:0:
268,196,178074,1,0,0:0:0:0:
281,181,178222,1,8,0:0:0:0:
404,175,178371,1,0,0:0:0:0:
299,150,178445,1,0,0:0:0:0:
291,195,178519,1,8,0:0:0:0:
490,203,178668,1,0,0:0:0:0:
203,189,178816,1,8,0:0:0:0:
203,189,178965,1,0,0:0:0:0:
303,186,179113,1,8,0:0:0:0:
207,218,179187,1,8,0:0:0:0:
254,184,179262,1,0,0:0:0:0:
257,207,179410,1,8,0:0:0:0:
301,133,179559,1,4,0:0:0:0:
223,261,179856,1,0,0:0:0:0:
353,178,180004,1,8,0:0:0:0:
233,269,180301,1,0,0:0:0:0:
233,269,180450,1,0,0:0:0:0:
292,175,180598,1,8,0:0:0:0:
315,195,180747,1,0,0:0:0:0:
315,195,180821,1,0,0:0:0:0:
315,195,180895,1,8,0:0:0:0:
266,180,181044,1,0,0:0:0:0:
417,171,181192,1,8,0:0:0:0:
285,225,181489,1,0,0:0:0:0:
391,161,181638,1,8,0:0:0:0:
315,195,181786,1,0,0:0:0:0:
295,261,181935,1,12,0:0:0:0:
188,275,182232,1,0,0:0:0:0:
262,263,182381,1,8,0:0:0:0:
249,271,182678,1,8,0:0:0:0:
192,213,182826,1,0,0:0:0:0:
185,170,182975,1,8,0:0:0:0:
354,217,183123,1,0,0:0:0:0:
307,246,183197,1,0,0:0:0:0:
354,217,183272,1,8,0:0:0:0:
279,172,183420,1,0,0:0:0:0:
279,172,183494,1,0,0:0:0:0:
279,172,183569,1,8,0:0:0:0:
317,230,183643,1,8,0:0:0:0:
279,172,183717,1,0,0:0:0:0:
256,250,183866,1,8,0:0:0:0:
168,190,184014,1,4,0:0:0:0:
220,279,184311,1,12,0:0:0:0:
389,261,184608,1,0,0:0:0:0:
250,208,184757,1,8,0:0:0:0:
230,209,185054,1,0,0:0:0:0:
150,225,185202,1,0,0:0:0:0:
277,203,185351,1,8,0:0:0:0:
261,254,185499,1,0,0:0:0:0:
261,254,185574,1,0,0:0:0:0:
150,225,185648,1,0,0:0:0:0:
150,225,185796,1,0,0:0:0:0:
279,202,185945,1,8,0:0:0:0:
193,178,186242,1,0,0:0:0:0:
238,172,186390,1,0,0:0:0:0:
331,173,186539,1,8,0:0:0:0:
231,200,186687,1,4,0:0:0:0:
268,239,186985,1,0,0:0:0:0:
299,229,187133,1,8,0:0:0:0:
235,258,187430,1,8,0:0:0:0:
257,189,187579,1,0,0:0:0:0:
264,252,187727,1,8,0:0:0:0:
237,233,187876,1,0,0:0:0:0:
261,254,187950,1,0,0:0:0:0:
215,201,188024,1,8,0:0:0:0:
222,215,188173,1,8,0:0:0:0:
200,275,188321,1,0,0:0:0:0:
379,204,188470,1,8,0:0:0:0:
189,219,188618,1,0,0:0:0:0:
215,201,188692,1,0,0:0:0:0:
266,186,188767,1,8,0:0:0:0:
282,241,188915,1,0,0:0:0:0:
271,221,189064,1,12,0:0:0:0:
311,205,189361,1,0,0:0:0:0:
234,249,189509,1,8,0:0:0:0:
321,218,189806,1,0,0:0:0:0:
319,218,189955,1,0,0:0:0:0:
238,215,190103,1,8,0:0:0:0:
233,236,190252,1,0,0:0:0:0:
260,204,190326,1,0,0:0:0:0:
233,236,190400,1,8,0:0:0:0:
320,197,190549,1,0,0:0:0:0:
222,238,190697,1,8,0:0:0:0:
226,257,190994,1,0,0:0:0:0:
226,257,191143,1,0,0:0:0:0:
423,219,191291,1,8,0:0:0:0:
277,218,191440,1,4,0:0:0:0:
316,198,191737,1,0,0:0:0:0:
326,224,191886,1,8,0:0:0:0:
189,219,192183,1,0,0:0:0:0:
275,234,192331,1,0,0:0:0:0:
277,218,192480,1,12,0:0:0:0:
296,263,192777,1,0,0:0:0:0:
290,279,192876,1,0,0:0:0:0:
290,279,192975,1,0,0:0:0:0:
291,259,193074,1,8,0:0:0:0:
188,147,193222,1,0,0:0:0:0:
291,259,193371,1,8,0:0:0:0:
205,217,193470,1,8,0:0:0:0:
312,210,193569,1,8,0:0:0:0:
312,210,193668,1,0,0:0:0:0:
209,244,193965,1,12,0:0:0:0:
256,192,194113,12,0,198717,0:0:0:0:
202,225,203173,5,0,0:0:0:0:
229,219,203470,1,0,0:0:0:0:
194,206,203767,1,8,0:0:0:0:
408,144,204064,1,0,0:0:0:0:
347,212,204658,1,8,0:0:0:0:
179,238,205252,1,8,0:0:0:0:
187,273,205549,1,0,0:0:0:0:
167,278,205846,1,0,0:0:0:0:
213,268,206143,1,8,0:0:0:0:
213,268,206440,1,8,0:0:0:0:
201,262,206737,1,0,0:0:0:0:
213,268,207034,1,8,0:0:0:0:
213,268,207331,1,8,0:0:0:0:
326,178,207925,1,0,0:0:0:0:
154,204,208222,1,0,0:0:0:0:
219,204,208816,1,0,0:0:0:0:
127,197,209410,1,8,0:0:0:0:
263,206,210004,1,8,0:0:0:0:
180,193,210301,1,0,0:0:0:0:
265,206,210598,1,8,0:0:0:0:
263,206,210895,1,8,0:0:0:0:
144,230,211489,1,0,0:0:0:0:
266,233,212084,1,8,0:0:0:0:
168,212,212678,1,8,0:0:0:0:
220,203,212975,1,0,0:0:0:0:
354,194,213569,1,0,0:0:0:0:
149,206,214163,1,8,0:0:0:0:
326,195,214757,1,0,0:0:0:0:
326,195,215054,1,0,0:0:0:0:
83,165,215351,1,8,0:0:0:0:
305,224,215648,1,0,0:0:0:0:
384,196,215945,1,0,0:0:0:0:
122,129,216242,1,8,0:0:0:0:
227,179,216836,1,8,0:0:0:0:
229,251,217133,1,0,0:0:0:0:
192,205,217430,1,8,0:0:0:0:
261,149,217747,1,0,0:0:0:0:
277,236,218341,1,8,0:0:0:0:
154,234,218639,1,0,0:0:0:0:
251,186,218788,1,8,0:0:0:0:
243,189,219085,1,8,0:0:0:0:
221,248,219234,1,0,0:0:0:0:
198,259,219531,1,8,0:0:0:0:
186,186,219829,1,0,0:0:0:0:
199,257,219978,1,8,0:0:0:0:
243,210,220126,1,0,0:0:0:0:
241,181,220721,1,8,0:0:0:0:
253,189,221167,1,0,0:0:0:0:
190,182,221465,1,0,0:0:0:0:
283,205,221614,1,8,0:0:0:0:
230,223,221911,1,0,0:0:0:0:
252,194,222209,1,8,0:0:0:0:
187,183,222358,1,8,0:0:0:0:
137,199,222506,1,0,0:0:0:0:
218,258,223101,1,8,0:0:0:0:
278,200,223547,1,0,0:0:0:0:
179,174,223845,1,8,0:0:0:0:
233,196,223994,1,0,0:0:0:0:
197,210,224291,1,8,0:0:0:0:
242,275,224589,1,0,0:0:0:0:
281,242,224737,1,0,0:0:0:0:
325,240,224886,1,8,0:0:0:0:
256,192,225035,12,0,226638,0:0:0:0:
328,285,226860,5,0,0:0:0:0:
328,285,226935,1,0,0:0:0:0:
189,227,227232,1,12,0:0:0:0:
182,205,227529,1,0,0:0:0:0:
233,251,227751,1,8,0:0:0:0:
236,281,227826,1,0,0:0:0:0:
217,285,227974,1,0,0:0:0:0:
228,189,228123,1,8,0:0:0:0:
207,190,228420,1,0,0:0:0:0:
204,195,228568,1,0,0:0:0:0:
377,186,228717,1,8,0:0:0:0:
278,198,228939,1,8,0:0:0:0:
278,198,229014,1,0,0:0:0:0:
274,223,229162,1,0,0:0:0:0:
243,231,229311,1,8,0:0:0:0:
271,270,229608,1,12,0:0:0:0:
269,215,229905,1,0,0:0:0:0:
255,241,230128,1,8,0:0:0:0:
223,241,230202,1,0,0:0:0:0:
220,241,230350,1,0,0:0:0:0:
281,215,230499,1,8,0:0:0:0:
272,196,230796,1,0,0:0:0:0:
313,206,230944,1,0,0:0:0:0:
260,205,231093,1,8,0:0:0:0:
215,165,231316,1,0,0:0:0:0:
260,205,231390,1,8,0:0:0:0:
260,205,231464,1,8,0:0:0:0:
215,165,231538,1,0,0:0:0:0:
258,184,231687,1,8,0:0:0:0:
217,200,231984,1,12,0:0:0:0:
273,203,232281,1,0,0:0:0:0:
216,181,232504,1,8,0:0:0:0:
216,181,232578,1,0,0:0:0:0:
216,181,232727,1,0,0:0:0:0:
303,201,232875,5,8,0:0:0:0:
278,254,233172,1,0,0:0:0:0:
297,249,233321,1,0,0:0:0:0:
284,212,233469,1,8,0:0:0:0:
205,180,233692,1,8,0:0:0:0:
235,198,233766,1,0,0:0:0:0:
235,198,233915,1,0,0:0:0:0:
226,181,233989,1,0,0:0:0:0:
233,227,234063,1,8,0:0:0:0:
281,210,234360,5,4,0:0:0:0:
281,210,234509,5,4,0:0:0:0:
329,267,234806,1,12,0:0:0:0:
329,267,234954,1,12,0:0:0:0:
241,241,235251,1,4,0:0:0:0:
241,241,235400,1,4,0:0:0:0:
241,241,235697,1,12,0:0:0:0:
241,241,235845,1,12,0:0:0:0:
306,230,236142,1,12,0:0:0:0:
104,221,236291,1,0,0:0:0:0:
104,221,236365,1,0,0:0:0:0:
104,221,236439,1,0,0:0:0:0:
249,230,236588,1,12,0:0:0:0:
234,228,237628,1,8,0:0:0:0:
351,214,237925,1,4,0:0:0:0:
218,264,238222,1,8,0:0:0:0:
366,251,238370,1,0,0:0:0:0:
268,216,238444,1,0,0:0:0:0:
218,264,238519,1,8,0:0:0:0:
223,220,238667,1,0,0:0:0:0:
130,178,238816,1,8,0:0:0:0:
220,246,238964,1,8,0:0:0:0:
298,180,239038,1,8,0:0:0:0:
160,175,239113,1,0,0:0:0:0:
220,246,239261,1,8,0:0:0:0:
186,206,239410,1,0,0:0:0:0:
223,194,239558,1,8,0:0:0:0:
225,193,239632,1,8,0:0:0:0:
298,196,239707,1,0,0:0:0:0:
298,196,239781,1,0,0:0:0:0:
228,179,239855,1,8,0:0:0:0:
147,189,240004,1,0,0:0:0:0:
223,194,240152,1,8,0:0:0:0:
185,119,240226,1,0,0:0:0:0:
368,206,240301,1,8,0:0:0:0:
259,175,240449,1,0,0:0:0:0:
187,161,240598,1,8,0:0:0:0:
265,170,240746,1,0,0:0:0:0:
279,243,240895,1,8,0:0:0:0:
298,226,240969,1,0,0:0:0:0:
115,216,241043,1,8,0:0:0:0:
244,189,241118,1,8,0:0:0:0:
188,175,241192,1,0,0:0:0:0:
286,192,241340,1,8,0:0:0:0:
189,175,241489,1,0,0:0:0:0:
248,244,241637,1,8,0:0:0:0:
239,188,241712,1,0,0:0:0:0:
208,192,241786,1,0,0:0:0:0:
272,213,241860,1,0,0:0:0:0:
259,254,241934,1,8,0:0:0:0:
237,238,242083,1,0,0:0:0:0:
283,180,242231,1,8,0:0:0:0:
229,205,242306,1,8,0:0:0:0:
187,225,242380,1,0,0:0:0:0:
187,225,242454,1,0,0:0:0:0:
284,180,242528,1,8,0:0:0:0:
205,239,242677,1,4,0:0:0:0:
165,188,242974,1,8,0:0:0:0:
273,273,243123,1,8,0:0:0:0:
240,293,243271,1,0,0:0:0:0:
273,273,243345,1,0,0:0:0:0:
268,172,243420,1,0,0:0:0:0:
193,178,243568,1,8,0:0:0:0:
346,253,243717,1,8,0:0:0:0:
346,253,243791,1,8,0:0:0:0:
272,251,243865,1,0,0:0:0:0:
274,253,244014,1,8,0:0:0:0:
259,214,244162,1,0,0:0:0:0:
225,179,244311,1,8,0:0:0:0:
224,180,244385,1,8,0:0:0:0:
162,270,244459,1,0,0:0:0:0:
353,189,244533,1,0,0:0:0:0:
282,195,244608,1,8,0:0:0:0:
389,212,244756,1,0,0:0:0:0:
309,203,244905,1,0,0:0:0:0:
266,213,245053,1,12,0:0:0:0:
262,265,245350,1,0,0:0:0:0:
172,223,245499,1,8,0:0:0:0:
262,265,245647,1,0,0:0:0:0:
253,232,245944,1,8,0:0:0:0:
262,265,246241,1,0,0:0:0:0:
221,175,246390,1,12,0:0:0:0:
230,138,246687,1,8,0:0:0:0:
331,169,246835,1,0,0:0:0:0:
232,218,246984,1,0,0:0:0:0:
120,255,247058,1,0,0:0:0:0:
236,270,247132,1,8,0:0:0:0:
218,238,247207,1,8,0:0:0:0:
263,254,247281,1,8,0:0:0:0:
189,205,247355,1,8,0:0:0:0:
236,210,247429,1,4,0:0:0:0:
236,270,247726,1,8,0:0:0:0:
353,230,247875,1,0,0:0:0:0:
272,185,247949,1,0,0:0:0:0:
272,185,248024,1,8,0:0:0:0:
332,237,248172,1,0,0:0:0:0:
278,272,248321,1,8,0:0:0:0:
283,208,248395,1,0,0:0:0:0:
268,222,248469,1,8,0:0:0:0:
414,203,248618,1,0,0:0:0:0:
327,263,248766,1,8,0:0:0:0:
237,285,248915,1,0,0:0:0:0:
278,202,249063,1,8,0:0:0:0:
164,210,249137,1,8,0:0:0:0:
237,285,249212,1,0,0:0:0:0:
193,211,249286,1,0,0:0:0:0:
180,246,249360,1,8,0:0:0:0:
308,257,249509,1,0,0:0:0:0:
219,203,249657,1,8,0:0:0:0:
321,235,249731,1,8,0:0:0:0:
304,229,249806,1,0,0:0:0:0:
225,177,249954,1,0,0:0:0:0:
294,234,250103,1,8,0:0:0:0:
253,245,250251,1,0,0:0:0:0:
254,203,250325,1,0,0:0:0:0:
327,176,250400,1,8,0:0:0:0:
208,207,250474,1,8,0:0:0:0:
253,204,250548,1,0,0:0:0:0:
299,215,250697,1,8,0:0:0:0:
296,256,250771,1,0,0:0:0:0:
211,188,250845,1,8,0:0:0:0:
273,278,250994,1,0,0:0:0:0:
190,185,251142,1,8,0:0:0:0:
296,248,251217,1,0,0:0:0:0:
216,169,251291,1,0,0:0:0:0:
268,243,251365,1,0,0:0:0:0:
382,191,251439,1,8,0:0:0:0:
285,188,251588,1,0,0:0:0:0:
203,128,251736,1,8,0:0:0:0:
197,231,251811,1,8,0:0:0:0:
279,173,251885,1,0,0:0:0:0:
279,173,251959,1,0,0:0:0:0:
305,199,252033,1,8,0:0:0:0:
188,141,252182,1,4,0:0:0:0:
160,241,252479,1,8,0:0:0:0:
179,191,252627,1,0,0:0:0:0:
284,198,252776,1,8,0:0:0:0:
190,188,252850,1,0,0:0:0:0:
233,261,252925,1,8,0:0:0:0:
264,214,253073,1,0,0:0:0:0:
162,178,253222,1,8,0:0:0:0:
305,198,253296,1,8,0:0:0:0:
277,210,253370,1,0,0:0:0:0:
199,211,253519,1,8,0:0:0:0:
213,284,253667,1,0,0:0:0:0:
210,270,253816,1,8,0:0:0:0:
210,270,253890,1,8,0:0:0:0:
227,249,253964,1,0,0:0:0:0:
254,230,254038,1,0,0:0:0:0:
303,213,254113,1,8,0:0:0:0:
355,182,254261,1,0,0:0:0:0:
133,292,254410,1,0,0:0:0:0:
243,252,254558,1,12,0:0:0:0:
219,263,254855,1,0,0:0:0:0:
243,252,255004,1,8,0:0:0:0:
219,263,255152,1,0,0:0:0:0:
243,252,255449,1,8,0:0:0:0:
269,216,255746,1,0,0:0:0:0:
215,219,255895,1,12,0:0:0:0:
229,188,256192,1,0,0:0:0:0:
262,168,256340,1,8,0:0:0:0:
236,196,256489,1,0,0:0:0:0:
234,195,256637,1,12,0:0:0:0:
344,214,256934,1,4,0:0:0:0:
283,231,257231,1,8,0:0:0:0:
371,193,257380,1,0,0:0:0:0:
369,194,257454,1,0,0:0:0:0:
459,178,257528,1,8,0:0:0:0:
208,201,257677,1,8,0:0:0:0:
234,186,257825,1,0,0:0:0:0:
299,201,257974,1,8,0:0:0:0:
305,190,258048,1,8,0:0:0:0:
328,174,258123,1,0,0:0:0:0:
303,174,258271,1,8,0:0:0:0:
254,315,258420,1,0,0:0:0:0:
259,275,258568,1,0,0:0:0:0:
234,234,258642,1,0,0:0:0:0:
304,226,258717,1,8,0:0:0:0:
309,224,258791,1,8,0:0:0:0:
289,268,258865,1,0,0:0:0:0:
168,182,259014,1,8,0:0:0:0:
170,181,259162,1,8,0:0:0:0:
163,183,259311,1,4,0:0:0:0:
236,222,259608,1,0,0:0:0:0:
142,237,259756,1,12,0:0:0:0:
234,229,260053,1,0,0:0:0:0:
142,237,260202,1,12,0:0:0:0:
234,229,260499,1,0,0:0:0:0:
212,239,260647,1,12,0:0:0:0:
268,187,260944,1,0,0:0:0:0:
253,254,261093,1,8,0:0:0:0:
268,187,261241,1,8,0:0:0:0:
253,254,261390,1,8,0:0:0:0:
212,248,261538,1,4,0:0:0:0:
233,290,261835,1,8,0:0:0:0:
188,211,261984,1,0,0:0:0:0:
237,169,262132,1,8,0:0:0:0:
245,287,262281,1,8,0:0:0:0:
250,197,262429,1,0,0:0:0:0:
291,253,262578,1,8,0:0:0:0:
245,169,262726,1,0,0:0:0:0:
286,167,262801,1,0,0:0:0:0:
352,179,262875,1,8,0:0:0:0:
309,188,263024,1,0,0:0:0:0:
277,185,263172,1,8,0:0:0:0:
277,185,263321,1,0,0:0:0:0:
188,246,263395,1,0,0:0:0:0:
207,230,263469,1,0,0:0:0:0:
366,199,263618,1,8,0:0:0:0:
273,200,263915,1,12,0:0:0:0:
266,194,264212,1,8,0:0:0:0:
206,191,264360,1,0,0:0:0:0:
266,194,264509,1,8,0:0:0:0:
266,194,264657,1,8,0:0:0:0:
326,219,264806,1,0,0:0:0:0:
412,181,264954,1,8,0:0:0:0:
327,177,265103,1,0,0:0:0:0:
327,177,265177,1,0,0:0:0:0:
327,177,265251,1,0,0:0:0:0:
294,187,265400,1,8,0:0:0:0:
358,190,265548,1,0,0:0:0:0:
189,207,265697,1,8,0:0:0:0:
189,207,265771,1,8,0:0:0:0:
230,223,265845,1,0,0:0:0:0:
212,183,265994,1,8,0:0:0:0:
244,246,266291,1,4,0:0:0:0:
208,214,266588,1,0,0:0:0:0:
329,229,266736,1,8,0:0:0:0:
267,199,266885,1,8,0:0:0:0:
284,231,267033,1,0,0:0:0:0:
262,209,267108,1,0,0:0:0:0:
250,200,267182,1,0,0:0:0:0:
259,198,267330,1,8,0:0:0:0:
244,190,267479,1,8,0:0:0:0:
234,190,267553,1,8,0:0:0:0:
244,190,267627,1,0,0:0:0:0:
230,181,267776,1,8,0:0:0:0:
371,185,267925,1,0,0:0:0:0:
331,220,268073,1,8,0:0:0:0:
296,199,268370,1,0,0:0:0:0:
277,195,268444,1,0,0:0:0:0:
268,223,268519,1,8,0:0:0:0:
257,215,268667,1,0,0:0:0:0:
268,223,268816,1,12,0:0:0:0:
245,130,269113,1,0,0:0:0:0:
329,202,269261,1,8,0:0:0:0:
245,130,269410,1,0,0:0:0:0:
257,179,269707,1,12,0:0:0:0:
268,215,270004,1,0,0:0:0:0:
302,154,270152,1,8,0:0:0:0:
280,159,270449,1,0,0:0:0:0:
280,159,270524,1,0,0:0:0:0:
310,181,270598,1,8,0:0:0:0:
250,202,270746,1,8,0:0:0:0:
250,202,270895,1,8,0:0:0:0:
311,246,271043,1,4,0:0:0:0:
356,203,271489,1,12,0:0:0:0:
250,202,271786,1,0,0:0:0:0:
246,167,271934,1,8,0:0:0:0:
243,204,272083,1,0,0:0:0:0:
318,178,272231,1,12,0:0:0:0:
209,160,272528,1,0,0:0:0:0:
266,178,272677,1,8,0:0:0:0:
209,160,272825,1,0,0:0:0:0:
225,220,272974,1,0,0:0:0:0:
378,169,273123,1,8,0:0:0:0:
294,146,273420,1,12,0:0:0:0:
403,171,273717,1,0,0:0:0:0:
226,166,273865,1,8,0:0:0:0:
487,167,274014,1,0,0:0:0:0:
229,158,274162,1,0,0:0:0:0:
226,166,274311,1,8,0:0:0:0:
226,166,274459,1,8,0:0:0:0:
284,190,274608,1,4,0:0:0:0:
217,164,274905,1,0,0:0:0:0:
247,192,275053,1,8,0:0:0:0:
258,187,275350,1,8,0:0:0:0:
260,186,275499,1,0,0:0:0:0:
318,205,275573,1,0,0:0:0:0:
399,200,275647,1,8,0:0:0:0:
217,164,275796,1,8,0:0:0:0:
310,196,275870,1,8,0:0:0:0:
245,159,275944,1,4,0:0:0:0:
234,191,276241,1,8,0:0:0:0:
197,199,276390,1,0,0:0:0:0:
233,190,276538,1,8,0:0:0:0:
233,190,276687,1,8,0:0:0:0:
301,184,276835,1,0,0:0:0:0:
264,193,276984,1,12,0:0:0:0:
262,185,277281,1,0,0:0:0:0:
469,157,277429,1,8,0:0:0:0:
350,155,277578,1,0,0:0:0:0:
350,155,277652,1,0,0:0:0:0:
356,176,277726,1,8,0:0:0:0:
257,171,277875,1,0,0:0:0:0:
257,171,278024,1,0,0:0:0:0:
255,170,278172,1,0,0:0:0:0:
236,179,278321,1,8,0:0:0:0:
307,199,278618,1,0,0:0:0:0:
226,220,278766,1,8,0:0:0:0:
283,203,278915,1,0,0:0:0:0:
283,203,279212,1,0,0:0:0:0:
341,191,279360,5,12,0:0:0:0:
256,192,279509,12,0,282726,0:0:0:0:
