osu file format v14

[General]
AudioFilename: audio.mp3
AudioLeadIn: 0
PreviewTime: 54840
Countdown: 0
SampleSet: Soft
StackLeniency: 0.7
Mode: 0
LetterboxInBreaks: 0
WidescreenStoryboard: 0

[Editor]
Bookmarks: 1810,6658,16355,35901,55295,87871,88477
DistanceSpacing: 1.1
BeatDivisor: 4
GridSize: 8
TimelineZoom: 1.2

[Metadata]
Title:daze (TV Size)
TitleUnicode:daze (TV Size)
Artist:JIN feat. MARiA from GARNiDELiA
ArtistUnicode:じん feat. メイリア from GARNiDELiA
Creator:Oriental
Version:Insane
Source:メカクシティアクターズ
Tags:カゲロウプロジェクト vocaloid ia Mekakucity Actors project カゲロウプロジェク 中西亮輔 自然の敵P Shizen no Teki P Teki-P TekiP じん Blindfold utaite short ver version japanese rock kagerou anime opening op
BeatmapID:2754195
BeatmapSetID:1329465

[Difficulty]
HPDrainRate:5
CircleSize:3.8
OverallDifficulty:8
ApproachRate:9
SliderMultiplier:1.65
SliderTickRate:1

[Events]
//Background and Video events
0,0,"kagerou.jpg",0,0
Video,-739,"PV.avi"
//Break Periods
//Storyboard Layer 0 (Background)
//Storyboard Layer 1 (Fail)
//Storyboard Layer 2 (Pass)
//Storyboard Layer 3 (Foreground)
//Storyboard Layer 4 (Overlay)
//Storyboard Sound Samples

[TimingPoints]
750,303.030303030303,4,2,1,40,1,0
750,-125,4,2,1,40,0,0
1507,-100,4,2,1,60,0,0
1962,303.030303030303,4,2,1,70,1,0
16355,-125,4,2,1,60,0,0
35901,-100,4,2,1,70,0,0
55295,-100,4,2,1,80,0,1
74689,-100,4,2,1,80,0,0
85446,-100,4,2,1,80,0,1
87871,-100,4,2,1,80,0,0

[Colours]
Combo1 : 255,224,132
Combo2 : 140,244,148
Combo3 : 122,168,252
Combo4 : 245,129,184

[HitObjects]
152,41,750,6,0,P|220:29|233:94,2,132,2|2|2,0:1|0:1|0:1,0:0:0:0:
121,124,1507,2,0,P|135:177|115:234,1,82.5,8|4,0:3|0:3,0:0:0:0:
30,263,1810,6,0,P|112:254|194:251,1,165,4|0,0:0|0:0,0:0:0:0:
346,273,2265,2,0,P|352:316|313:347,1,82.5,8|8,0:0|0:0,0:0:0:0:
277,215,2568,1,0,3:0:0:0:
353,166,2719,2,0,L|393:173,2,41.25,0|0|0,1:0|1:0|1:0,0:0:0:0:
261,50,3022,6,0,P|269:127|278:229,1,165,4|0,0:0|0:0,0:0:0:0:
193,351,3477,2,0,P|197:310|204:270,1,82.5,8|0,0:0|3:0,0:0:0:0:
355,331,3780,1,8,0:3:0:0:
350,243,3931,2,0,P|283:213|265:215,1,82.5,8|4,0:3|0:3,0:0:0:0:
116,260,4234,6,0,P|42:227|29:141,1,165,4|0,0:0|0:0,0:0:0:0:
136,129,4689,2,0,P|148:159|110:174,1,82.5,8|8,0:0|0:0,0:0:0:0:
66,78,4992,1,0,3:0:0:0:
140,27,5143,2,0,L|194:37,2,41.25,0|0|0,1:0|1:0|1:0,0:0:0:0:
136,129,5446,6,0,P|178:122|230:115,1,82.5,4|0,0:0|0:0,0:0:0:0:
380,166,5749,2,0,P|378:223|359:251,1,82.5,4|0,0:0|0:0,0:0:0:0:
321,108,6052,1,0,3:0:0:0:
313,105,6128,1,0,3:0:0:0:
305,103,6204,2,0,P|287:65|290:25,1,82.5,12|12,0:0|0:0,0:0:0:0:
300,19,6658,6,0,P|292:132|286:210,1,165,4|0,0:0|0:0,0:0:0:0:
186,311,7113,2,0,P|139:326|77:311,1,82.5,8|8,0:0|0:0,0:0:0:0:
213,225,7416,1,0,3:0:0:0:
213,225,7568,1,0,3:0:0:0:
294,270,7719,2,0,P|288:313|285:365,1,82.5,8|0,0:0|0:0,0:0:0:0:
450,212,8022,6,0,P|409:221|357:219,1,82.5,0|0,3:0|0:0,0:0:0:0:
292,92,8325,1,8,0:0:0:0:
401,139,8477,1,8,0:0:0:0:
288,183,8628,2,0,L|281:78,1,82.5,0|0,3:0|3:0,0:0:0:0:
364,35,8931,1,8,0:0:0:0:
276,109,9083,6,0,P|166:89|110:86,1,165,4|0,0:0|0:0,0:0:0:0:
25,183,9537,2,0,P|27:221|59:258,1,82.5,8|8,0:0|0:0,0:0:0:0:
211,232,9840,1,0,3:0:0:0:
211,232,9992,1,0,3:0:0:0:
135,281,10143,2,0,P|130:323|124:374,1,82.5,8|0,0:0|0:0,0:0:0:0:
296,258,10446,6,0,P|299:217|269:167,1,82.5,0|0,3:0|0:0,0:0:0:0:
149,148,10749,1,8,0:0:0:0:
211,232,10901,1,8,0:0:0:0:
231,113,11052,2,0,P|235:73|239:31,1,82.5,0|0,3:0|1:0,0:0:0:0:
246,26,11279,1,0,1:0:0:0:
252,20,11355,1,0,1:0:0:0:
375,18,11507,6,0,P|443:57|443:136,1,165,4|0,0:0|0:0,0:0:0:0:
307,215,11962,2,0,P|347:206|388:205,1,82.5,8|8,0:0|0:0,0:0:0:0:
256,298,12265,1,0,3:0:0:0:
256,298,12416,1,0,3:0:0:0:
174,257,12568,2,0,P|175:217|178:165,1,82.5,8|0,0:0|0:0,0:0:0:0:
92,55,12871,6,0,P|52:62|24:91,1,82.5,0|0,3:0|0:0,0:0:0:0:
81,224,13174,1,8,0:0:0:0:
187,170,13325,1,8,0:0:0:0:
93,136,13477,2,0,P|93:184|90:225,1,82.5,0|0,3:0|3:0,0:0:0:0:
47,298,13780,1,8,0:0:0:0:
154,370,13931,6,0,P|235:359|332:354,1,165,4|0,0:0|3:0,0:0:0:0:
396,245,14386,1,8,0:0:0:0:
297,172,14537,1,8,0:0:0:0:
298,180,14613,1,8,0:0:0:0:
299,189,14689,2,0,P|304:233|309:286,1,82.5,0|8,3:0|3:0,0:0:0:0:
425,366,14992,2,0,P|459:339|460:299,1,82.5,8|4,3:0|3:0,0:0:0:0:
387,142,15295,5,12,0:0:0:0:
380,149,15598,2,0,B|308:142|308:142|285:154|285:154|218:146,1,165,12|0,0:0|3:0,0:0:0:0:
151,86,16052,1,8,0:3:0:0:
236,55,16204,1,4,0:3:0:0:
88,31,16355,6,0,P|103:95|112:160,1,132,4|0,0:0|0:0,0:0:0:0:
43,298,16810,2,0,P|45:266|64:239,1,66,2|0,1:2|0:0,0:0:0:0:
150,241,17113,2,0,P|192:249|297:251,1,132,2|2,3:2|1:2,0:0:0:0:
352,205,17568,1,4,0:0:0:0:
470,246,17719,5,2,3:2:0:0:
470,246,17871,2,0,P|472:209|478:160,1,66,2|0,0:2|1:0,0:0:0:0:
412,91,18174,2,0,P|317:104|267:105,1,132,2|0,0:2|0:0,0:0:0:0:
201,73,18628,1,0,1:0:0:0:
100,164,18780,6,0,P|98:203|189:227,1,132,6|0,0:2|0:0,0:0:0:0:
244,192,19234,1,0,1:0:0:0:
366,217,19386,2,0,P|361:284|358:351,1,132,2|0,0:2|0:0,0:0:0:0:
277,376,19840,1,0,1:0:0:0:
166,320,19992,6,0,P|69:330|6:331,1,132,6|0,0:2|0:0,0:0:0:0:
44,246,20446,2,0,P|110:237|127:245,1,66,2|0,1:2|0:0,0:0:0:0:
240,278,20749,1,2,0:2:0:0:
190,207,20901,2,0,P|180:177|180:142,1,66,2|0,1:2|1:0,0:0:0:0:
277,34,21204,6,0,P|268:100|263:172,1,132,4|0,0:0|0:0,0:0:0:0:
311,329,21658,2,0,P|326:300|326:268,1,66,2|0,1:2|0:0,0:0:0:0:
240,278,21962,2,0,P|166:290|94:290,1,132,2|2,3:2|1:2,0:0:0:0:
35,246,22416,1,4,0:0:0:0:
89,127,22568,5,2,3:2:0:0:
89,127,22719,2,0,L|165:138,1,66,2|0,0:2|1:0,0:0:0:0:
238,48,23022,2,0,B|233:95|233:95|244:118|244:118|234:176,1,132,2|0,0:2|0:0,0:0:0:0:
170,233,23477,1,0,1:0:0:0:
207,334,23628,6,0,P|271:320|337:316,1,132,6|0,0:2|0:0,0:0:0:0:
370,237,24083,1,0,1:0:0:0:
441,357,24234,2,0,P|482:310|453:256,1,132,2|0,0:2|0:0,0:0:0:0:
370,237,24689,1,0,1:0:0:0:
267,277,24840,6,0,P|201:273|136:259,1,132,6|0,0:2|0:0,0:0:0:0:
41,340,25295,2,0,P|32:306|50:264,1,66,0|0,1:0|3:0,0:0:0:0:
48,271,25522,1,0,1:0:0:0:
56,265,25598,1,0,3:0:0:0:
146,182,25749,2,0,P|143:214|139:248,1,66,0|0,1:0|3:0,0:0:0:0:
18,178,26052,6,0,P|81:173|152:167,1,132,4|0,0:0|0:0,0:0:0:0:
289,122,26507,2,0,P|259:105|212:111,1,66,2|0,1:2|0:0,0:0:0:0:
219,227,26810,2,0,P|253:223|295:215,1,66,2|0,3:2|0:0,0:0:0:0:
361,180,27113,1,2,1:2:0:0:
361,180,27265,1,4,0:0:0:0:
464,235,27416,5,2,3:2:0:0:
464,235,27568,2,0,L|456:317,1,66,2|0,0:2|1:0,0:0:0:0:
357,357,27871,2,0,P|292:343|226:340,1,132,2|0,0:2|0:0,0:0:0:0:
145,366,28325,1,0,1:0:0:0:
34,304,28477,6,0,P|31:241|85:209,1,132,6|0,0:2|0:0,0:0:0:0:
163,239,28931,1,0,1:0:0:0:
296,216,29083,2,0,P|298:146|304:76,1,132,2|0,0:2|0:0,0:0:0:0:
228,43,29537,1,0,1:0:0:0:
91,81,29689,6,0,B|67:113|67:113|85:202,1,132,6|0,0:2|0:0,0:0:0:0:
173,243,30143,1,0,1:0:0:0:
43,277,30295,2,0,P|98:242|163:239,1,132,2|0,0:2|0:0,0:0:0:0:
246,274,30749,1,0,1:0:0:0:
344,184,30901,6,0,P|337:256|333:339,1,132,6|0,0:2|0:0,0:0:0:0:
454,271,31355,2,0,P|451:241|447:205,1,66,2|0,1:2|0:0,0:0:0:0:
381,106,31658,2,0,P|349:95|317:101,1,66,2|0,3:2|0:0,0:0:0:0:
242,143,31961,1,2,1:2:0:0:
242,143,32113,1,4,0:0:0:0:
144,93,32265,5,2,3:2:0:0:
144,92,32416,2,0,P|145:59|148:26,1,66,2|0,0:2|1:0,0:0:0:0:
61,113,32719,2,0,P|97:165|161:176,1,132,2|0,0:2|0:0,0:0:0:0:
242,143,33174,1,0,1:0:0:0:
369,185,33325,6,0,B|366:236|366:236|378:263|378:263|374:314,1,132,6|0,3:2|0:0,0:0:0:0:
298,356,33780,1,0,1:0:0:0:
187,305,33931,2,0,P|197:262|273:297,1,132,6|0,3:2|0:0,0:0:0:0:
298,356,34386,1,0,1:0:0:0:
367,236,34537,6,0,P|375:166|379:93,1,132,6|0,3:2|1:0,0:0:0:0:
267,100,34992,2,0,P|268:132|274:165,1,66,8|4,0:3|0:3,0:0:0:0:
376,94,35295,1,4,0:3:0:0:
319,37,35446,1,0,3:0:0:0:
313,29,35522,1,0,3:0:0:0:
306,22,35598,2,0,P|235:18|221:25,1,66,0|0,1:0|3:0,0:0:0:0:
150,94,35901,6,0,P|155:140|159:197,1,82.5,12|0,0:2|3:0,0:0:0:0:
233,226,36204,2,0,P|229:267|225:308,1,82.5,12|0,0:2|3:0,0:0:0:0:
149,359,36507,1,12,0:2:0:0:
149,359,36810,1,0,3:0:0:0:
61,292,36962,6,0,P|142:302|225:307,1,165,12|8,0:2|0:0,0:0:0:0:
350,265,37416,2,0,P|323:236|283:238,1,82.5,0|8,3:0|0:0,0:0:0:0:
354,354,37719,1,0,3:0:0:0:
432,323,37871,1,0,1:0:0:0:
432,314,37946,1,0,1:0:0:0:
433,305,38022,2,0,P|435:265|438:218,1,82.5,0|0,1:0|1:0,0:0:0:0:
387,105,38325,6,0,B|302:88|318:161|232:143,1,165,6|2,3:2|1:2,0:0:0:0:
179,50,38780,2,0,P|239:51|259:70,1,82.5,2|0,0:2|3:0,0:0:0:0:
157,177,39083,2,0,P|107:169|66:168,1,82.5,2|0,3:2|1:0,0:0:0:0:
12,258,39386,6,0,P|40:332|118:345,1,165,6|2,3:2|3:2,0:0:0:0:
197,302,39840,1,2,1:2:0:0:
330,349,39992,2,0,P|336:273|350:177,1,165,4|0,3:2|3:0,0:0:0:0:
329,74,40446,2,0,P|290:63|256:85,1,82.5,0|0,1:0|0:0,0:0:0:0:
204,159,40749,6,0,P|160:158|121:151,1,82.5,6|0,3:2|0:0,0:0:0:0:
79,71,41052,1,2,1:2:0:0:
46,194,41204,2,0,P|120:180|218:172,1,165,2|0,3:2|3:0,0:0:0:0:
297,193,41658,1,0,1:0:0:0:
430,98,41810,6,0,P|440:176|380:228,1,165,6|0,3:2|3:0,0:0:0:0:
297,193,42265,1,0,1:0:0:0:
255,309,42416,2,0,P|173:294|91:290,1,165,2|0,3:2|3:0,0:0:0:0:
27,355,42871,1,0,1:0:0:0:
39,219,43022,6,0,P|80:156|176:185,1,165,6|0,3:2|3:0,0:0:0:0:
197,249,43477,1,0,1:0:0:0:
286,178,43628,2,0,P|369:180|461:165,1,165,2|0,3:2|3:0,0:0:0:0:
470,79,44083,1,0,1:0:0:0:
345,23,44234,6,0,P|259:19|230:105,1,165,6|2,3:2|3:2,0:0:0:0:
286,178,44689,2,0,P|280:227|275:294,1,82.5,0|0,1:0|3:0,0:0:0:0:
200,309,44992,1,0,1:0:0:0:
192,311,45068,1,0,1:0:0:0:
184,314,45143,2,0,L|127:322,1,41.25,0|0,3:0|3:0,0:0:0:0:
284,344,45295,2,0,P|323:334|350:304,1,82.5,0|0,1:0|3:0,0:0:0:0:
367,190,45598,6,0,P|321:184|269:174,1,82.5,12|0,0:2|3:0,0:0:0:0:
237,100,45901,2,0,P|191:106|139:116,1,82.5,12|0,0:2|3:0,0:0:0:0:
98,183,46204,1,12,0:2:0:0:
32,121,46355,2,0,L|41:67,2,41.25,8|8|4,3:0|3:0|3:0,0:0:0:0:
8,248,46658,6,0,P|88:226|170:226,1,165,4|8,3:2|0:0,0:0:0:0:
280,297,47113,2,0,P|231:332|191:313,1,82.5,0|8,3:0|0:0,0:0:0:0:
286,205,47416,1,0,3:0:0:0:
367,241,47568,1,0,1:0:0:0:
366,250,47643,1,0,1:0:0:0:
365,259,47719,2,0,P|366:306|370:357,1,82.5,0|0,1:0|1:0,0:0:0:0:
459,211,48022,6,0,P|376:205|294:194,1,165,6|2,3:2|1:2,0:0:0:0:
177,100,48477,2,0,P|217:93|254:112,1,82.5,2|0,0:2|3:0,0:0:0:0:
210,261,48780,2,0,P|208:220|204:179,1,82.5,2|0,3:2|1:0,0:0:0:0:
117,319,49083,6,0,P|203:301|308:297,1,165,6|0,3:2|0:0,0:0:0:0:
437,270,49537,2,0,P|397:271|359:256,1,82.5,2|0,1:2|0:0,0:0:0:0:
317,173,49840,2,0,P|321:131|329:76,1,82.5,8|0,1:3|0:0,0:0:0:0:
314,95,50068,2,0,P|309:136|305:177,1,82.5,8|0,1:3|0:0,0:0:0:0:
294,183,50295,1,4,1:3:0:0:
279,296,50446,6,0,P|186:281|110:273,1,165,6|0,3:2|1:0,0:0:0:0:
25,289,50901,1,0,0:0:0:0:
118,184,51052,2,0,P|133:137|112:91,1,82.5,2|2,3:2|3:2,0:0:0:0:
76,28,51355,1,2,1:2:0:0:
49,139,51507,6,0,P|124:148|251:149,1,165,2|0,3:2|3:0,0:0:0:0:
384,124,51961,2,0,P|405:161|381:223,1,82.5,0|2,1:0|0:2,0:0:0:0:
292,94,52265,1,2,3:2:0:0:
292,94,52416,2,0,L|301:5,1,82.5,0|2,3:0|1:2,0:0:0:0:
321,175,52719,1,2,3:2:0:0:
270,250,52871,6,0,L|276:302,4,41.25,12|8|8|8|4,3:2|0:3|1:3|0:3|1:3,0:0:0:0:
195,199,53325,2,0,L|143:205,4,41.25,12|8|8|8|4,3:2|0:3|1:3|0:3|1:3,0:0:0:0:
246,124,53780,1,12,3:2:0:0:
245,116,53855,1,8,0:3:0:0:
244,108,53931,2,0,L|238:56,1,41.25,4|4,1:3|0:3,0:0:0:0:
368,94,54083,5,14,3:2:0:0:
368,94,54234,1,8,0:0:0:0:
321,175,54386,1,8,3:2:0:0:
321,175,54537,1,14,3:2:0:0:
156,110,54840,1,0,3:2:0:0:
159,102,54916,1,0,3:0:0:0:
164,95,54992,2,0,P|207:76|251:87,1,82.5,2|0,1:2|0:0,0:0:0:0:
119,177,55295,6,0,P|126:98|130:12,1,165,6|8,3:1|0:0,0:0:0:0:
42,28,55749,1,2,0:2:0:0:
164,95,55901,2,0,P|205:100|243:81,1,82.5,2|2,3:2|3:2,0:0:0:0:
337,0,56204,2,0,P|331:42|327:81,1,82.5,10|0,0:2|0:0,0:0:0:0:
222,7,56507,5,2,3:2:0:0:
283,153,56658,2,0,P|288:194|292:235,1,82.5,2|8,3:2|0:0,0:0:0:0:
360,296,56961,2,0,P|289:283|181:273,1,165,2|0,3:2|3:0,0:0:0:0:
59,357,57416,2,0,P|99:361|134:340,1,82.5,10|0,0:2|0:0,0:0:0:0:
22,274,57719,6,0,B|28:209|28:209|11:179|11:179|15:113,1,165,6|8,3:2|0:0,0:0:0:0:
90,62,58174,1,2,0:2:0:0:
205,133,58325,2,0,P|166:146|126:144,1,82.5,2|2,3:2|3:2,0:0:0:0:
199,37,58628,2,0,P|236:42|291:45,1,82.5,10|0,0:2|0:0,0:0:0:0:
351,110,58931,5,2,3:2:0:0:
447,9,59083,2,0,P|459:47|437:81,1,82.5,2|8,3:2|0:0,0:0:0:0:
483,181,59386,2,0,P|431:120|351:110,1,165,2|0,3:2|3:0,0:0:0:0:
323,268,59840,1,10,0:2:0:0:
386,197,59992,1,0,0:0:0:0:
396,331,60143,6,0,P|316:312|202:296,1,165,6|8,3:2|0:0,0:0:0:0:
98,361,60598,2,0,P|114:317|147:296,1,82.5,2|0,3:2|0:0,0:0:0:0:
120,187,60901,2,0,P|160:193|190:221,1,82.5,2|8,3:2|0:0,0:0:0:0:
40,291,61204,6,0,P|38:252|34:208,1,82.5,2|0,0:2|3:0,0:0:0:0:
104,69,61507,2,0,P|66:81|53:119,1,82.5,2|8,3:2|0:0,0:0:0:0:
120,187,61810,2,0,P|199:206|282:204,1,165,2|0,3:2|3:0,0:0:0:0:
423,152,62265,1,10,0:2:0:0:
335,100,62416,1,2,0:2:0:0:
477,84,62568,6,0,P|468:161|460:254,1,165,6|10,3:2|0:2,0:0:0:0:
304,305,63022,2,0,P|345:310|374:281,1,82.5,2|0,3:2|0:0,0:0:0:0:
259,208,63325,2,0,P|210:199|154:202,1,82.5,2|8,3:2|0:0,0:0:0:0:
31,265,63628,1,2,1:2:0:0:
42,258,63704,1,0,1:0:0:0:
52,250,63780,6,0,P|70:210|68:164,1,82.5,4|10,3:2|1:2,0:0:0:0:
50,96,64007,1,8,1:2:0:0:
43,85,64083,2,0,P|85:90|129:74,1,82.5,0|10,3:2|1:2,0:0:0:0:
188,35,64310,1,8,1:2:0:0:
197,26,64386,2,0,P|205:68|233:105,1,82.5,4|8,3:2|1:2,2:2:0:0:
289,148,64613,1,8,1:2:0:0:
300,154,64689,2,0,P|262:175|236:213,1,82.5,2|8,3:2|1:2,0:0:0:0:
212,279,64916,1,8,1:2:0:0:
210,291,64992,6,0,P|122:278|28:267,1,165,6|8,3:1|0:0,0:0:0:0:
18,182,65446,1,2,0:2:0:0:
120,101,65598,2,0,P|123:143|103:205,1,82.5,2|2,3:2|3:2,0:0:0:0:
37,70,65901,2,0,P|47:31|85:20,1,82.5,10|0,0:2|0:0,0:0:0:0:
174,33,66204,5,2,3:2:0:0:
301,96,66355,2,0,P|348:101|384:90,1,82.5,2|8,3:2|0:0,0:0:0:0:
482,44,66658,2,0,P|417:90|414:170,1,165,2|0,3:2|3:0,0:0:0:0:
492,306,67113,2,0,P|473:271|435:258,1,82.5,10|0,0:2|0:0,0:0:0:0:
311,313,67416,6,0,P|233:311|112:315,1,165,6|8,3:2|0:2,0:0:0:0:
96,236,67871,1,2,0:2:0:0:
219,157,68022,2,0,P|215:196|182:220,1,82.5,2|2,3:2|3:2,0:0:0:0:
87,150,68325,2,0,P|93:102|97:50,1,82.5,10|0,0:2|0:0,0:0:0:0:
175,23,68628,5,2,3:2:0:0:
283,96,68780,2,0,P|303:129|306:184,1,82.5,2|8,3:2|0:0,0:0:0:0:
351,26,69083,2,0,P|270:41|188:39,1,165,2|0,3:2|3:0,0:0:0:0:
50,23,69537,2,0,P|99:85|100:98,1,82.5,10|0,0:2|0:0,0:0:0:0:
23,199,69840,6,0,P|104:183|185:175,1,165,6|10,3:2|0:2,0:0:0:0:
312,287,70295,1,0,0:0:0:0:
165,327,70446,1,0,3:0:0:0:
269,200,70598,1,0,3:0:0:0:
323,298,70749,2,0,P|276:290|227:284,1,82.5,10|2,0:2|0:2,0:0:0:0:
185,174,71052,6,0,P|242:119|320:134,1,165,6|10,3:2|0:2,0:0:0:0:
394,250,71507,1,0,0:0:0:0:
269,200,71658,1,0,3:0:0:0:
409,135,71810,1,2,3:2:0:0:
323,298,71962,2,0,P|276:290|227:284,1,82.5,10|2,0:2|0:2,0:0:0:0:
394,250,72265,5,14,0:2:0:0:
204,360,72416,2,0,P|166:347|163:304,1,82.5,0|2,3:0|3:2,0:0:0:0:
248,202,72719,2,0,P|244:243|241:285,1,82.5,14|0,0:2|0:0,0:0:0:0:
147,132,73022,2,0,P|151:173|154:214,1,82.5,14|0,3:2|3:0,0:0:0:0:
358,248,73325,6,0,P|380:214|388:173,1,82.5,14|0,0:2|3:0,0:0:0:0:
285,54,73628,2,0,P|244:51|206:66,1,82.5,14|0,0:2|3:0,0:0:0:0:
153,214,73931,2,0,P|172:250|204:277,1,82.5,14|0,0:2|3:0,0:0:0:0:
285,304,74158,1,0,1:0:0:0:
295,303,74234,2,0,L|347:297,1,41.25,10|0,1:2|1:0,0:0:0:0:
350,195,74386,1,0,3:0:0:0:
340,194,74461,1,0,1:0:0:0:
330,193,74537,1,10,1:2:0:0:
320,192,74613,1,0,1:0:0:0:
310,191,74689,6,0,B|286:166|286:166|300:36,1,165,6|12,3:1|0:0,0:0:0:0:
463,88,75143,1,2,0:2:0:0:
459,96,75219,1,2,0:2:0:0:
453,103,75295,2,0,P|428:126|378:117,1,82.5,2|0,3:2|3:0,0:0:0:0:
292,27,75598,2,0,P|247:28|210:37,1,82.5,8|0,0:0|0:0,0:0:0:0:
104,179,75901,5,0,3:0:0:0:
216,117,76052,1,0,0:0:0:0:
124,14,76204,2,0,P|129:53|132:110,1,82.5,8|0,0:0|0:0,0:0:0:0:
241,198,76507,1,0,3:0:0:0:
153,257,76658,1,0,3:0:0:0:
216,116,76810,2,0,P|256:112|294:128,1,82.5,8|0,0:0|0:0,0:0:0:0:
355,256,77113,6,0,B|358:189|358:189|380:162|380:162|383:98,1,165,4|8,3:2|0:0,0:0:0:0:
314,38,77568,1,0,0:0:0:0:
216,116,77719,2,0,P|174:128|136:126,1,82.5,0|0,3:0|3:0,0:0:0:0:
16,43,78022,1,8,0:0:0:0:
53,134,78174,6,0,P|107:121|229:118,1,165,0|0,3:0|3:0,0:0:0:0:
101,42,78628,1,8,0:0:0:0:
159,199,78780,1,0,0:0:0:0:
97,34,78931,2,0,P|141:27|192:29,1,82.5,0|0,3:0|3:0,0:0:0:0:
326,93,79234,1,8,0:0:0:0:
275,168,79386,1,0,1:0:0:0:
277,177,79462,1,0,1:0:0:0:
278,186,79537,6,0,P|285:278|279:358,1,165,4|8,3:2|0:0,0:0:0:0:
141,369,79992,1,0,0:0:0:0:
185,173,80143,1,0,3:0:0:0:
185,173,80295,1,8,0:3:0:0:
54,232,80446,2,0,P|57:278|103:307,1,82.5,4|4,0:3|0:3,0:0:0:0:
175,265,80749,6,0,P|185:224|190:183,1,82.5,12|0,0:2|3:0,0:0:0:0:
95,300,81052,2,0,P|155:290|266:280,1,165,12|0,0:0|3:0,0:0:0:0:
401,316,81507,1,8,0:3:0:0:
322,184,81658,1,4,0:3:0:0:
309,352,81810,6,0,B|315:286|315:286|306:268|306:268|312:189,1,165,4|8,3:2|0:3,0:0:0:0:
186,64,82265,1,0,3:0:0:0:
226,208,82416,1,0,3:0:0:0:
290,47,82568,1,8,0:0:0:0:
144,153,82719,2,0,P|98:149|62:144,1,82.5,8|0,0:0|0:0,0:0:0:0:
12,308,83022,6,0,P|93:293|176:291,1,165,4|0,3:2|3:0,0:0:0:0:
363,339,83477,1,8,0:0:0:0:
282,194,83628,1,0,3:0:0:0:
229,356,83780,1,8,0:3:0:0:
388,257,83931,1,8,0:3:0:0:
387,248,84007,1,8,0:3:0:0:
386,239,84083,2,0,L|382:191,1,41.25,0|4,0:3|0:3,0:0:0:0:
341,126,84234,6,0,P|263:108|191:172,1,165,4|0,3:2|3:0,0:0:0:0:
144,332,84689,1,8,0:0:0:0:
91,190,84840,1,8,0:0:0:0:
248,255,84992,1,0,3:0:0:0:
57,344,85143,1,8,0:0:0:0:
49,346,85219,1,8,0:0:0:0:
41,350,85295,1,8,0:0:0:0:
248,333,85446,6,0,P|263:292|258:248,1,82.5,12|0,3:2|0:0,0:0:0:0:
346,244,85749,2,0,P|327:204|292:176,1,82.5,12|0,3:2|0:0,0:0:0:0:
352,111,86052,2,0,P|310:96|267:101,1,82.5,12|0,3:2|0:0,0:0:0:0:
263,13,86355,2,0,P|223:31|195:66,1,82.5,12|0,3:2|0:0,0:0:0:0:
130,7,86658,2,0,P|115:48|120:92,1,82.5,12|0,3:2|0:0,0:0:0:0:
32,96,86961,2,0,P|50:135|85:163,1,82.5,12|0,3:2|0:0,0:0:0:0:
26,229,87264,2,0,P|67:243|111:239,1,82.5,12|0,3:2|0:0,0:0:0:0:
115,327,87568,2,0,P|154:308|182:273,1,82.5,12|0,3:2|0:0,0:0:0:0:
206,145,87871,6,0,B|233:107|209:59|131:42|75:96|101:222|191:273,1,330,12|0,3:1|0:0,0:0:0:0:
