osu file format v14

[General]
AudioFilename: audio.mp3
AudioLeadIn: 0
PreviewTime: 54840
Countdown: 0
SampleSet: Soft
StackLeniency: 0.7
Mode: 0
LetterboxInBreaks: 0
WidescreenStoryboard: 0

[Editor]
Bookmarks: 1810,6658,16355,35901,55295,87871
DistanceSpacing: 1
BeatDivisor: 4
GridSize: 8
TimelineZoom: 1.2

[Metadata]
Title:daze (TV Size)
TitleUnicode:daze (TV Size)
Artist:JIN feat. MARiA from GARNiDELiA
ArtistUnicode:じん feat. メイリア from GARNiDELiA
Creator:Oriental
Version:Easy
Source:メカクシティアクターズ
Tags:カゲロウプロジェクト vocaloid ia Mekakucity Actors project カゲロウプロジェク 中西亮輔 自然の敵P Shizen no Teki P Teki-P TekiP じん Blindfold utaite short ver version japanese rock kagerou anime opening op
BeatmapID:2754192
BeatmapSetID:1329465

[Difficulty]
HPDrainRate:2
CircleSize:3
OverallDifficulty:2
ApproachRate:3
SliderMultiplier:0.899999999999999
SliderTickRate:1

[Events]
//Background and Video events
0,0,"kagerou.jpg",0,0
Video,-739,"PV.avi"
//Break Periods
//Storyboard Layer 0 (Background)
//Storyboard Layer 1 (Fail)
//Storyboard Layer 2 (Pass)
//Storyboard Layer 3 (Foreground)
//Storyboard Layer 4 (Overlay)
//Storyboard Sound Samples

[TimingPoints]
750,303.030303030303,4,2,1,40,1,0
1962,303.030303030303,4,2,1,70,1,0
16355,-100,4,2,1,60,0,0
35901,-100,4,2,1,70,0,0
55295,-100,4,2,1,80,0,1
74689,-100,4,2,1,80,0,0
85446,-100,4,2,1,80,0,1
87871,-100,4,2,1,80,0,0

[Colours]
Combo1 : 255,224,132
Combo2 : 140,244,148
Combo3 : 122,168,252
Combo4 : 245,129,184

[HitObjects]
189,147,750,6,0,P|202:98|183:54,2,89.9999999999999,2|2|2,0:1|0:1|0:1,0:0:0:0:
111,257,1810,6,0,P|218:235|245:238,1,135,4|8,0:0|0:0,0:0:0:0:
325,272,2568,1,0,3:0:0:0:
454,234,3022,2,0,P|458:168|464:83,1,135,4|8,0:0|0:0,0:0:0:0:
397,37,3780,1,8,0:3:0:0:
264,59,4234,2,0,P|242:136|281:192,1,135,4|8,0:0|0:0,0:0:0:0:
344,225,4992,1,0,3:0:0:0:
278,342,5446,2,0,P|172:328|41:318,1,225,4|12,0:0|0:0,0:0:0:0:
23,188,6658,6,0,P|68:140|133:140,1,135,4|8,0:0|0:0,0:0:0:0:
198,202,7416,2,0,P|244:200|291:197,1,89.9999999999999,0|8,3:0|0:0,0:0:0:0:
376,179,8022,2,0,P|391:148|379:90,1,89.9999999999999,0|8,3:0|0:0,0:0:0:0:
316,33,8628,1,0,3:0:0:0:
184,67,9083,6,0,P|192:133|197:201,1,135,4|8,0:0|0:0,0:0:0:0:
222,287,9840,2,0,P|171:289|134:264,1,89.9999999999999,0|8,3:0|0:0,0:0:0:0:
92,192,10446,2,0,P|95:148|102:87,1,89.9999999999999,0|8,3:0|0:0,0:0:0:0:
184,67,11052,1,0,3:0:0:0:
306,136,11507,6,0,B|373:136|440:127,1,135,4|8,0:0|0:0,0:0:0:0:
499,196,12265,2,0,P|497:239|468:276,1,89.9999999999999,0|8,3:0|0:0,0:0:0:0:
381,289,12871,2,0,P|336:280|292:275,1,89.9999999999999,0|8,3:0|0:0,0:0:0:0:
205,298,13477,1,0,3:0:0:0:
79,248,13931,6,0,P|83:178|88:108,1,135,4|8,0:0|0:0,0:0:0:0:
172,85,14689,1,0,3:0:0:0:
252,125,14992,1,8,3:0:0:0:
337,97,15295,2,0,B|379:84|379:84|420:103,1,89.9999999999999,12|12,0:0|0:0,0:0:0:0:
429,328,16355,6,0,P|361:326|295:314,1,135,4|2,0:0|1:2,0:0:0:0:
207,294,17113,2,0,P|168:347|103:353,2,135,2|4|0,3:2|0:0|1:0,0:0:0:0:
173,210,18325,1,0,3:0:0:0:
228,86,18780,6,0,P|295:92|362:97,1,135,6|0,0:2|1:0,0:0:0:0:
451,83,19537,1,0,3:0:0:0:
479,215,19992,2,0,P|420:257|348:240,1,135,6|2,0:2|1:2,0:0:0:0:
279,210,20749,1,2,3:2:0:0:
149,247,21204,6,0,P|145:179|135:112,1,135,4|2,0:0|1:2,0:0:0:0:
45,123,21962,2,0,P|48:190|58:257,2,135,2|4|0,3:2|0:0|1:0,0:0:0:0:
86,42,23174,1,0,3:0:0:0:
214,83,23628,6,0,P|275:96|348:93,1,135,6|0,0:2|1:0,0:0:0:0:
435,71,24386,1,0,3:0:0:0:
485,195,24840,2,0,P|463:260|399:249,1,135,6|0,0:2|1:0,0:0:0:0:
341,192,25598,1,0,3:0:0:0:
229,267,26052,6,0,P|158:256|85:254,1,135,4|2,0:0|1:2,0:0:0:0:
23,200,26810,2,0,L|19:107,1,89.9999999999999,2|2,3:2|1:2,0:0:0:0:
93,57,27416,2,0,P|158:43|213:83,1,135,2|2,3:2|0:2,0:0:0:0:
188,167,28174,1,2,0:0:0:0:
221,250,28477,6,0,P|332:231|368:232,2,135,6|0|2,0:2|1:0|0:0,0:0:0:0:
153,312,29689,2,0,P|42:293|6:294,2,135,6|0|2,0:2|1:0|0:0,0:0:0:0:
236,344,30901,6,0,P|294:312|309:248,1,135,6|2,0:2|1:2,0:0:0:0:
244,185,31658,2,0,P|199:192|154:196,1,89.9999999999999,2|2,3:2|1:2,0:0:0:0:
70,164,32265,2,0,P|43:116|65:38,1,135,2|2,3:2|0:2,0:0:0:0:
146,11,33022,1,2,0:0:0:0:
226,50,33325,6,0,B|298:57|298:57|329:40|329:40|401:46,2,180,6|6|6,3:2|3:2|3:2,0:0:0:0:
226,50,35901,6,0,L|233:142,2,89.9999999999999,12|12|12,0:2|0:2|0:2,0:0:0:0:
91,35,36962,2,0,P|51:87|61:155,1,135,12|0,0:2|3:0,0:0:0:0:
128,210,37719,2,0,P|185:218|219:232,1,89.9999999999999,0|0,3:0|1:0,0:0:0:0:
292,275,38325,6,0,P|353:270|413:223,1,135,6|2,3:2|0:2,0:0:0:0:
435,139,39083,1,2,3:2:0:0:
403,50,39386,2,0,P|314:60|224:59,1,180,6|4,3:2|3:2,0:0:0:0:
91,37,40446,1,0,1:0:0:0:
26,98,40749,6,0,P|25:163|71:211,1,135,6|2,3:2|3:2,0:0:0:0:
248,170,41810,2,0,B|328:144|330:222|420:198,2,180,6|2|6,3:2|3:2|3:2,0:0:0:0:
85,249,43628,6,0,P|131:323|219:318,1,180,2|6,3:2|3:2,0:0:0:0:
277,253,44537,1,2,3:2:0:0:
233,125,44992,2,0,P|187:127|130:132,1,89.9999999999999,0|0,1:0|1:0,0:0:0:0:
55,108,45598,6,0,P|42:65|49:22,2,89.9999999999999,12|12|12,0:2|0:2|0:2,0:0:0:0:
124,223,46658,2,0,P|191:215|258:213,1,135,4|0,3:2|3:0,0:0:0:0:
344,240,47416,2,0,P|340:285|338:337,1,89.9999999999999,0|0,3:0|1:0,0:0:0:0:
425,353,48022,6,0,P|430:289|431:203,1,135,6|2,3:2|0:2,0:0:0:0:
427,128,48780,1,2,3:2:0:0:
371,57,49083,2,0,P|310:29|244:40,1,135,6|2,3:2|1:2,0:0:0:0:
163,78,49840,1,8,1:3:0:0:
192,255,50446,6,0,L|281:248,1,89.9999999999999,6|0,3:2|1:0,0:0:0:0:
361,288,51052,2,0,P|408:324|481:313,2,135,2|2|0,3:2|3:2|1:0,0:0:0:0:
365,197,52265,2,0,P|373:150|376:99,1,89.9999999999999,2|2,3:2|1:2,0:0:0:0:
296,63,52871,6,0,P|229:73|162:77,2,135,12|12|12,3:2|3:2|3:2,0:0:0:0:
375,19,54083,1,14,3:2:0:0:
375,19,55295,6,0,P|313:114|316:194,1,180,6|2,3:1|3:2,0:0:0:0:
341,262,56204,1,10,0:2:0:0:
286,333,56507,2,0,P|210:322|132:320,2,135,2|2|10,3:2|3:2|0:2,0:0:0:0:
372,352,57719,6,0,P|430:288|414:202,1,180,6|2,3:2|3:2,0:0:0:0:
351,139,58628,1,10,0:2:0:0:
373,51,58931,2,0,P|439:60|507:66,2,135,2|2|10,3:2|3:2|0:2,0:0:0:0:
285,70,60143,6,0,P|240:84|155:58,1,135,6|2,3:2|3:2,0:0:0:0:
78,17,60901,1,2,3:2:0:0:
10,76,61204,2,0,P|18:121|63:159,1,89.9999999999999,2|2,0:2|3:2,0:0:0:0:
131,184,61810,2,0,P|198:177|265:174,1,135,2|10,3:2|0:2,0:0:0:0:
355,177,62568,6,0,P|395:228|386:301,1,135,6|2,3:2|3:2,0:0:0:0:
341,371,63325,1,2,3:2:0:0:
255,342,63628,2,0,P|210:334|163:335,1,89.9999999999999,2|10,1:2|1:2,0:0:0:0:
77,352,64234,2,0,P|25:325|33:244,1,135,10|2,1:2|3:2,0:0:0:0:
107,217,64992,6,0,P|196:212|286:203,1,180,6|2,3:1|3:2,0:0:0:0:
374,184,65901,1,10,0:2:0:0:
448,234,66204,2,0,P|440:308|436:384,2,135,2|2|10,3:2|3:2|0:2,0:0:0:0:
461,145,67416,6,0,P|384:89|299:125,1,180,6|2,3:2|3:2,0:0:0:0:
290,201,68325,1,10,0:2:0:0:
332,280,68628,2,0,P|399:272|466:273,2,135,2|2|10,3:2|3:2|0:2,0:0:0:0:
248,311,69840,6,0,P|199:346|127:336,2,135,6|2|10,3:2|0:0|0:2,0:0:0:0:
264,222,71052,2,0,B|255:174|255:174|268:145|268:145|260:91,2,135,6|2|10,3:2|0:0|0:2,0:0:0:0:
333,280,72265,6,0,P|404:290|475:261,1,135,14|14,0:2|0:2,0:0:0:0:
486,182,73022,1,14,3:2:0:0:
437,106,73325,2,0,P|386:98|340:122,1,89.9999999999999,14|14,0:2|0:2,0:0:0:0:
267,143,73931,2,0,P|216:151|170:127,1,89.9999999999999,14|10,0:2|1:2,0:0:0:0:
81,46,74689,6,0,P|92:115|100:236,1,180,6|2,3:1|3:2,0:0:0:0:
50,299,75598,1,8,0:0:0:0:
114,363,75901,2,0,P|158:355|204:354,1,89.9999999999999,0|8,3:0|0:0,0:0:0:0:
293,355,76507,2,0,P|322:321|325:277,1,89.9999999999999,0|8,3:0|0:0,0:0:0:0:
274,204,77113,6,0,P|229:202|184:194,2,89.9999999999999,4|8|0,3:2|0:0|3:0,0:0:0:0:
360,178,78022,1,8,0:0:0:0:
445,207,78325,2,0,P|457:255|450:306,1,89.9999999999999,0|8,3:0|0:0,0:0:0:0:
382,350,78931,1,0,3:0:0:0:
203,325,79537,6,0,P|212:238|217:145,1,180,4|0,3:2|3:0,0:0:0:0:
187,60,80446,1,4,0:3:0:0:
97,75,80749,2,0,P|88:117|109:163,1,89.9999999999999,12|12,0:2|0:0,0:0:0:0:
262,321,81810,6,0,P|189:311|112:306,1,135,4|0,3:2|3:0,0:0:0:0:
44,342,82568,1,8,0:0:0:0:
4,213,83022,2,0,P|40:159|105:158,1,135,4|8,3:2|0:0,0:0:0:0:
181,205,83780,1,8,0:3:0:0:
313,180,84234,2,0,P|316:113|321:27,1,135,4|8,3:2|0:0,0:0:0:0:
236,9,84992,1,0,3:0:0:0:
108,51,85446,6,0,P|114:107|116:160,1,89.9999999999999,12|12,3:2|3:2,0:0:0:0:
111,230,86052,2,0,P|167:223|220:221,1,89.9999999999999,12|12,3:2|3:2,0:0:0:0:
290,227,86658,2,0,P|283:170|281:117,1,89.9999999999999,12|12,3:2|3:2,0:0:0:0:
287,48,87264,2,0,P|230:54|177:56,1,89.9999999999999,12|12,3:2|3:2,0:0:0:0:
108,51,87871,5,12,3:1:0:0:
